osu file format v14

[General]
AudioFilename: audio.mp3
AudioLeadIn: 0
PreviewTime: -1
Countdown: 0
SampleSet: Soft
StackLeniency: 0.2
Mode: 0
LetterboxInBreaks: 0
WidescreenStoryboard: 1

[Editor]
Bookmarks: 89619,95687,96718
DistanceSpacing: 1
BeatDivisor: 4
GridSize: 4
TimelineZoom: 2.799999

[Metadata]
Title:Chikatto Chika Chika (TV Size)
TitleUnicode:チカっとチカ千花っ♡ (TV Size)
Artist:Fujiwara Chika (CV: Kohara Konomi)
ArtistUnicode:藤原千花 (CV: 小原好美)
Creator:ak74
Version:yf
Source:かぐや様は告らせたい~天才たちの恋愛頭脳戦~
Tags:
BeatmapID:1945312
BeatmapSetID:919688

[Difficulty]
HPDrainRate:7
CircleSize:3.7
OverallDifficulty:8
ApproachRate:9
SliderMultiplier:1.8
SliderTickRate:1

[Events]
//Background and Video events
0,0,"chikaka.jpg",0,0
//Break Periods
//Storyboard Layer 0 (Background)
//Storyboard Layer 1 (Fail)
//Storyboard Layer 2 (Pass)
//Storyboard Layer 3 (Foreground)
//Storyboard Sound Samples

[TimingPoints]
14143,333.333333333333,4,2,0,60,1,0
14393,-100,4,2,0,5,0,0
14476,-100,4,2,0,60,0,0
14726,-100,4,2,0,5,0,0
14809,-66.6666666666667,4,2,0,60,0,0
15059,-66.6666666666667,4,2,0,5,0,0
15143,-66.6666666666667,4,2,0,60,0,0
15393,-66.6666666666667,4,2,0,5,0,0
15476,-57.1428571428571,4,2,0,60,0,0
16143,-222.222222222222,4,2,0,60,0,0
16893,-222.222222222222,4,2,0,5,0,0
16976,-222.222222222222,4,2,0,60,0,0
17476,-133.333333333333,4,2,0,60,0,0
18179,337.078651685393,4,2,0,60,1,0
18179,-133.333333333333,4,2,0,60,0,0
22898,-200,4,2,0,60,0,0
23235,-200,4,2,0,20,0,0
23572,-100,4,2,0,60,0,0
28628,-66.6666666666667,4,2,0,60,0,0
28965,-100,4,2,0,60,0,0
33853,-100,4,2,0,5,0,0
34358,-100,4,2,0,60,0,0
45145,-50,4,2,0,60,0,0
45987,-100,4,2,0,60,0,0
51886,-133.333333333333,4,2,0,60,0,0
54583,-50,4,2,0,60,0,0
54920,-100,4,2,0,60,0,0
57448,-100,4,2,0,5,0,0
57954,-66.6666666666667,4,2,0,60,0,0
58122,-66.6666666666667,4,2,0,5,0,0
58628,-50,4,2,0,60,0,0
58796,-50,4,2,0,5,0,0
59639,-66.6666666666667,4,2,0,60,0,0
59808,-133.333333333333,4,2,0,60,0,0
64695,-66.6666666666667,4,2,0,60,0,0
65032,-50,4,2,0,60,0,0
65285,-50,4,2,0,5,0,0
65370,-133.333333333333,4,2,0,60,0,0
68403,-270.27027027027,4,2,0,60,0,0
68740,-133.333333333333,4,2,0,60,0,0
70089,-100,4,2,0,60,0,0
70341,-100,4,2,0,5,0,0
70426,-50,4,2,0,60,0,0
70763,-100,4,2,0,60,0,0
72111,-133.333333333333,4,2,0,60,0,0
74134,-100,4,2,0,60,0,0
74471,-50,4,2,0,60,0,0
74808,-100,4,2,0,60,0,0
76662,-100,4,2,0,60,0,0
76999,-100,4,2,0,5,0,0
77083,-100,4,2,0,60,0,0
77167,-100,4,2,0,5,0,0
77209,-100,4,2,0,60,0,0
77294,-100,4,2,0,5,0,0
77336,-100,4,2,0,60,0,0
77420,-100,4,2,0,5,0,0
77462,-100,4,2,0,60,0,0
80370,-133.333333333333,4,2,0,60,0,0
80707,-200,4,2,0,60,0,0
81044,-100,4,2,0,60,0,0
83066,-133.333333333333,4,2,0,60,0,0
83403,-200,4,2,0,60,0,0
83740,-100,4,2,0,60,0,0
85763,-133.333333333333,4,2,0,60,0,0
86100,-200,4,2,0,60,0,0
86437,-100,4,2,0,60,0,0
88965,-66.6666666666667,4,2,0,60,0,0
95707,-66.6666666666667,4,2,0,30,0,0

[Colours]
Combo1 : 255,255,128
Combo2 : 255,128,128

[HitObjects]
204,324,14143,6,0,P|188:284|218:321,1,135,0|0,1:0|0:0,0:0:0:0:
308,324,14476,2,0,P|324:284|294:321,1,135,2|0,1:0|0:0,0:0:0:0:
112,316,14809,6,0,P|131:240|256:220,1,202.500007724762,0|0,1:0|0:0,0:0:0:0:
400,316,15143,2,0,P|381:240|256:220,1,202.500007724762,2|0,1:0|0:0,0:0:0:0:
108,164,15476,6,0,P|256:12|404:164,1,472.500004506111,0|0,1:0|0:0,0:0:0:0:
236,150,16143,6,0,P|267:86|276:150,1,182.249994438172,2|2,0:2|0:2,0:0:0:0:
257,121,16976,5,0,1:0:0:0:
281,297,17145,1,0,1:0:0:0:
69,225,17309,1,0,1:0:0:0:
469,193,17476,6,0,P|467:144|425:97,1,101.250003862381,0|0,1:0|0:0,0:0:0:0:
245,49,17809,1,0,0:0:0:0:
245,49,18179,5,0,1:0:0:0:
80,256,18516,5,0,1:0:0:0:
328,264,18684,1,2,1:2:0:0:
324,268,19021,5,0,1:0:0:0:
200,328,19190,1,0,1:0:0:0:
84,260,19358,1,0,0:0:0:0:
284,180,19527,5,0,1:0:0:0:
464,344,19695,1,2,0:0:0:0:
380,192,19864,1,0,1:0:0:0:
512,104,20032,1,0,1:0:0:0:
424,64,20370,5,0,1:0:0:0:
372,364,20538,1,0,1:0:0:0:
452,324,20707,6,0,P|450:313|452:300,3,16.8750006437302
464,344,20875,1,0,1:0:0:0:
372,364,21212,5,0,1:0:0:0:
488,220,21381,1,0,1:0:0:0:
376,292,21591,6,0,P|356:288|336:272,1,33.7500012874604,2|2,0:0|0:0,0:0:0:0:
388,248,21718,2,0,L|356:248,1,16.8750006437302,2|2,0:0|0:0,0:0:0:0:
376,196,21802,2,0,L|344:196,1,16.8750006437302,2|2,0:0|0:0,0:0:0:0:
444,152,21886,6,0,P|464:148|484:132,1,33.7500012874604,2|2,0:0|0:0,0:0:0:0:
432,108,22013,2,0,L|464:108,1,16.8750006437302,2|2,0:0|0:0,0:0:0:0:
444,56,22097,2,0,L|476:56,2,16.8750006437302,2|2|0,0:0|0:0|0:0,0:0:0:0:
368,4,22223,5,0,0:0:0:0:
288,176,22392,5,0,1:0:0:0:
372,312,22561,1,0,1:0:0:0:
436,160,22729,1,0,1:0:0:0:
356,16,22898,6,0,P|307:18|276:64,1,90,0|0,1:0|0:0,0:0:0:0:
356,16,23572,6,0,P|307:18|332:128,1,180,0|0,1:0|1:0,0:0:0:0:
72,104,24077,1,0,1:0:0:0:
72,104,24162,1,0,1:0:0:0:
72,104,24246,1,2,0:0:0:0:
304,128,24414,5,0,1:0:0:0:
224,164,24582,1,0,1:0:0:0:
156,104,24751,1,0,0:0:0:0:
221,172,24920,5,0,1:0:0:0:
108,300,25089,2,0,P|112:322|119:343,1,45,2|0,0:0|0:0,0:0:0:0:
252,336,25257,2,0,P|237:353|220:367,1,45,0|0,1:0|0:0,0:0:0:0:
184,304,25426,1,2,1:0:0:0:
188,296,25763,5,0,1:0:0:0:
324,364,25931,2,0,P|357:365|408:336,1,90,0|0,1:0|0:0,0:0:0:0:
476,200,26268,6,0,P|449:241|367:164,1,180,0|0,1:0|1:0,0:0:0:0:
380,24,26773,1,0,1:0:0:0:
380,24,26858,1,0,1:0:0:0:
380,24,26943,1,2,0:0:0:0:
353,189,27110,5,0,1:0:0:0:
281,240,27278,1,0,1:0:0:0:
299,329,27447,1,0,0:0:0:0:
288,244,27616,5,0,1:0:0:0:
112,272,27785,2,0,P|94:257|80:240,1,45,2|0,0:0|0:0,0:0:0:0:
152,130,27953,2,0,P|128:132|108:139,1,45,0|0,1:0|0:0,0:0:0:0:
146,204,28122,1,2,1:0:0:0:
0,160,28291,2,0,L|56:180,1,45,2|0,0:0|0:0,0:0:0:0:
216,224,28459,6,0,P|225:200|254:177,1,45,2|0,1:2|0:0,0:0:0:0:
288,244,28628,2,0,P|272:140|296:28,1,202.500007724762,0|0,1:0|0:0,0:0:0:0:
156,16,28965,6,0,P|205:18|180:128,1,180,0|0,1:0|1:0,0:0:0:0:
16,288,29470,1,0,1:0:0:0:
16,288,29555,2,0,L|20:224,1,45,0|2,1:0|2:0,0:0:0:0:
208,128,29807,5,0,1:0:0:0:
288,164,29975,1,0,1:0:0:0:
356,104,30144,1,0,0:0:0:0:
300,236,30313,5,0,1:0:0:0:
388,300,30482,2,0,P|384:322|377:343,1,45,2|0,0:0|0:0,0:0:0:0:
243,337,30650,2,0,P|257:355|274:370,1,45,0|0,1:0|0:0,0:0:0:0:
276,92,30819,1,2,1:0:0:0:
312,308,31156,5,0,1:0:0:0:
176,368,31324,2,0,P|143:369|92:340,1,90,0|0,1:0|0:0,0:0:0:0:
24,204,31662,5,0,1:0:0:0:
156,292,31830,1,2,3:2:0:0:
312,308,31999,2,0,P|339:302|356:288,1,45,0|0,1:0|0:0,0:0:0:0:
24,128,32166,1,0,1:0:0:0:
24,128,32251,2,0,P|14:104|16:84,1,45,0|0,1:0|2:0,0:0:0:0:
176,252,32503,5,2,1:2:0:0:
392,224,32673,2,0,P|413:205|420:184,1,45,0|0,1:0|0:0,0:0:0:0:
200,212,32840,1,2,0:0:0:0:
80,48,33010,5,0,1:0:0:0:
220,176,33178,2,0,P|232:152|236:124,1,45,0|0,1:0|0:0,0:0:0:0:
436,176,33347,2,0,P|441:149|437:121,1,45,0|0,1:0|0:0,0:0:0:0:
88,28,33516,2,0,P|108:10|134:-1,1,45,0|0,1:0|0:0,0:0:0:0:
336,8,33684,6,0,P|304:25|260:88,1,90,2|0,1:2|2:0,0:0:0:0:
0,360,34358,6,0,B|16:212|16:212|52:204,1,180,0|0,1:0|1:0,0:0:0:0:
205,225,34863,1,0,1:0:0:0:
205,225,34948,1,0,1:0:0:0:
205,225,35032,1,0,0:0:0:0:
116,288,35200,5,2,1:2:0:0:
132,136,35368,1,0,1:0:0:0:
284,236,35537,1,2,0:0:0:0:
124,212,35706,5,0,1:0:0:0:
244,304,35875,2,0,P|256:326|288:344,1,45,2|0,0:0|0:0,0:0:0:0:
264,156,36044,2,0,P|281:136|316:128,1,45,2|0,1:2|0:0,0:0:0:0:
432,264,36212,1,2,1:0:0:0:
95,206,36549,5,0,1:0:0:0:
432,264,36717,2,0,P|455:226|457:182,1,90,0|0,1:0|0:0,0:0:0:0:
512,24,37055,5,0,1:0:0:0:
492,112,37223,1,2,0:2:0:0:
472,200,37392,1,0,1:0:0:0:
308,160,37560,1,0,1:0:0:0:
308,160,37645,1,0,1:0:0:0:
308,160,37729,1,0,0:0:0:0:
396,96,37897,5,2,1:2:0:0:
380,248,38065,1,0,1:0:0:0:
228,148,38234,1,2,0:0:0:0:
388,172,38403,5,0,1:0:0:0:
268,80,38572,2,0,P|256:58|224:40,1,45,2|0,0:0|0:0,0:0:0:0:
248,228,38741,2,0,P|230:246|194:254,1,45,2|0,1:2|0:0,0:0:0:0:
80,120,38909,1,2,1:0:0:0:
417,178,39246,5,2,1:2:0:0:
80,120,39414,2,0,P|57:158|55:202,1,90,0|0,1:0|0:0,0:0:0:0:
0,324,39752,6,0,B|148:340|148:340|156:376,1,180,0|0,1:0|1:0,0:0:0:0:
328,376,40256,1,0,1:0:0:0:
328,376,40341,1,0,1:0:0:0:
328,376,40426,1,2,0:0:0:0:
260,180,40593,5,0,1:0:0:0:
244,344,40761,1,0,1:0:0:0:
168,256,40930,1,2,0:2:0:0:
336,272,41099,5,0,1:0:0:0:
136,132,41268,2,0,P|150:114|167:100,1,45,2|0,0:0|0:0,0:0:0:0:
388,160,41437,2,0,P|376:140|362:123,1,45,2|0,1:2|0:0,0:0:0:0:
272,0,41605,1,2,1:0:0:0:
252,262,41942,5,0,1:0:0:0:
272,0,42110,2,0,P|305:-1|356:28,1,90,0|0,1:0|0:0,0:0:0:0:
476,192,42448,5,0,1:0:0:0:
20,384,42785,1,0,1:0:0:0:
4,292,42954,1,2,1:2:0:0:
48,192,43122,1,2,0:0:0:0:
176,160,43289,1,2,1:2:0:0:
336,196,43459,1,0,1:2:0:0:
460,356,43628,6,0,P|474:354|492:340,2,30,0|0|0,1:0|1:0|1:0,0:0:0:0:
456,352,43796,5,0,1:0:0:0:
412,336,43881,1,2,3:2:0:0:
368,340,43965,2,0,L|352:268,1,45,0|0,3:0|3:0,0:0:0:0:
293,257,44134,5,2,3:2:0:0:
400,232,44219,1,0,3:0:0:0:
56,352,44471,5,0,1:0:0:0:
100,336,44556,1,2,3:2:0:0:
144,340,44640,2,0,L|160:268,1,45,0|0,3:0|3:0,0:0:0:0:
219,257,44809,5,2,3:2:0:0:
112,232,44894,1,0,3:0:0:0:
320,24,45145,6,0,P|256:310|251:10,1,810,4|0,1:2|0:0,0:0:0:0:
256,64,45987,2,0,L|256:88,10,22.5
256,192,46493,5,0,1:0:0:0:
96,20,46662,1,0,1:0:0:0:
184,104,46999,5,2,0:0:0:0:
144,140,47167,1,2,0:0:0:0:
144,196,47336,1,0,0:0:0:0:
28,268,47504,5,2,0:0:0:0:
256,192,47757,1,2,0:0:0:0:
256,192,47841,5,0,1:0:0:0:
416,20,48010,1,0,1:0:0:0:
328,104,48347,5,2,0:0:0:0:
368,140,48515,1,2,0:0:0:0:
368,196,48684,1,0,0:0:0:0:
484,268,48853,5,2,0:0:0:0:
256,192,49105,1,2,0:0:0:0:
256,192,49190,5,0,1:0:0:0:
96,364,49359,1,0,1:0:0:0:
184,280,49696,5,2,0:0:0:0:
144,244,49864,1,2,0:0:0:0:
144,188,50033,1,0,0:0:0:0:
28,116,50201,5,2,0:0:0:0:
256,192,50496,1,2,0:0:0:0:
256,192,50538,5,0,1:0:0:0:
416,364,50707,1,0,1:0:0:0:
328,280,51044,5,2,0:0:0:0:
368,244,51170,1,2,0:0:0:0:
368,244,51212,1,2,0:0:0:0:
368,188,51381,1,0,0:0:0:0:
484,116,51550,5,2,0:0:0:0:
256,192,51802,1,2,0:0:0:0:
256,192,51886,5,0,1:0:0:0:
96,20,52055,1,0,1:0:0:0:
64,356,52392,5,2,0:0:0:0:
172,260,52561,2,0,P|175:293|165:325,2,67.5000025749208,0|0|0,1:0|0:0|0:0,0:0:0:0:
96,172,53066,2,0,L|135:177,1,33.7500012874604,0|2,0:0|0:0,0:0:0:0:
256,192,53234,5,0,1:0:0:0:
416,20,53403,1,0,1:0:0:0:
448,356,53740,5,2,0:0:0:0:
340,260,53909,2,0,P|336:293|346:325,2,67.5000025749208,0|0|0,1:0|0:0|0:0,0:0:0:0:
416,188,54414,5,2,0:0:0:0:
256,192,54583,6,0,P|148:212|8:360,1,270,2|0,1:0|2:0,0:0:0:0:
0,384,54920,1,0,1:0:0:0:
208,280,55089,5,0,1:0:0:0:
16,188,55257,1,2,0:0:0:0:
145,214,55426,1,0,1:0:0:0:
208,12,55594,5,0,1:0:0:0:
364,72,55763,1,2,0:0:0:0:
256,192,55931,6,0,P|352:224|384:248,1,135,2|0,1:0|2:0,0:0:0:0:
420,308,56268,1,0,1:0:0:0:
284,272,56437,5,0,1:0:0:0:
496,188,56605,1,2,0:0:0:0:
360,152,56774,1,0,1:0:0:0:
304,12,56942,5,0,1:0:0:0:
148,72,57111,1,2,0:0:0:0:
256,192,57280,6,0,L|256:288,1,90,2|0,1:1|2:2,3:2:0:0:
256,147,57954,6,0,L|256:283,1,135.000005149842,2|0,1:1|2:0,0:0:0:0:
256,102,58628,6,0,L|256:282,1,180,2|0,1:1|2:0,0:0:0:0:
20,32,59639,6,0,P|11:13|-12:-4,1,33.7500012874604,4|0,3:2|0:0,0:0:0:0:
40,188,59808,6,0,P|36:208|52:240,1,33.7500012874604,2|0,2:0|0:0,0:0:0:0:
124,212,59976,1,0,1:0:0:0:
192,160,60145,6,0,P|188:140|204:108,1,33.7500012874604,2|0,2:0|0:0,0:0:0:0:
276,136,60313,1,0,1:0:0:0:
180,320,60482,6,0,P|176:340|192:372,1,33.7500012874604,2|0,2:0|0:0,0:0:0:0:
264,344,60650,1,0,3:0:0:0:
432,344,60819,6,0,P|436:324|420:292,1,33.7500012874604,2|0,1:2|0:0,0:0:0:0:
348,320,60987,1,0,1:0:0:0:
124,212,61156,6,0,P|120:192|136:160,1,33.7500012874604,2|0,2:0|0:0,0:0:0:0:
276,136,61325,6,0,P|266:118|251:104,1,33.7500012874604,0|0,1:0|0:0,0:0:0:0:
428,128,61493,2,0,P|437:109|451:94,1,33.7500012874604,2|0,3:2|0:0,0:0:0:0:
348,36,61662,2,0,L|350:69,1,33.7500012874604,0|0,1:2|0:0,0:0:0:0:
360,240,61830,1,0,1:0:0:0:
348,21,62167,5,0,1:0:0:0:
244,204,62336,2,0,L|288:200,1,33.7500012874604,0|2,1:0|0:1,0:0:0:0:
472,188,62504,6,0,P|476:208|460:240,1,33.7500012874604,2|0,2:0|0:0,0:0:0:0:
388,212,62672,1,0,1:0:0:0:
244,128,62841,6,0,P|240:148|256:180,1,33.7500012874604,2|0,2:0|0:0,0:0:0:0:
328,152,63009,1,0,1:0:0:0:
332,320,63178,6,0,P|336:340|320:372,1,33.7500012874604,2|0,1:2|0:0,0:0:0:0:
248,344,63346,1,0,3:0:0:0:
184,292,63516,6,0,P|188:272|172:240,1,33.7500012874604,2|0,1:2|0:0,0:0:0:0:
100,268,63684,1,0,3:0:0:0:
20,288,63852,6,0,P|16:268|32:236,1,33.7500012874604,2|0,2:0|0:0,0:0:0:0:
188,152,64021,6,0,P|198:134|213:120,1,33.7500012874604,0|0,1:0|0:0,0:0:0:0:
36,144,64189,2,0,P|26:125|12:110,1,33.7500012874604,2|0,3:2|0:0,0:0:0:0:
116,52,64358,2,0,L|114:85,1,33.7500012874604,0|0,1:2|0:0,0:0:0:0:
100,256,64526,1,0,1:0:0:0:
119,31,64695,6,0,L|106:193,1,135.000005149842,2|0,3:1|1:0,0:0:0:0:
148,336,65032,6,0,B|188:416|300:376|276:257|200:220|124:328|232:328,1,270,2|0,1:1|2:0,0:0:0:0:
312,368,65369,1,0,1:0:0:0:
320,224,65538,6,0,P|324:244|308:276,1,33.7500012874604,2|0,2:0|0:0,0:0:0:0:
236,248,65706,1,0,1:0:0:0:
332,64,65875,6,0,P|336:44|320:12,1,33.7500012874604,2|0,2:0|0:0,0:0:0:0:
248,40,66043,1,0,3:0:0:0:
80,40,66212,6,0,P|76:60|92:92,1,33.7500012874604,2|0,1:2|0:0,0:0:0:0:
164,64,66380,1,0,1:0:0:0:
388,172,66549,6,0,P|392:192|376:224,1,33.7500012874604,2|0,2:0|0:0,0:0:0:0:
236,248,66718,6,0,P|246:266|261:280,1,33.7500012874604,0|0,1:0|0:0,0:0:0:0:
84,256,66886,2,0,P|75:275|61:290,1,33.7500012874604,2|0,3:2|0:0,0:0:0:0:
153,153,67055,1,0,1:0:0:0:
152,144,67139,1,2,3:1:0:0:
164,348,67308,1,2,3:1:0:0:
164,363,67560,5,0,1:0:0:0:
268,180,67729,1,0,1:0:0:0:
40,196,67897,2,0,P|36:176|52:144,1,33.7500012874604,2|0,2:0|0:0,0:0:0:0:
60,88,68066,6,0,L|116:84,1,33.7500012874604,0|0,1:0|0:0,0:0:0:0:
260,80,68235,2,0,L|316:76,1,33.7500012874604,0|0,1:0|0:0,0:0:0:0:
472,64,68403,6,0,P|476:44|464:24,1,33.3000008129883,2|0,2:0|3:0,0:0:0:0:
450,187,68656,1,0,3:0:0:0:
450,187,68740,6,0,L|394:183,1,33.7500012874604,0|0,1:0|0:0,0:0:0:0:
250,179,68909,2,0,L|194:175,1,33.7500012874604,0|0,1:0|0:0,0:0:0:0:
38,163,69077,6,0,P|34:143|46:123,1,33.7500012874604,2|0,3:0|0:0,0:0:0:0:
208,48,69246,2,0,P|212:68|200:88,1,33.7500012874604,2|0,3:0|0:0,0:0:0:0:
56,280,69414,6,0,L|112:276,1,33.7500012874604,0|0,1:0|0:0,0:0:0:0:
256,272,69583,2,0,L|312:268,1,33.7500012874604,0|0,1:0|0:0,0:0:0:0:
468,256,69751,6,0,P|472:236|460:216,1,33.7500012874604,2|0,3:0|0:0,0:0:0:0:
376,112,69919,1,2,3:0:0:0:
376,336,70089,6,0,B|352:253|396:285|373:204,1,135,2|0,3:1|2:0,0:0:0:0:
376,112,70426,6,0,B|358:24|239:34|231:153|295:210|397:125|292:97,1,270,2|0,1:1|2:0,0:0:0:0:
208,48,70763,6,0,B|183:30|179:2|179:2|167:74|99:86,1,180,0|0,1:0|1:0,0:0:0:0:
276,196,71268,2,0,P|248:160|164:148,1,135,0|0,1:0|0:0,0:0:0:0:
84,168,71605,6,0,P|83:194|88:216,1,45,0|0,1:0|0:0,0:0:0:0:
96,4,71774,1,0,1:0:0:0:
452,288,72111,6,0,L|396:292,1,33.7500012874604,0|0,1:0|0:0,0:0:0:0:
252,296,72280,2,0,L|196:300,1,33.7500012874604,0|0,1:0|0:0,0:0:0:0:
148,84,72448,5,2,3:2:0:0:
136,304,72617,1,2,3:2:0:0:
60,184,72785,6,0,L|116:188,1,33.7500012874604,0|0,1:0|0:0,0:0:0:0:
262,197,72954,2,0,L|318:201,1,33.7500012874604,0|0,1:0|0:0,0:0:0:0:
364,0,73122,5,2,3:2:0:0:
376,220,73291,1,2,3:2:0:0:
456,96,73459,6,0,L|400:100,1,33.7500012874604,0|0,1:0|0:0,0:0:0:0:
256,104,73628,2,0,L|200:108,1,33.7500012874604,0|0,1:0|0:0,0:0:0:0:
44,120,73796,5,2,3:2:0:0:
136,264,73964,1,2,3:2:0:0:
132,36,74134,6,0,L|133:92,1,45,0|0,1:0|0:0,0:0:0:0:
136,204,74302,2,0,L|137:260,1,45,0|0,1:0|0:0,0:0:0:0:
144,376,74471,6,0,B|188:404|260:396|288:334|224:277|380:304|336:416|272:376,1,270,2|0,3:1|2:0,0:0:0:0:
188,316,74808,6,0,P|191:299|228:256,1,45,4|0,1:2|0:0,0:0:0:0:
372,288,74976,1,2,0:1:0:0:
284,220,75313,5,2,0:0:0:0:
420,200,75482,6,0,P|416:183|380:140,1,45,4|0,1:2|0:0,0:0:0:0:
156,168,75650,1,2,0:1:0:0:
284,88,75987,5,2,0:0:0:0:
92,88,76156,6,0,P|95:71|132:28,1,45,4|0,1:2|0:0,0:0:0:0:
284,96,76325,1,0,0:0:0:0:
472,104,76493,6,0,P|468:87|432:44,1,45,4|0,1:2|0:0,0:0:0:0:
288,16,76662,6,0,B|249:93|325:109|277:189,1,180,2|0,0:2|0:0,0:0:0:0:
222,273,77083,6,0,P|192:271|166:285,1,45,2|0,3:0|0:0,0:0:0:0:
298,261,77209,2,0,P|328:263|354:249,1,45,2|0,3:0|0:0,0:0:0:0:
214,265,77336,2,0,P|213:234|206:209,1,45,2|0,3:0|0:0,0:0:0:0:
306,257,77462,2,0,P|290:289|294:361,1,90,2|0,3:0|0:0,0:0:0:0:
352,376,77673,5,0,1:0:0:0:
277,188,77842,1,0,1:0:0:0:
364,48,78010,1,0,1:0:0:0:
444,232,78179,1,0,1:0:0:0:
424,240,78516,6,0,P|426:191|472:160,1,90,4|0,2:0|2:2,0:0:0:0:
356,368,78853,6,0,L|348:256,1,90,0|2,1:0|2:0,0:0:0:0:
228,332,79190,1,0,1:0:0:0:
436,320,79358,1,0,1:0:0:0:
436,320,79443,2,0,L|472:324,2,22.5,0|0|2,1:0|0:0|0:0,0:0:0:0:
344,200,79695,5,0,1:0:0:0:
160,272,79863,1,0,1:0:0:0:
264,188,80032,1,2,0:0:0:0:
176,4,80201,5,0,1:0:0:0:
100,84,80370,2,0,P|104:62|112:44,1,33.7500012874604,2|0,0:0|0:0,0:0:0:0:
280,44,80538,2,0,P|265:27|248:13,1,33.7500012874604,0|0,1:0|0:0,0:0:0:0:
167,138,80707,6,0,L|163:102,1,22.5,0|0,1:0|0:0,0:0:0:0:
243,118,80875,2,0,L|231:90,1,22.5,2|0,0:0|0:0,0:0:0:0:
176,4,81044,5,0,1:0:0:0:
304,0,81212,2,0,P|336:7|377:48,1,90,0|0,1:0|0:0,0:0:0:0:
60,60,81549,6,0,P|35:82|20:139,1,90,0|2,1:0|0:0,0:0:0:0:
68,264,81886,1,0,1:0:0:0:
104,132,82055,1,0,1:0:0:0:
104,132,82140,2,0,L|140:136,2,22.5,0|0|2,1:0|0:0|0:0,0:0:0:0:
0,240,82392,5,0,1:0:0:0:
144,224,82561,1,0,1:0:0:0:
40,332,82728,1,2,0:0:0:0:
224,376,82898,5,0,1:0:0:0:
148,296,83067,2,0,P|152:318|160:336,1,33.7500012874604,2|0,0:0|0:0,0:0:0:0:
328,336,83235,2,0,P|313:353|296:367,1,33.7500012874604,0|0,1:0|0:0,0:0:0:0:
215,242,83404,6,0,L|211:278,1,22.5,0|0,1:0|0:0,0:0:0:0:
291,262,83572,2,0,L|279:290,1,22.5,2|0,0:0|0:0,0:0:0:0:
224,376,83741,5,0,1:0:0:0:
392,384,83909,2,0,P|424:376|465:335,1,90,0|0,1:0|1:0,0:0:0:0:
464,264,84162,1,0,1:0:0:0:
404,224,84246,5,0,1:0:0:0:
328,336,84414,1,0,1:0:0:0:
284,136,84583,1,0,1:0:0:0:
430,158,84751,1,0,1:0:0:0:
430,158,84836,2,0,P|415:152|406:154,1,22.5,0|2,1:0|2:0,0:0:0:0:
344,184,84920,5,0,1:0:0:0:
512,208,85088,5,0,1:0:0:0:
456,24,85256,1,0,1:0:0:0:
336,256,85425,1,2,1:0:0:0:
168,84,85594,5,0,1:0:0:0:
248,8,85763,2,0,P|226:12|208:20,1,33.7500012874604,2|0,1:2|0:0,0:0:0:0:
208,188,85931,2,0,P|191:173|177:156,1,33.7500012874604,0|0,1:0|0:0,0:0:0:0:
304,75,86100,6,0,L|268:71,1,22.5,2|0,2:0|0:0,0:0:0:0:
284,151,86268,2,0,L|256:139,1,22.5,2|0,1:2|0:0,0:0:0:0:
168,84,86437,5,0,1:0:0:0:
356,130,86605,2,0,P|388:123|429:82,1,90,0|0,1:0|1:0,0:0:0:0:
32,112,86943,5,0,1:0:0:0:
164,24,87111,1,2,3:2:0:0:
320,8,87280,2,0,P|347:14|364:28,1,45,0|0,1:0|0:0,0:0:0:0:
32,188,87447,1,0,1:0:0:0:
32,188,87532,2,0,P|22:212|24:232,1,45,0|0,1:0|1:0,0:0:0:0:
184,64,87784,5,2,2:0:0:0:
400,92,87954,2,0,P|421:111|428:132,1,45,0|0,1:0|0:0,0:0:0:0:
208,104,88121,1,2,0:0:0:0:
88,268,88291,5,0,1:0:0:0:
228,140,88459,2,0,P|240:164|244:192,1,45,0|0,1:0|0:0,0:0:0:0:
440,140,88628,2,0,P|445:167|441:195,1,45,0|0,1:0|0:0,0:0:0:0:
96,284,88797,2,0,P|116:302|142:313,1,45,0|0,1:0|0:0,0:0:0:0:
256,180,88965,6,0,P|268:211|300:252,1,67.5000025749208,0|2,1:0|0:2,0:0:0:0:
512,204,89134,2,0,P|504:232|484:272,1,67.5000025749208,0|2,1:0|0:2,0:0:0:0:
284,256,89302,2,0,P|299:285|306:322,1,67.5000025749208,0|2,1:0|0:2,0:0:0:0:
83,362,89471,2,0,P|120:380|164:384,1,67.5000025749208,0|2,1:0|0:2,0:0:0:0:
256,192,91662,5,4,2:0:0:0:
256,192,91746,12,2,95707,0:0:0:0:
