osu file format v14

[General]
AudioFilename: audio.mp3
AudioLeadIn: 0
PreviewTime: 46526
Countdown: 0
SampleSet: Soft
StackLeniency: 0.4
Mode: 0
LetterboxInBreaks: 0
WidescreenStoryboard: 1

[Editor]
Bookmarks: 86806,86975,87144,87312,87481,87649,87818,87986,88155,88323
DistanceSpacing: 0.3
BeatDivisor: 4
GridSize: 32
TimelineZoom: 2.699999

[Metadata]
Title:Chikatto Chika Chika (TV Size)
TitleUnicode:チカっとチカ千花っ♡ (TV Size)
Artist:Fujiwara Chika (CV: Kohara Konomi)
ArtistUnicode:藤原千花 (CV: 小原好美)
Creator:Yukiyo
Version:Extra
Source:Kaguya-sama: Love Is War
Tags:wa Kokurasetai Tensai-tachi no Renai Zunousen wants to be confessed to japanese pop jpop j anime The Geniuses' War of Love and Brains かぐや様は告らせたい ~天才たちの恋愛頭脳戦~ moe spoes NotEnough Amity Sotarks Kowari
BeatmapID:1916878
BeatmapSetID:917930

[Difficulty]
HPDrainRate:6.1
CircleSize:3.8
OverallDifficulty:8.7
ApproachRate:9.4
SliderMultiplier:2.1
SliderTickRate:0.5

[Events]
//Background and Video events
0,0,"chikatto.jpg",0,0
Video,30,"chika.mp4"
//Break Periods
//Storyboard Layer 0 (Background)
//Storyboard Layer 1 (Fail)
//Storyboard Layer 2 (Pass)
//Storyboard Layer 3 (Foreground)
//Storyboard Sound Samples

[TimingPoints]
3380,337.078651685393,4,2,1,60,1,0
3380,-133.333333333333,4,2,1,60,0,0
14166,-100,4,2,1,60,0,0
14419,-200,4,2,1,5,0,0
14503,-200,4,2,1,75,0,0
14756,-200,4,2,1,5,0,0
14840,-100,4,2,1,75,0,0
15093,-100,4,2,1,5,0,0
15177,-200,4,2,1,75,0,0
15430,-200,4,2,1,5,0,0
15514,-200,4,2,1,75,0,0
15936,-200,4,2,1,5,0,0
16020,-100,4,2,1,75,0,0
16104,-200,4,2,1,5,0,0
16188,-100,4,2,1,75,0,0
16947,-200,4,2,1,5,0,0
17031,-100,4,2,1,75,0,0
17874,-66.6666666666667,4,2,1,75,0,0
18211,-90.9090909090909,4,2,1,75,0,0
30346,-142.857142857143,4,2,1,75,0,0
30851,-66.6666666666667,4,2,1,75,0,0
31357,-90.9090909090909,4,2,1,75,0,0
33717,-60,4,2,1,75,0,0
34054,-181.818181818181,4,2,1,75,0,0
34391,-90.9090909090909,4,2,1,75,0,0
45177,-82.5688074152007,4,2,1,75,0,0
57312,-250,4,2,1,75,0,0
57986,-125,4,2,1,75,0,0
58660,-90.9090909090909,4,2,1,75,0,0
59840,-66.6666666666667,4,2,1,100,0,1
78885,-100,4,2,1,75,0,0
95739,-100,4,2,1,5,0,0

[Colours]
Combo1 : 255,226,140
Combo2 : 98,255,98
Combo3 : 138,191,255
Combo4 : 249,153,168

[HitObjects]
463,297,4054,5,2,0:2:0:0:
247,345,4728,1,2,0:2:0:0:
195,230,5402,5,2,0:2:0:0:
326,260,6076,1,2,0:2:0:0:
326,260,8099,5,2,0:2:0:0:
195,230,8773,1,2,0:2:0:0:
247,345,9447,5,2,0:2:0:0:
463,297,10121,1,2,0:2:0:0:
465,281,11469,1,2,0:2:0:0:
466,275,12818,1,2,0:2:0:0:
468,267,13492,1,2,0:2:0:0:
473,258,14166,6,0,B|370:244|370:244|318:258,1,157.5,2|0,3:2|0:2,0:0:0:0:
318,258,14503,2,0,L|335:356,1,78.75,2|2,0:2|0:2,0:0:0:0:
81,169,14840,6,0,B|184:155|184:155|235:169,1,157.5,2|2,3:2|0:2,0:0:0:0:
235,169,15177,2,0,L|218:266,1,78.75,2|2,0:2|0:2,0:0:0:0:
365,140,15514,6,0,P|362:75|321:25,1,131.25,2|0,3:2|0:2,0:0:0:0:
250,27,16020,2,0,P|275:33|301:33,1,52.5,2|0,0:2|0:2,0:0:0:0:
471,3,16188,6,0,B|449:66|458:146|496:99|494:209|469:238|469:238|444:277|409:277|404:199|469:238|469:238|516:271|499:348,1,472.5,2|0,0:2|0:2,0:0:0:0:
493,342,17031,5,0,3:2:0:0:
399,329,17200,1,0,3:2:0:0:
305,316,17368,1,0,3:2:0:0:
211,303,17537,1,0,3:2:0:0:
211,303,17874,6,0,L|206:263,1,39.3750015020371,2|0,0:3|0:2,0:0:0:0:
20,120,18211,6,0,P|104:128|167:72,1,173.250005287171,2|0,3:2|0:2,0:0:0:0:
136,0,18548,2,0,P|134:28|142:56,1,57.7500017623902,10|0,0:2|0:2,0:0:0:0:
385,127,18717,2,0,B|312:114|312:114|217:144,1,173.250005287171,2|0,3:2|0:2,0:0:0:0:
140,222,19054,2,0,B|213:235|213:235|307:204,1,173.250005287171,2|0,3:2|0:0,0:0:0:0:
277,117,19391,2,0,L|221:134,1,57.7500017623902,2|0,0:2|0:2,0:0:0:0:
106,365,19559,6,0,P|150:293|123:214,1,173.250005287171,2|0,3:2|0:2,0:0:0:0:
31,221,19896,2,0,P|85:229|121:212,1,57.7500017623902,10|0,0:2|0:2,0:0:0:0:
191,70,20065,2,0,P|187:154|242:219,1,173.250005287171,2|0,3:2|0:2,0:0:0:0:
336,208,20402,2,0,L|278:201,1,57.7500017623902,2|0,3:2|0:2,0:0:0:0:
416,165,20571,6,0,B|427:198|427:198|424:220,1,57.7500017623902,8|0,0:2|0:2,0:0:0:0:
192,249,20739,2,0,B|181:216|181:216|183:193,1,57.7500017623902,2|0,0:2|0:2,0:0:0:0:
420,76,20908,6,0,P|346:114|339:196,1,173.250005287171,2|0,3:2|0:2,0:0:0:0:
450,280,21245,2,0,P|438:256|415:234,1,57.7500017623902,10|0,0:2|0:2,0:0:0:0:
214,329,21413,2,0,P|255:289|364:323,1,173.250005287171,2|0,3:2|0:2,0:0:0:0:
358,314,21750,1,2,3:2:0:0:
289,233,21919,6,0,L|296:262,11,28.8750008811951,8|0|0|0|2|0|0|0|0|0|0|0,0:2|0:2|0:2|0:2|0:2|0:2|0:2|0:2|0:2|0:2|0:2|0:2,0:0:0:0:
275,189,22424,6,0,L|255:109,1,57.7500017623902,0|0,3:2|0:2,0:0:0:0:
248,88,22593,2,0,L|228:8,1,57.7500017623902,0|0,3:2|0:2,0:0:0:0:
139,191,22762,6,0,L|124:247,1,57.7500017623902,0|0,3:2|0:2,0:0:0:0:
112,292,22931,2,0,L|97:348,1,57.7500017623902,0|0,3:2|0:2,0:0:0:0:
97,348,23604,6,0,L|271:324,1,173.250005287171,2|0,3:2|0:2,0:0:0:0:
268,324,23941,1,10,0:2:0:0:
99,260,24110,2,0,P|75:197|144:110,1,173.250005287171,2|0,3:2|0:2,0:0:0:0:
129,114,24447,1,2,3:2:0:0:
295,201,24615,1,10,0:2:0:0:
381,184,24784,1,2,0:2:0:0:
221,5,24953,5,2,3:2:0:0:
217,99,25121,2,0,L|293:74,1,57.7500017623902,0|0,0:2|0:2,0:0:0:0:
290,74,25290,2,0,L|366:49,1,57.7500017623902,8|0,0:2|0:2,0:0:0:0:
369,47,25458,2,0,B|495:6|495:6|425:7,1,173.250005287171,0|0,3:2|0:2,0:0:0:0:
454,6,25795,1,0,3:2:0:0:
425,222,25964,2,0,L|403:335,1,115.50000352478,8|0,0:2|0:2,0:0:0:0:
74,331,26301,6,0,B|128:330|152:264|152:264|160:313|211:327,1,173.250005287171,2|0,3:2|0:2,0:0:0:0:
184,315,26638,1,10,0:2:0:0:
56,87,26806,1,2,3:2:0:0:
63,171,26975,2,0,P|118:144|99:14,1,173.250005287171,2|0,0:2|0:0,0:0:0:0:
127,41,27312,1,10,0:2:0:0:
257,198,27481,2,0,B|317:179|317:179|364:191|364:191|423:174,1,173.250005287171,2|0,0:2|0:0,0:0:0:0:
290,268,27818,6,0,L|268:321,1,57.7500017623902,0|0,0:2|0:2,0:0:0:0:
443,252,27986,1,8,0:2:0:0:
257,198,28155,2,0,B|317:179|317:179|364:191|364:191|423:174,1,173.250005287171,2|0,0:2|0:0,0:0:0:0:
227,124,28492,2,0,L|205:177,1,57.7500017623902,0|0,3:2|0:2,0:0:0:0:
483,102,28660,2,0,B|514:-8|514:-8|472:31,1,173.250005287171,8|0,0:2|0:2,0:0:0:0:
265,40,28997,6,0,L|94:8,1,173.250005287171,2|0,3:2|0:2,0:0:0:0:
94,8,29335,1,10,0:2:0:0:
15,206,29503,1,2,3:2:0:0:
53,282,29672,1,2,0:2:0:0:
235,124,29840,5,2,3:2:0:0:
163,172,30009,1,10,0:2:0:0:
245,217,30177,1,2,0:2:0:0:
155,79,30346,6,0,L|49:91,1,73.4999977569581,2|0,3:2|0:2,0:0:0:0:
81,87,30683,1,10,0:2:0:0:
480,7,30851,6,0,B|525:108|465:172|465:172|423:114,1,236.250009012223,2|0,3:2|0:2,0:0:0:0:
430,123,31188,1,0,3:2:0:0:
273,26,31357,2,0,L|158:13,1,115.50000352478,8|0,0:2|0:2,0:0:0:0:
45,144,31694,6,0,L|102:137,1,57.7500017623902,2|0,3:2|0:2,0:0:0:0:
43,224,31863,2,0,L|100:230,1,57.7500017623902,2|0,0:2|0:2,0:0:0:0:
60,133,32031,6,0,L|117:126,1,57.7500017623902,10|0,0:2|0:2,0:0:0:0:
56,239,32200,2,0,L|113:245,1,57.7500017623902,2|0,3:2|0:2,0:0:0:0:
80,119,32368,6,0,L|137:112,1,57.7500017623902,2|0,0:2|0:2,0:0:0:0:
66,253,32537,2,0,L|123:259,1,57.7500017623902,2|0,3:2|0:2,0:0:0:0:
99,108,32705,6,0,L|156:101,1,57.7500017623902,10|0,0:2|0:2,0:0:0:0:
75,265,32874,2,0,L|132:271,1,57.7500017623902,2|0,0:2|0:2,0:0:0:0:
233,63,33042,5,2,3:2:0:0:
213,318,33211,1,10,3:2:0:0:
316,2,33379,1,10,0:2:0:0:
288,384,33548,1,10,3:2:0:0:
485,149,33717,6,0,P|394:199|494:228,1,262.5,2|0,0:3|0:2,0:0:0:0:
452,193,34054,6,0,L|346:193,1,86.6250026435853,0|0,3:2|0:2,0:0:0:0:
224,282,34391,6,0,B|288:261|288:261|391:285,1,173.250005287171,2|0,3:2|0:2,0:0:0:0:
391,285,34728,1,10,0:2:0:0:
243,372,34896,1,2,3:2:0:0:
155,340,35065,1,2,0:2:0:0:
239,98,35233,5,2,3:2:0:0:
226,188,35402,1,10,0:2:0:0:
154,131,35571,1,2,0:2:0:0:
390,225,35739,6,0,L|505:208,1,115.50000352478,2|0,3:2|0:2,0:0:0:0:
504,208,36076,1,8,0:2:0:0:
201,354,36245,2,0,B|151:346|138:304|138:304|104:333|54:319,1,173.250005287171,0|0,3:2|0:2,0:0:0:0:
55,319,36582,1,0,3:2:0:0:
211,48,36750,2,0,L|221:163,1,115.50000352478,8|0,0:2|0:2,0:0:0:0:
253,367,37087,5,2,3:2:0:0:
345,338,37256,1,2,0:2:0:0:
88,219,37424,5,10,0:2:0:0:
34,148,37593,1,2,3:2:0:0:
122,133,37762,2,0,L|112:315,1,173.250005287171,2|0,0:2|0:0,0:0:0:0:
112,305,38099,1,10,0:2:0:0:
37,367,38267,1,2,0:2:0:0:
314,170,38436,5,2,3:2:0:0:
407,177,38604,1,2,0:2:0:0:
282,255,38773,1,10,0:2:0:0:
256,98,38941,2,0,B|296:-13|296:-13|314:68,1,173.250005287171,2|0,3:2|0:2,0:0:0:0:
307,40,39278,1,0,3:2:0:0:
114,204,39447,2,0,P|47:219|-25:189,1,115.50000352478,8|0,0:2|0:2,0:0:0:0:
161,125,39700,5,2,0:2:0:0:
161,125,39784,2,0,B|175:184|163:251|163:251|196:205,1,173.250005287171,2|0,3:2|0:2,0:0:0:0:
190,213,40121,1,10,0:2:0:0:
453,318,40290,2,0,P|369:301|293:338,1,173.250005287171,2|0,3:2|0:2,0:0:0:0:
293,338,40627,1,2,3:2:0:0:
214,322,40795,1,10,0:2:0:0:
131,296,40964,1,2,0:2:0:0:
486,171,41132,6,0,P|414:213|340:175,1,173.250005287171,2|0,3:2|0:2,0:0:0:0:
340,174,41469,1,10,0:2:0:0:
53,22,41638,2,0,B|141:12|141:12|215:52,1,173.250005287171,2|0,3:2|0:2,0:0:0:0:
215,52,41975,1,2,3:2:0:0:
192,138,42144,1,10,0:2:0:0:
160,223,42312,1,2,0:2:0:0:
455,46,42481,6,0,P|399:108|318:91,1,173.250005287171,2|0,3:2|0:2,0:0:0:0:
318,91,42818,1,10,0:2:0:0:
49,268,42986,2,0,P|131:249|203:294,1,173.250005287171,0|0,3:2|0:2,0:0:0:0:
203,294,43323,1,0,3:2:0:0:
31,120,43492,2,0,L|21:4,1,115.50000352478,8|0,0:2|0:2,0:0:0:0:
206,189,43829,6,0,L|305:201,1,57.7500017623902,2|2,3:2|0:2,0:0:0:0:
471,77,43997,1,2,0:2:0:0:
426,83,44082,1,2,0:2:0:0:
397,109,44166,2,0,P|371:167|397:307,1,173.250005287171,2|0,0:2|0:2,0:0:0:0:
319,368,44503,6,0,L|294:283,1,57.7500017623902,2|2,3:2|0:2,0:0:0:0:
241,86,44672,1,2,0:2:0:0:
238,135,44756,1,2,0:2:0:0:
220,173,44840,2,0,P|144:213|60:197,1,173.250005287171,2|0,0:2|0:2,0:0:0:0:
60,197,45177,6,0,B|106:381|525:391|575:92|444:-37|187:-35|96:10|86:153|167:270|278:202|321:149,1,953.74997493638,0|0,3:2|0:2,0:0:0:0:
285,179,46526,5,0,3:2:0:0:
285,179,46694,1,0,3:2:0:0:
58,70,46863,1,0,0:2:0:0:
58,70,47031,1,0,0:2:0:0:
264,84,47200,5,0,0:2:0:0:
225,9,47368,1,0,0:2:0:0:
178,79,47537,1,0,0:2:0:0:
264,84,47705,1,0,0:2:0:0:
70,198,47874,5,0,3:2:0:0:
70,198,48042,1,0,3:2:0:0:
301,358,48211,5,0,0:2:0:0:
209,332,48379,1,0,0:2:0:0:
327,266,48548,1,0,0:2:0:0:
301,358,48717,1,0,0:2:0:0:
234,237,48885,1,0,0:2:0:0:
493,310,49222,5,0,3:2:0:0:
493,310,49391,1,0,3:2:0:0:
351,40,49559,1,0,0:2:0:0:
363,132,49728,1,0,0:2:0:0:
453,169,49896,5,0,0:2:0:0:
59,215,50233,1,0,0:2:0:0:
117,286,50571,5,0,3:2:0:0:
117,286,50739,1,0,3:2:0:0:
92,13,50908,1,0,0:2:0:0:
13,158,51076,2,0,L|129:137,1,63.5833316624253,0|0,0:2|0:2,0:0:0:0:
335,125,51245,5,0,0:2:0:0:
253,81,51413,1,0,0:2:0:0:
254,175,51582,1,0,0:2:0:0:
420,340,51919,5,0,3:2:0:0:
420,340,52087,1,0,3:2:0:0:
467,88,52256,1,0,0:2:0:0:
379,258,52424,1,0,0:2:0:0:
467,88,52593,5,8,0:2:0:0:
377,99,52762,1,0,0:2:0:0:
409,13,52930,1,0,0:2:0:0:
467,88,53099,1,0,0:2:0:0:
117,67,53267,5,0,3:2:0:0:
117,67,53436,1,0,3:2:0:0:
381,202,53604,1,0,0:2:0:0:
124,152,53773,1,0,0:2:0:0:
381,202,53941,5,8,0:2:0:0:
211,358,54278,5,2,0:2:0:0:
408,300,54447,1,2,0:2:0:0:
153,252,54615,6,0,B|17:237|17:237|58:270,1,190.749994987276,2|0,3:2|0:2,0:0:0:0:
58,270,54953,1,8,0:2:0:0:
170,22,55121,2,0,P|153:110|226:163,1,190.749994987276,0|0,3:2|0:2,0:0:0:0:
226,163,55458,1,2,3:2:0:0:
466,12,55627,2,0,L|482:162,1,127.166663324851,8|2,0:2|0:2,0:0:0:0:
242,283,55964,6,0,P|309:253|422:316,1,190.749994987276,2|0,3:2|0:2,0:0:0:0:
410,297,56301,1,10,0:2:0:0:
119,133,56469,1,2,3:2:0:0:
42,191,56638,1,2,0:2:0:0:
211,136,56806,2,0,L|191:74,1,63.5833316624253,0|0,3:2|0:2,0:0:0:0:
85,366,56975,2,0,B|125:225|125:225|134:268,1,190.749994987276,8|0,0:2|0:2,0:0:0:0:
176,351,57312,6,0,L|259:340,1,84,2|2,3:2|0:2,0:0:0:0:
512,205,57986,6,0,L|345:184,1,168,2|2,3:2|0:2,0:0:0:0:
103,15,58660,6,0,B|-4:34|-24:123|4:203|91:213|129:187|129:187|79:209|67:288|92:335|134:387|236:393|285:343|302:278,1,693.000021148682,2|2,3:2|0:3,0:0:0:0:
331,73,59840,6,0,B|494:51|494:51|436:94,1,236.250009012223,2|0,0:2|0:0,0:0:0:0:
436,94,60177,1,2,0:2:0:0:
138,122,60346,1,10,0:2:0:0:
62,169,60514,1,2,3:2:0:0:
380,239,60683,1,2,0:2:0:0:
441,302,60851,1,2,3:2:0:0:
80,252,61020,1,10,0:2:0:0:
11,298,61188,1,2,0:2:0:0:
285,376,61357,5,2,3:2:0:0:
304,292,61526,1,2,0:2:0:0:
165,304,61694,1,10,0:2:0:0:
199,384,61863,1,2,3:2:0:0:
230,247,62031,1,2,0:2:0:0:
230,247,62368,6,0,L|241:144,1,78.7500030040742,10|0,0:2|0:2,0:0:0:0:
196,0,62537,6,0,P|248:87|317:12,1,236.250009012223,2|0,0:2|0:0,0:0:0:0:
317,12,62874,1,2,0:2:0:0:
58,138,63042,1,10,0:2:0:0:
117,72,63211,1,2,3:2:0:0:
439,176,63379,5,2,0:2:0:0:
466,260,63548,1,2,3:2:0:0:
376,241,63717,1,10,0:2:0:0:
439,176,63885,1,2,0:2:0:0:
150,376,64054,5,2,3:2:0:0:
135,252,64222,1,2,0:2:0:0:
81,321,64391,1,10,0:2:0:0:
204,307,64559,1,2,3:2:0:0:
81,321,64728,2,0,L|64:242,1,78.7500030040742,2|0,0:2|0:2,0:0:0:0:
75,236,64896,2,0,L|58:157,1,78.7500030040742,2|0,3:2|0:2,0:0:0:0:
68,145,65065,2,0,L|51:66,1,78.7500030040742,10|0,0:2|0:2,0:0:0:0:
512,25,65233,6,0,B|440:17|440:17|365:41|365:41|265:30,1,236.250009012223,2|0,0:2|0:0,0:0:0:0:
269,31,65571,1,2,0:2:0:0:
309,141,65739,1,10,0:2:0:0:
259,31,65908,1,2,3:2:0:0:
75,332,66076,5,2,0:2:0:0:
108,227,66245,1,2,3:2:0:0:
67,338,66413,1,10,0:2:0:0:
101,217,66582,1,2,0:2:0:0:
512,274,66750,6,0,P|401:255|335:347,1,236.250009012223,2|0,3:2|0:2,0:0:0:0:
335,347,67087,1,10,0:2:0:0:
411,0,67256,2,0,B|441:79|441:79|390:221,1,236.250009012223,2|0,3:2|0:2,0:0:0:0:
390,221,67593,1,2,3:2:0:0:
161,42,67762,2,0,L|2:19,1,157.500006008148,10|0,0:2|0:2,0:0:0:0:
109,384,68099,6,0,L|126:307,1,78.7500030040742,2|0,3:2|0:2,0:0:0:0:
28,72,68267,2,0,L|45:148,1,78.7500030040742,2|0,3:2|0:2,0:0:0:0:
227,251,68436,2,0,B|163:256|133:194|133:194|93:254|20:241,1,236.250009012223,2|0,0:2|0:2,0:0:0:0:
224,156,68773,6,0,P|262:146|301:146,1,78.7500030040742,2|0,3:2|0:2,0:0:0:0:
391,322,68941,2,0,P|352:314|317:297,1,78.7500030040742,2|0,3:2|0:2,0:0:0:0:
367,72,69110,2,0,B|401:157|401:157|380:219,1,157.500006008148,2|2,0:2|0:2,0:0:0:0:
221,364,69363,5,0,0:2:0:0:
221,364,69447,2,0,P|208:326|209:287,1,78.7500030040742,2|0,3:2|0:2,0:0:0:0:
240,122,69615,2,0,P|263:90|296:68,1,78.7500030040742,2|0,3:2|0:2,0:0:0:0:
451,32,69784,1,2,0:2:0:0:
295,218,69953,1,2,0:2:0:0:
18,141,70121,5,2,3:2:0:0:
117,209,70290,1,0,3:2:0:0:
87,77,70458,2,0,P|71:172|139:307,1,236.250009012223,10|0,0:2|0:2,0:0:0:0:
127,295,70795,6,0,B|187:247|272:264|272:264|248:313|284:382,1,236.250009012223,2|0,3:2|0:2,0:0:0:0:
269,345,71132,1,8,0:2:0:0:
512,151,71301,2,0,P|406:201|348:301,1,236.250009012223,0|0,3:2|0:2,0:0:0:0:
348,301,71638,1,0,3:2:0:0:
230,127,71806,2,0,P|307:177|287:86,1,236.250009012223,8|0,0:2|0:2,0:0:0:0:
287,86,72144,6,0,L|174:95,1,78.7500030040742,2|0,3:2|0:2,0:0:0:0:
175,96,72312,2,0,L|96:101,1,78.7500030040742,2|0,3:2|0:2,0:0:0:0:
7,119,72481,1,2,0:2:0:0:
255,375,72649,1,2,0:2:0:0:
212,51,72818,6,0,L|325:60,1,78.7500030040742,2|0,3:2|0:2,0:0:0:0:
324,61,72986,2,0,L|403:66,1,78.7500030040742,2|0,3:2|0:2,0:0:0:0:
492,84,73155,1,2,0:2:0:0:
253,384,73323,1,2,0:2:0:0:
143,141,73492,6,0,L|114:42,1,78.7500030040742,2|0,3:2|0:2,0:0:0:0:
391,65,73660,2,0,L|369:141,1,78.7500030040742,2|0,3:2|0:2,0:0:0:0:
257,362,73829,1,2,0:2:0:0:
253,7,73997,1,2,0:2:0:0:
64,184,74166,6,0,P|92:211|128:224,1,78.7500030040742,2|0,3:2|0:2,0:0:0:0:
377,226,74335,2,0,P|413:212|441:185,1,78.7500030040742,2|0,3:2|0:2,0:0:0:0:
194,73,74503,2,0,P|256:153|314:69,1,236.250009012223,2|0,0:2|0:2,0:0:0:0:
253,7,74840,5,2,3:2:0:0:
4,192,75009,1,2,3:2:0:0:
11,195,75346,5,2,0:2:0:0:
255,373,75515,1,2,3:2:0:0:
19,196,75683,1,2,3:2:0:0:
29,197,76020,5,2,0:2:0:0:
352,194,76188,1,2,3:2:0:0:
37,197,76357,1,2,3:2:0:0:
384,194,76526,1,2,3:2:0:0:
10,195,76694,6,0,B|102:171|102:171|166:203|246:212|246:212|301:182|384:178|384:178|447:227|498:202|526:177|520:115|503:94|478:78|437:84|410:108|397:138|419:169|500:157|504:56|456:7|395:-5|395:-5|417:25|418:45,1,866.250033044816,2|0,3:2|0:2,0:0:0:0:
416,34,77705,5,8,0:2:0:0:
320,322,77874,1,8,0:2:0:0:
429,39,78042,5,8,0:2:0:0:
332,326,78211,1,8,0:2:0:0:
41,53,78548,6,0,L|31:-2,1,39.3750015020371,2|0,0:3|0:2,0:0:0:0:
39,295,78885,6,0,B|141:274|141:274|195:290,1,157.5,2|0,3:2|0:2,0:0:0:0:
242,359,79222,2,0,P|240:332|230:308,1,52.5,10|0,0:2|0:2,0:0:0:0:
112,143,79391,2,0,P|166:196|243:195,1,157.5,2|0,3:2|0:2,0:0:0:0:
286,101,79728,2,0,P|231:47|154:48,1,157.5,2|0,3:2|0:0,0:0:0:0:
200,122,80065,2,0,L|221:74,1,52.5,2|0,0:2|0:2,0:0:0:0:
475,193,80233,6,0,B|413:209|413:209|309:178,1,157.5,2|0,3:2|0:2,0:0:0:0:
306,98,80571,2,0,P|326:113|340:136,1,52.5,10|0,0:2|0:2,0:0:0:0:
354,367,80739,2,0,P|334:294|387:241,1,157.5,2|0,3:2|0:2,0:0:0:0:
396,258,81076,2,0,P|343:311|270:291,1,157.5,2|0,3:2|0:0,0:0:0:0:
111,223,81413,6,0,B|228:206|228:206|196:245,1,157.5,2|0,0:2|0:0,0:0:0:0:
149,297,81750,1,2,0:2:0:0:
44,279,81919,1,10,0:2:0:0:
162,314,82087,1,2,3:2:0:0:
26,296,82256,1,2,0:2:0:0:
172,329,82424,1,2,3:2:0:0:
11,312,82593,1,10,0:2:0:0:
81,369,82762,1,2,0:2:0:0:
131,147,82930,6,0,P|151:73|220:40,1,157.5,2|0,3:2|0:2,0:0:0:0:
311,38,83267,2,0,P|285:42|262:54,1,52.5,10|0,0:2|0:2,0:0:0:0:
231,250,83436,2,0,B|221:140|221:140|262:177,1,157.5,2|0,3:2|0:2,0:0:0:0:
248,280,83773,2,0,B|157:343|157:343|169:289,1,157.5,2|0,3:2|0:0,0:0:0:0:
270,255,84110,2,0,L|321:262,1,52.5,2|0,0:2|0:2,0:0:0:0:
492,287,84278,5,10,0:2:0:0:
180,183,84447,1,2,3:2:0:0:
179,205,84615,5,10,0:2:0:0:
490,306,84784,1,2,3:2:0:0:
445,216,84953,5,10,0:2:0:0:
264,237,85121,1,2,3:2:0:0:
259,259,85290,5,10,0:2:0:0:
454,195,85458,1,2,3:2:0:0:
183,49,85627,5,8,0:2:0:0:
242,113,85795,1,0,3:2:0:0:
166,37,85964,1,8,0:2:0:0:
257,126,86132,1,0,3:2:0:0:
153,128,86301,5,8,0:2:0:0:
266,27,86469,1,0,3:2:0:0:
131,150,86638,1,8,0:2:0:0:
281,9,86806,5,2,3:2:0:0:
440,185,86975,1,10,0:2:0:0:
392,68,87143,5,2,3:2:0:0:
294,372,87312,1,10,0:2:0:0:
401,305,87481,5,2,3:2:0:0:
85,261,87649,1,10,0:2:0:0:
169,354,87818,5,2,3:2:0:0:
158,35,87986,1,10,0:2:0:0:
80,135,88155,5,2,3:2:0:0:
358,216,88323,6,0,L|308:203,1,52.5,10|0,0:2|0:2,0:0:0:0:
231,294,88492,2,0,L|244:244,1,52.5,2|0,3:2|0:2,0:0:0:0:
153,167,88660,2,0,L|203:180,1,52.5,10|0,0:2|0:2,0:0:0:0:
280,89,88829,2,0,L|267:139,1,52.5,2|0,3:2|0:2,0:0:0:0:
161,255,88997,5,10,0:2:0:0:
358,126,89166,1,10,3:2:0:0:
312,27,89335,5,10,0:2:0:0:
221,339,89503,1,10,0:2:0:0:
186,66,91694,5,2,3:2:0:0:
256,192,91778,12,0,95739,0:3:0:0:
