osu file format v14

[General]
AudioFilename: audio.mp3
AudioLeadIn: 0
PreviewTime: -1
Countdown: 0
SampleSet: None
StackLeniency: 0.7
Mode: 0
LetterboxInBreaks: 0
WidescreenStoryboard: 1

[Editor]
Bookmarks: 4054,14166,18211,23604,34391,43829,46526,54615,57312,59672,60009,72144,78885,84278,89503,91694,95739
DistanceSpacing: 0.8
BeatDivisor: 4
GridSize: 4
TimelineZoom: 2.1

[Metadata]
Title:Chikatto Chika Chika (TV Size)
TitleUnicode:チカっとチカ千花っ♡ (TV Size)
Artist:Fujiwara Chika (CV: Kohara Konomi)
ArtistUnicode:藤原千花 (CV: 小原好美)
Creator:WillCookie
Version:ok storakz made this epic signed by storakz
Source:Kaguya-sama: Love Is War
Tags:
BeatmapID:1981818
BeatmapSetID:948358

[Difficulty]
HPDrainRate:6
CircleSize:4
OverallDifficulty:9
ApproachRate:9.3
SliderMultiplier:1.2
SliderTickRate:1

[Events]
//Background and Video events
0,0,"chika.png",0,0
//Break Periods
2,96360,101759
//Storyboard Layer 0 (Background)
//Storyboard Layer 1 (Fail)
//Storyboard Layer 2 (Pass)
//Storyboard Layer 3 (Foreground)
//Storyboard Sound Samples

[TimingPoints]
3380,337.078651685393,4,2,0,100,1,0
18211,-50,4,2,0,100,0,0
18632,-55.5555555555556,4,2,0,100,0,0
23604,-80,4,2,0,100,0,0
47537,-222.222222222221,4,2,0,100,0,0
48885,-100,4,2,0,100,0,0
59672,-50,4,2,0,100,0,0
60009,-80,4,2,0,100,0,1
72144,-100,4,2,0,100,0,0
78717,-50,4,2,0,100,0,0
78885,-50,4,2,0,100,0,0
81245,-80,4,2,0,100,0,0
84278,-80,4,2,0,100,0,1
89503,-100,4,2,0,100,0,0
91610,-142.857142857143,4,2,0,100,0,0
91694,-153.846153846154,4,2,0,100,0,0
91947,-250,4,2,0,100,0,0

[HitObjects]
84,80,4054,5,0,0:0:0:0:
300,228,4728,1,0,0:0:0:0:
88,236,5402,5,0,0:0:0:0:
280,68,6076,1,0,0:0:0:0:
317,258,8099,5,0,0:0:0:0:
102,189,8773,1,0,0:0:0:0:
344,125,9447,5,0,0:0:0:0:
226,215,10121,1,0,0:0:0:0:
256,192,11469,5,0,0:0:0:0:
256,192,12818,1,0,0:0:0:0:
256,192,13492,5,0,0:0:0:0:
416,118,14166,2,0,P|452:168|419:228,1,120
214,255,14840,6,0,P|195:196|245:149,1,120
396,90,15514,2,0,P|416:159|406:229,1,120
326,276,16020,5,0,0:0:0:0:
292,93,16188,1,0,0:0:0:0:
144,102,17031,5,0,0:0:0:0:
272,278,17200,1,0,0:0:0:0:
326,71,17368,5,0,0:0:0:0:
132,261,17537,1,0,0:0:0:0:
323,179,17874,6,0,L|349:159,1,30
47,80,18211,2,0,B|196:77|102:160|257:168,1,240
422,155,18717,6,0,P|451:119|396:76,1,107.999996704102
279,174,19054,1,0,0:0:0:0:
153,57,19222,5,0,0:0:0:0:
179,235,19391,1,0,0:0:0:0:
99,112,19559,5,0,0:0:0:0:
224,228,19727,1,0,0:0:0:0:
199,51,19896,5,0,0:0:0:0:
337,170,20065,1,0,0:0:0:0:
427,100,20233,6,0,P|331:30|234:33,1,215.999993408203
140,62,20739,1,0,0:0:0:0:
53,186,20908,6,0,B|199:173|99:269|250:253,1,215.999993408203
425,261,21414,6,0,P|454:219|422:180,1,107.999996704102
270,271,21750,1,0,0:0:0:0:
184,146,21919,5,0,0:0:0:0:
116,297,22087,1,0,0:0:0:0:
274,109,22424,5,0,0:0:0:0:
413,268,22593,1,0,0:0:0:0:
274,109,22762,5,0,0:0:0:0:
413,268,22930,1,0,0:0:0:0:
97,131,23604,6,0,P|105:214|116:220,1,75
191,209,23941,1,0,0:0:0:0:
286,288,24110,6,0,P|277:204|266:199,1,75
191,209,24447,1,0,0:0:0:0:
94,298,24615,5,0,0:0:0:0:
252,140,24784,1,0,0:0:0:0:
304,340,24953,5,0,0:0:0:0:
94,298,25121,1,0,0:0:0:0:
341,151,25290,6,0,P|366:192|346:226,1,75
249,105,25627,1,0,0:0:0:0:
264,243,25795,5,0,0:0:0:0:
448,176,25964,2,0,P|446:233|413:273,1,75
163,289,26301,6,0,P|123:248|130:212,1,75
184,147,26638,1,0,0:0:0:0:
374,108,26806,5,0,0:0:0:0:
301,263,26975,1,0,0:0:0:0:
261,80,27144,5,0,0:0:0:0:
412,230,27312,1,0,0:0:0:0:
434,52,27481,6,0,P|452:90|429:140,1,75
200,115,27818,6,0,P|230:66|267:65,1,75
343,105,28155,1,0,0:0:0:0:
266,191,28323,5,0,0:0:0:0:
412,252,28492,1,0,0:0:0:0:
317,157,28661,5,0,0:0:0:0:
235,307,28829,1,0,0:0:0:0:
149,229,28997,6,0,P|124:187|132:135,1,75
235,203,29335,1,0,0:0:0:0:
166,56,29503,5,0,0:0:0:0:
312,117,29672,1,0,0:0:0:0:
142,132,29841,5,0,0:0:0:0:
258,34,30009,1,0,0:0:0:0:
388,185,30177,5,0,0:0:0:0:
272,253,30346,2,0,P|220:272|175:257,1,75
79,72,30683,5,0,0:0:0:0:
155,310,30851,2,0,P|200:268|199:227,1,75
119,204,31188,5,0,0:0:0:0:
340,277,31357,2,0,P|382:253|397:202,1,75
180,71,31694,5,0,0:0:0:0:
251,235,31863,1,0,0:0:0:0:
82,86,32031,5,0,0:0:0:0:
191,226,32200,1,0,0:0:0:0:
41,155,32368,5,0,0:0:0:0:
128,254,32537,1,0,0:0:0:0:
161,134,32705,5,0,0:0:0:0:
42,273,32874,1,0,0:0:0:0:
248,274,33042,5,0,0:0:0:0:
383,143,33211,1,0,0:0:0:0:
132,58,33379,5,0,0:0:0:0:
356,235,33548,1,0,0:0:0:0:
206,205,33717,5,0,0:0:0:0:
93,64,34391,2,0,L|92:152,1,75
195,174,34728,6,0,L|196:264,1,75
331,155,35065,1,0,0:0:0:0:
75,271,35233,5,0,0:0:0:0:
110,57,35402,1,0,0:0:0:0:
291,270,35571,5,0,0:0:0:0:
318,97,35739,6,0,P|267:143|236:152,1,75
436,106,36076,5,0,0:0:0:0:
363,261,36245,1,0,0:0:0:0:
323,78,36414,5,0,0:0:0:0:
474,228,36582,1,0,0:0:0:0:
315,242,36750,5,0,0:0:0:0:
439,83,36919,1,0,0:0:0:0:
147,184,37087,6,0,P|87:176|66:182,2,75
409,170,37593,5,0,0:0:0:0:
206,109,37761,1,0,0:0:0:0:
337,61,37929,5,0,0:0:0:0:
301,260,38098,1,0,0:0:0:0:
154,200,38267,5,0,0:0:0:0:
58,289,38436,2,0,P|104:327|149:335,1,75
109,62,38773,5,0,0:0:0:0:
282,273,38941,1,0,0:0:0:0:
295,148,39110,5,0,0:0:0:0:
137,205,39278,1,0,0:0:0:0:
453,145,39447,6,0,P|467:192|444:212,1,75
315,272,39784,2,0,P|270:248|259:200,1,75
209,143,40121,5,0,0:0:0:0:
99,269,40290,1,0,0:0:0:0:
68,108,40458,5,0,0:0:0:0:
255,271,40627,1,0,0:0:0:0:
169,94,40795,5,0,0:0:0:0:
159,280,40964,1,0,0:0:0:0:
368,228,41132,6,0,P|368:272|340:295,1,75
291,174,41469,1,0,0:0:0:0:
286,318,41638,5,0,0:0:0:0:
182,248,41806,2,0,P|172:209|201:156,1,75
282,96,42144,5,0,0:0:0:0:
445,190,42312,1,0,0:0:0:0:
263,89,42481,2,0,P|211:83|118:116,1,150
208,344,42986,5,0,0:0:0:0:
229,96,43155,1,0,0:0:0:0:
137,270,43323,5,0,0:0:0:0:
293,169,43492,1,0,0:0:0:0:
61,184,43660,5,0,0:0:0:0:
166,47,43829,2,0,L|228:47,1,37.5
268,108,43997,6,0,L|230:108,1,37.5
168,176,44166,2,0,L|230:176,1,37.5
401,272,44503,6,0,L|339:272,1,37.5
298,211,44671,2,0,L|335:210,1,37.5,0|0,0:0|0:0,0:0:0:0:
399,143,44840,6,0,L|337:143,1,37.5
17,55,45177,2,0,B|334:43|66:242|454:217,1,487.5
72,80,46526,5,0,0:0:0:0:
72,256,46694,1,0,0:0:0:0:
164,80,46863,5,0,0:0:0:0:
164,256,47031,1,0,0:0:0:0:
252,84,47200,5,0,0:0:0:0:
252,260,47368,1,0,0:0:0:0:
388,100,47537,6,0,L|414:68,1,22.5000008583069
408,192,47874,1,0,0:0:0:0:
359,264,48042,5,0,0:0:0:0:
272,284,48211,1,0,0:0:0:0:
192,252,48379,5,0,0:0:0:0:
144,184,48548,1,0,0:0:0:0:
164,104,48717,5,0,0:0:0:0:
228,40,48885,2,0,P|278:45|305:69,1,60
376,128,49222,5,0,0:0:0:0:
252,128,49391,1,0,0:0:0:0:
380,208,49559,5,0,0:0:0:0:
256,208,49728,1,0,0:0:0:0:
385,314,49896,6,0,P|316:315|262:316,1,120
144,113,50571,1,0,0:0:0:0:
108,224,50739,5,0,0:0:0:0:
206,118,50908,1,0,0:0:0:0:
226,228,51076,5,0,0:0:0:0:
273,108,51245,1,0,0:0:0:0:
228,214,51413,5,0,0:0:0:0:
384,130,51582,1,0,0:0:0:0:
56,192,51919,6,0,B|120:192,1,60
256,192,52256,1,0,0:0:0:0:
116,192,52593,6,0,P|125:242|226:330,1,180
146,76,53267,1,0,0:0:0:0:
277,215,53436,5,0,0:0:0:0:
276,74,53604,1,0,0:0:0:0:
175,216,53773,5,0,0:0:0:0:
366,89,53941,1,0,0:0:0:0:
434,221,54110,5,0,0:0:0:0:
473,104,54278,1,0,0:0:0:0:
327,158,54447,1,0,0:0:0:0:
327,158,54615,6,0,P|298:183|256:173,1,60
298,58,54953,1,0,0:0:0:0:
197,232,55121,5,0,0:0:0:0:
152,65,55290,1,0,0:0:0:0:
359,191,55458,6,0,P|353:219|329:253,1,60
278,142,55795,1,0,0:0:0:0:
119,111,55964,6,0,P|88:149|89:186,1,60
217,119,56301,1,0,0:0:0:0:
443,102,56469,5,0,0:0:0:0:
185,186,56638,2,0,P|135:227|136:337,1,180
480,84,57312,6,0,B|398:86|484:142|364:137,1,120
257,146,57986,6,0,B|310:90|209:111|282:45,1,120
77,308,58660,2,0,B|316:291|75:217|332:171,1,300
62,85,59672,6,0,B|163:89|106:157|250:140,1,180
391,105,60177,1,0,0:0:0:0:
117,283,60346,5,0,0:0:0:0:
161,67,60514,1,0,0:0:0:0:
363,292,60683,5,0,0:0:0:0:
353,52,60851,1,0,0:0:0:0:
116,273,61020,5,0,0:0:0:0:
406,140,61188,1,0,0:0:0:0:
91,116,61357,5,0,0:0:0:0:
340,283,61526,1,0,0:0:0:0:
309,106,61694,6,0,P|260:134|251:172,1,75
145,67,62031,1,0,0:0:0:0:
275,293,62200,5,0,0:0:0:0:
330,59,62368,1,0,0:0:0:0:
440,301,62537,5,0,0:0:0:0:
62,181,62705,1,0,0:0:0:0:
475,108,62874,5,0,0:0:0:0:
155,294,63042,1,0,0:0:0:0:
52,36,63211,5,0,0:0:0:0:
166,202,63379,2,0,P|170:159|203:137,1,75
207,312,63717,5,0,0:0:0:0:
144,48,63885,1,0,0:0:0:0:
87,316,64054,5,0,0:0:0:0:
246,55,64222,1,0,0:0:0:0:
406,303,64391,5,0,0:0:0:0:
70,173,64559,1,0,0:0:0:0:
419,145,64728,6,0,P|373:122|356:70,1,75
421,228,65065,1,0,0:0:0:0:
93,149,65233,5,0,0:0:0:0:
400,140,65402,1,0,0:0:0:0:
166,27,65571,5,0,0:0:0:0:
232,318,65739,1,0,0:0:0:0:
307,55,65908,5,0,0:0:0:0:
353,310,66076,1,0,0:0:0:0:
86,202,66245,5,0,0:0:0:0:
167,61,66413,1,0,0:0:0:0:
411,282,66582,5,0,0:0:0:0:
391,68,66750,2,0,P|341:113|338:149,1,75
198,135,67087,5,0,0:0:0:0:
129,317,67256,1,0,0:0:0:0:
255,216,67424,6,0,B|415:194|244:125|468:118,1,225
76,158,68099,2,0,L|119:114,1,37.5
191,129,68267,6,0,L|164:155,1,37.5
168,247,68436,2,0,L|211:203,1,37.5
396,108,68773,6,0,L|437:154,1,37.5
418,224,68941,2,0,L|392:195,1,37.5
301,195,69110,6,0,L|352:251,1,75
119,69,69447,1,0,0:0:0:0:
231,307,69615,5,0,0:0:0:0:
312,75,69784,1,0,0:0:0:0:
130,279,69953,5,0,0:0:0:0:
426,74,70121,2,0,P|400:122|306:179,1,150
321,68,70627,5,0,0:0:0:0:
163,289,70795,6,0,P|123:248|130:212,1,75
184,147,71132,1,0,0:0:0:0:
275,161,71301,6,0,P|315:202|308:238,1,75
254,303,71638,1,0,0:0:0:0:
100,64,71806,5,0,0:0:0:0:
441,319,71975,1,0,0:0:0:0:
204,282,72144,5,0,0:0:0:0:
204,101,72312,1,0,0:0:0:0:
359,192,72481,5,0,0:0:0:0:
318,274,72649,1,0,0:0:0:0:
152,204,72818,5,0,0:0:0:0:
296,96,72986,1,0,0:0:0:0:
171,290,73155,5,0,0:0:0:0:
149,111,73324,1,0,0:0:0:0:
314,181,73492,5,0,0:0:0:0:
274,277,73660,1,0,0:0:0:0:
108,207,73829,5,0,0:0:0:0:
252,98,73997,1,0,0:0:0:0:
382,119,74166,6,0,P|401:145|398:187,1,60
316,201,74503,2,0,P|313:171|294:148,1,60
92,73,74840,5,0,0:0:0:0:
291,309,75009,1,0,0:0:0:0:
261,146,75346,5,0,0:0:0:0:
464,62,75514,5,0,0:0:0:0:
291,309,75683,1,0,0:0:0:0:
120,80,76020,5,0,0:0:0:0:
196,312,76188,1,0,0:0:0:0:
264,80,76357,5,0,0:0:0:0:
91,237,76526,1,0,0:0:0:0:
381,152,76694,6,0,P|378:227|215:185,1,300
114,70,77705,1,0,0:0:0:0:
386,76,77874,5,0,0:0:0:0:
105,195,78042,1,0,0:0:0:0:
382,262,78211,6,0,P|414:242|421:211,1,60
450,139,78548,1,0,0:0:0:0:
479,254,78885,2,0,B|329:256|424:173|269:165,1,240
104,178,79391,6,0,P|75:214|130:257,1,107.999996704102
279,174,79728,1,0,0:0:0:0:
153,57,79896,5,0,0:0:0:0:
179,235,80065,1,0,0:0:0:0:
99,112,80233,5,0,0:0:0:0:
224,228,80401,1,0,0:0:0:0:
199,51,80570,5,0,0:0:0:0:
337,170,80739,1,0,0:0:0:0:
328,66,80908,5,0,0:0:0:0:
448,160,81076,1,0,0:0:0:0:
81,121,81245,6,0,P|123:164|137:207,1,75
173,295,81582,1,0,0:0:0:0:
339,71,81750,5,0,0:0:0:0:
111,275,81919,1,0,0:0:0:0:
33,88,82087,5,0,0:0:0:0:
318,297,82256,1,0,0:0:0:0:
57,162,82424,5,0,0:0:0:0:
428,147,82593,1,0,0:0:0:0:
162,309,82762,5,0,0:0:0:0:
258,90,82930,2,0,P|227:68|175:62,1,75
266,186,83267,5,0,0:0:0:0:
64,110,83436,1,0,0:0:0:0:
164,291,83604,5,0,0:0:0:0:
162,106,83773,1,0,0:0:0:0:
422,177,83941,6,0,P|426:230|383:258,1,75
312,189,84278,1,0,0:0:0:0:
5,5,84447,5,0,0:0:0:0:
256,337,84615,1,0,0:0:0:0:
23,309,84784,5,0,0:0:0:0:
506,150,84953,1,0,0:0:0:0:
14,60,85121,5,0,0:0:0:0:
452,330,85290,1,0,0:0:0:0:
224,3,85458,5,0,0:0:0:0:
216,352,85627,1,0,0:0:0:0:
331,7,85795,5,0,0:0:0:0:
351,353,85964,1,0,0:0:0:0:
89,30,86132,5,0,0:0:0:0:
493,355,86301,1,0,0:0:0:0:
2,380,86469,5,0,0:0:0:0:
498,7,86638,1,0,0:0:0:0:
0,2,86806,5,0,0:0:0:0:
2,380,86975,1,0,0:0:0:0:
510,383,87144,5,0,0:0:0:0:
256,192,87312,1,0,0:0:0:0:
11,20,87481,5,0,0:0:0:0:
501,376,87649,1,0,0:0:0:0:
242,32,87818,5,0,0:0:0:0:
46,382,87986,1,0,0:0:0:0:
398,383,88155,5,0,0:0:0:0:
242,32,88323,1,0,0:0:0:0:
374,31,88492,5,0,0:0:0:0:
248,381,88660,1,0,0:0:0:0:
108,33,88829,5,0,0:0:0:0:
512,192,88997,1,0,0:0:0:0:
0,192,89166,5,0,0:0:0:0:
512,192,89335,1,0,0:0:0:0:
0,192,89503,5,0,0:0:0:0:
55,28,91610,6,0,L|291:341,2,390
325,54,91694,2,0,L|15:296,2,390
317,34,91863,6,0,P|328:351|328:353,2,300
327,333,91947,2,0,P|457:328|321:42,1,600
196,160,102313,5,0,0:0:0:0:
304,240,102481,1,0,0:0:0:0:
