osu file format v14

[General]
AudioFilename: audio.mp3
AudioLeadIn: 0
PreviewTime: 59840
Countdown: 0
SampleSet: Soft
StackLeniency: 0.3
Mode: 0
LetterboxInBreaks: 0
WidescreenStoryboard: 1

[Editor]
Bookmarks: 6076,46526,61863,77705,85627,88323,89503,91694,95739
DistanceSpacing: 3
BeatDivisor: 4
GridSize: 4
TimelineZoom: 1

[Metadata]
Title:Chikatto Chika Chika (TV Size)
TitleUnicode:チカっとチカ千花っ♡ (TV Size)
Artist:Fujiwara Chika (CV: Kohara Konomi)
ArtistUnicode:藤原千花 (CV: 小原好美)
Creator:PaRaDogi
Version:hs
Source:
Tags:
BeatmapID:1989406
BeatmapSetID:946176

[Difficulty]
HPDrainRate:5.5
CircleSize:3.6
OverallDifficulty:9.6
ApproachRate:9.2
SliderMultiplier:1.74
SliderTickRate:1

[Events]
//Background and Video events
0,0,"bganta.png",0,0
//Break Periods
//Storyboard Layer 0 (Background)
//Storyboard Layer 1 (Fail)
//Storyboard Layer 2 (Pass)
//Storyboard Layer 3 (Foreground)
//Storyboard Sound Samples

[TimingPoints]
3389,337.078651685393,4,2,1,62,1,0
18220,-75.187969924812,4,2,1,62,0,0
60102,-75.187969924812,4,2,1,62,0,1
76703,-75.187969924812,4,2,1,62,0,1
78894,-75.187969924812,4,2,1,62,0,0
84287,-75.187969924812,4,2,1,62,0,1
89512,-75.187969924812,4,2,1,62,0,0
91703,-75.187969924812,4,2,1,62,0,1
95748,-75.187969924812,4,2,1,62,0,0

[HitObjects]
178,327,4063,6,0,B|217:269|169:225|94:227|90:301|90:301|88:351|48:383|-28:337|18:278,3,348,2|2|2|2,0:2|0:2|0:2|0:2,0:0:0:0:
314,327,8108,6,0,B|377:343|429:312|429:312|418:337|418:337|463:306|526:337|526:337|486:294|487:257,3,348,2|2|2|2,0:2|0:2|0:2|0:2,0:0:0:0:
487,260,11478,6,0,B|456:216|497:153|497:153|540:85|501:-2|419:12|394:86|444:103,1,348,2|0,0:2|0:0,0:0:0:0:
434,98,12827,6,0,P|398:66|333:143,1,174,2|0,0:2|0:0,0:0:0:0:
338,150,13501,2,0,P|308:77|236:107,1,174,2|0,0:2|0:0,0:0:0:0:
188,20,14175,6,0,P|209:81|206:192,1,174,2|2,3:2|0:2,0:0:0:0:
206,189,14849,6,0,P|128:150|68:88,1,174,2|2,3:2|0:2,0:0:0:0:
68,88,15523,6,0,B|112:136|108:195|69:238|69:238|84:228|84:228|44:276|40:329|96:371,1,348,2|2,3:2|0:2,0:0:0:0:
94,370,17040,5,0,3:2:0:0:
236,106,17209,1,0,3:2:0:0:
191,384,17377,5,0,3:2:0:0:
2,162,17546,2,0,B|35:186|83:169|83:169|91:124|47:87,1,174,0|2,3:2|0:3,0:0:0:0:
50,90,18220,6,0,B|94:87|94:87|99:90|99:90|103:88|103:88|138:86|138:86|150:89|150:89|185:87|185:87|189:85|189:85|194:87|194:87|224:86,1,173.564992849343,2|0,3:2|0:0,0:0:0:0:
290,12,18557,1,10,0:2:0:0:
349,281,18726,2,0,B|283:271|283:271|273:290|273:290|284:221|284:221|279:217|279:217|286:210|286:210|298:130,1,231.41999046579,2|2,3:2|3:2,0:0:0:0:
420,344,19231,1,8,0:2:0:0:
366,81,19400,1,2,0:2:0:0:
188,239,19568,5,2,3:2:0:0:
496,213,19737,1,0,0:0:0:0:
220,86,19905,5,10,0:2:0:0:
502,222,20074,2,0,B|499:280|499:280|502:288|502:288|498:300|498:300|496:353|496:353|472:374|472:374|442:372|442:372|420:353|420:353|421:342,1,231.41999046579,2|2,3:2|3:2,0:0:0:0:
505,77,20580,1,8,0:2:0:0:
505,77,20917,6,0,B|464:86|433:68|433:68|426:83|426:83|397:65|345:74,1,173.564992849343,2|0,3:2|0:0,0:0:0:0:
280,152,21254,1,10,0:2:0:0:
32,83,21422,6,0,B|71:108|109:110|109:110|110:115|110:115|110:110|110:110|149:111|196:96|196:96|178:120|179:157,1,231.41999046579,2|2,3:2|3:2,0:0:0:0:
323,243,21928,1,8,0:2:0:0:
260,17,22096,1,2,0:2:0:0:
260,17,22433,5,0,3:2:0:0:
173,318,22602,1,0,3:2:0:0:
122,14,22771,5,0,3:2:0:0:
269,324,22939,1,0,3:2:0:0:
269,324,23613,6,0,B|294:338|294:338|340:337|340:337|348:342|348:342|368:328|368:328|435:329,1,173.564992849343,2|0,3:2|0:0,0:0:0:0:
503,382,23950,1,10,0:2:0:0:
317,154,24119,2,0,B|296:114|296:114|331:127|331:127|335:125|335:125|333:128|333:128|364:138|364:138|320:244,1,231.41999046579,2|2,3:2|3:2,0:0:0:0:
229,195,24624,1,10,0:2:0:0:
423,240,24793,1,2,0:2:0:0:
147,291,24962,5,2,3:2:0:0:
431,227,25130,1,0,0:2:0:0:
184,57,25299,5,8,0:2:0:0:
257,360,25467,1,0,3:2:0:0:
257,360,25804,5,0,3:2:0:0:
315,32,25973,2,0,B|280:31|280:31|275:34|275:34|194:32,1,115.709995232895,8|0,0:2|0:2,0:0:0:0:
24,173,26310,6,0,B|26:159|26:159|30:163|30:163|72:165|72:165|95:186|95:186|92:190|92:190|96:187|96:187|120:206|120:206|164:207,1,173.564992849343,2|0,3:2|0:0,0:0:0:0:
202,291,26647,1,10,0:2:0:0:
36,72,26815,1,2,3:2:0:0:
224,122,26984,2,0,B|157:119|157:119|115:81|115:81|115:62|115:62|110:76|110:76|36:72,1,231.41999046579,2|10,0:2|0:2,0:0:0:0:
320,136,27490,1,2,0:2:0:0:
9,273,27658,5,0,3:2:0:0:
261,216,27827,1,0,0:2:0:0:
24,173,27995,5,8,0:2:0:0:
359,230,28164,1,0,3:2:0:0:
359,230,28501,5,0,3:2:0:0:
36,72,28669,1,8,0:2:0:0:
467,266,29006,6,0,B|441:298|441:298|447:261|447:261|463:243|463:243|453:217|453:217|457:169,1,173.564992849343,2|0,3:2|0:0,0:0:0:0:
474,46,29344,1,10,0:2:0:0:
328,206,29512,1,2,3:2:0:0:
345,0,29681,1,2,0:2:0:0:
456,174,29849,1,2,3:2:0:0:
254,94,30018,1,10,0:2:0:0:
474,46,30186,1,2,0:2:0:0:
170,46,30355,5,2,3:2:0:0:
334,293,30523,1,0,0:2:0:0:
322,35,30692,5,10,0:2:0:0:
256,347,30860,2,0,B|186:344|186:344|172:350|172:350|159:343|159:343|129:353|84:339|84:339|72:321|72:321|88:330|111:332,1,231.41999046579,2|0,3:2|3:2,0:0:0:0:
410,353,31366,1,8,0:2:0:0:
410,353,31703,5,2,3:2:0:0:
290,207,31872,1,2,0:2:0:0:
256,347,32040,5,10,0:2:0:0:
381,211,32209,1,2,3:2:0:0:
197,166,32377,5,2,0:2:0:0:
334,293,32546,1,2,3:2:0:0:
278,100,32714,5,10,0:2:0:0:
256,347,32883,1,2,0:2:0:0:
406,49,33051,5,2,3:2:0:0:
497,321,33220,1,10,3:2:0:0:
286,14,33388,5,10,0:2:0:0:
247,360,33557,1,10,3:2:0:0:
508,91,33726,1,2,0:3:0:0:
508,91,34400,6,0,B|517:146|476:169|476:169|482:171|482:171|446:194|453:243,1,173.564992849343,2|0,3:2|0:0,0:0:0:0:
494,331,34737,1,10,0:2:0:0:
419,95,34905,1,2,3:2:0:0:
250,255,35074,5,2,0:2:0:0:
452,236,35242,1,2,3:2:0:0:
203,167,35411,5,10,0:2:0:0:
396,323,35580,1,2,0:2:0:0:
269,89,35748,5,2,3:2:0:0:
180,330,35917,1,0,0:0:0:0:
162,76,36085,5,8,0:2:0:0:
266,384,36254,1,0,3:2:0:0:
266,384,36591,5,0,3:2:0:0:
327,16,36759,1,8,0:2:0:0:
327,16,37096,5,2,3:2:0:0:
256,236,37265,1,2,0:2:0:0:
415,49,37433,5,10,0:2:0:0:
452,268,37602,1,2,3:2:0:0:
214,136,37771,2,0,B|222:127|222:127|309:134|309:134|319:147,1,115.709995232895,2|0,0:2|3:2,0:0:0:0:
193,336,38108,5,10,0:2:0:0:
320,148,38276,1,2,0:2:0:0:
117,274,38445,5,2,3:2:0:0:
165,27,38613,1,2,0:2:0:0:
307,346,38782,5,10,0:2:0:0:
278,37,38950,1,2,3:2:0:0:
278,37,39287,5,0,3:2:0:0:
188,343,39456,1,8,0:2:0:0:
188,343,39793,6,0,B|166:380|166:380|137:376|137:376|136:378|136:378|136:376|136:376|98:371|98:371|86:373|86:373|15:361,1,173.564992849343,2|0,3:2|0:0,0:0:0:0:
0,269,40130,1,10,0:2:0:0:
231,181,40299,2,0,B|207:200|207:200|134:192|134:192|132:204|132:204|134:192|134:192|56:178|56:178|45:157,1,231.41999046579,2|2,3:2|3:2,0:0:0:0:
307,89,40804,1,10,0:2:0:0:
45,157,40973,1,2,0:2:0:0:
313,237,41141,5,2,3:2:0:0:
153,20,41310,1,0,0:0:0:0:
127,287,41478,5,10,0:2:0:0:
279,3,41647,2,0,B|328:-7|361:10|361:10|368:3|368:3|469:14|469:14|446:47,1,231.41999046579,2|2,3:2|3:2,0:0:0:0:
306,328,42153,1,10,0:2:0:0:
380,107,42321,1,2,0:2:0:0:
501,363,42490,6,0,B|443:369|443:369|443:373|443:373|443:369|443:369|377:376|377:376|400:349|390:312,1,173.564992849343,2|0,3:2|0:0,0:0:0:0:
357,248,42827,1,10,0:2:0:0:
57,235,42995,2,0,B|49:211|52:192|52:192|47:192|47:192|52:192|52:192|63:162|92:148|92:148|92:145|92:145|93:147|93:147|125:137|149:153|149:153|150:150|150:150|150:152|150:152|169:166|176:197,1,231.41999046579,0|0,3:2|3:2,0:0:0:0:
167,375,43501,1,8,0:2:0:0:
167,375,43838,6,0,L|151:319,1,57.8549976164475,2|2,3:2|0:2,0:0:0:0:
0,220,44006,2,0,L|56:234,1,57.8549976164475,2|2,0:2|0:2,0:0:0:0:
216,151,44175,2,0,L|175:192,1,57.8549976164475,2|0,0:2|0:0,0:0:0:0:
216,151,44512,6,0,L|175:192,1,57.8549976164475,2|2,3:2|0:2,0:0:0:0:
313,329,44681,2,0,L|295:390,1,57.8549976164475,2|2,0:2|0:2,0:0:0:0:
470,205,44849,2,0,L|491:259,1,57.8549976164475,2|0,0:2|0:0,0:0:0:0:
470,205,45186,5,0,3:2:0:0:
256,192,45271,12,0,46197,0:0:0:0:
98,27,46535,5,2,3:2:0:0:
140,361,46703,1,0,3:2:0:0:
184,64,46872,5,2,0:2:0:0:
184,64,47040,1,0,0:2:0:0:
110,116,47209,5,2,0:2:0:0:
110,116,47377,1,0,0:2:0:0:
26,83,47546,5,2,0:2:0:0:
414,357,47883,5,2,3:2:0:0:
372,23,48051,1,0,3:2:0:0:
328,320,48220,5,2,0:2:0:0:
328,320,48388,1,0,0:2:0:0:
402,268,48557,5,2,0:2:0:0:
402,268,48726,1,0,0:2:0:0:
486,301,48894,5,2,0:2:0:0:
98,27,49231,5,2,3:2:0:0:
140,361,49400,1,0,3:2:0:0:
154,99,49568,5,2,0:2:0:0:
154,99,49737,1,0,0:2:0:0:
120,180,49905,5,2,0:2:0:0:
67,109,50242,1,2,0:2:0:0:
414,357,50580,5,2,3:2:0:0:
372,23,50748,1,0,3:2:0:0:
358,285,50917,5,2,0:2:0:0:
358,285,51085,1,0,0:2:0:0:
392,204,51254,5,2,0:2:0:0:
392,204,51422,1,0,0:2:0:0:
445,275,51591,1,2,0:2:0:0:
98,27,51928,5,2,3:2:0:0:
140,361,52096,1,0,3:2:0:0:
149,88,52265,2,0,P|197:118|214:173,1,115.709995232895,2|0,0:2|0:2,0:0:0:0:
21,200,52602,2,0,P|24:143|63:102,1,115.709995232895,10|0,0:2|0:2,0:0:0:0:
182,256,52939,2,0,P|132:282|77:270,1,115.709995232895,2|0,0:2|0:2,0:0:0:0:
414,357,53276,5,2,3:2:0:0:
372,23,53445,1,0,3:2:0:0:
362,295,53613,2,0,P|314:265|298:211,1,115.709995232895,2|0,0:2|0:2,0:0:0:0:
490,183,53950,2,0,P|487:240|449:282,1,115.709995232895,10|0,0:2|0:0,0:0:0:0:
329,127,54287,1,2,0:2:0:0:
434,113,54456,1,2,0:2:0:0:
187,275,54624,6,0,B|136:273|136:273|103:289|103:289|102:280|102:280|19:276,1,173.564992849343,2|0,3:2|0:0,0:0:0:0:
56,366,54962,1,8,0:2:0:0:
237,138,55130,2,0,B|160:152|160:152|154:140|154:140|174:207|174:207|172:219|172:219|187:277,1,231.41999046579,0|2,3:2|3:2,0:0:0:0:
316,362,55636,1,8,0:2:0:0:
75,185,55804,1,2,0:2:0:0:
317,36,55973,6,0,B|359:33|359:33|393:63|393:63|395:57|395:57|428:83|428:83|466:81,1,173.564992849343,2|0,3:2|0:0,0:0:0:0:
456,0,56310,1,10,0:2:0:0:
468,281,56478,1,2,3:2:0:0:
328,117,56647,5,2,0:2:0:0:
423,383,56815,1,0,3:2:0:0:
466,86,56984,5,8,0:2:0:0:
25,276,57321,5,2,3:2:0:0:
469,182,57995,1,2,3:2:0:0:
0,14,58669,1,2,3:2:0:0:
256,192,58754,12,2,59681,0:3:0:0:
177,174,59849,6,0,B|223:168|223:168|258:192|258:192|255:195|255:195|258:191|258:191|292:213|292:213|337:208,1,173.564992849343,2|0,0:2|0:0,0:0:0:0:
352,208,60186,1,2,0:2:0:0:
196,276,60355,5,10,0:2:0:0:
313,112,60523,1,2,3:2:0:0:
398,294,60692,5,2,0:2:0:0:
254,193,60860,1,2,3:2:0:0:
451,218,61029,5,10,0:2:0:0:
247,368,61197,1,2,0:2:0:0:
313,112,61366,5,2,3:2:0:0:
347,373,61535,1,2,0:2:0:0:
507,133,61703,5,10,0:2:0:0:
444,383,61872,1,0,3:2:0:0:
254,193,62040,5,2,0:2:0:0:
499,303,62209,1,0,3:2:0:0:
160,190,62377,5,10,0:2:0:0:
461,54,62546,2,0,L|397:43,1,57.8549976164475,2|0,0:2|0:0,0:0:0:0:
168,12,62714,5,0,3:2:0:0:
254,193,62883,1,2,0:2:0:0:
265,23,63051,5,10,0:2:0:0:
105,99,63220,1,2,3:2:0:0:
311,109,63388,5,2,0:2:0:0:
69,9,63557,1,2,3:2:0:0:
364,33,63726,5,10,0:2:0:0:
156,185,63894,1,2,0:2:0:0:
402,292,64063,5,2,3:2:0:0:
311,109,64231,1,2,0:2:0:0:
304,284,64400,5,10,0:2:0:0:
410,126,64568,1,2,3:2:0:0:
444,383,64737,5,2,0:2:0:0:
364,33,64905,1,0,3:2:0:0:
248,362,65074,5,10,0:2:0:0:
168,12,65242,2,0,B|143:20|143:20|83:5|83:5|84:16|84:16|82:4|82:4|25:32,1,173.564992849343,2|0,0:2|0:0,0:0:0:0:
11,46,65580,1,2,0:2:0:0:
255,67,65748,1,10,0:2:0:0:
24,140,65917,1,2,3:2:0:0:
277,252,66085,5,2,0:2:0:0:
173,29,66254,1,2,3:2:0:0:
205,307,66422,5,10,0:2:0:0:
340,104,66591,1,2,0:2:0:0:
129,264,66759,6,0,B|80:262|80:262|71:268|71:268|21:266|21:266|9:258|9:258|44:300,1,173.564992849343,2|0,3:2|0:0,0:0:0:0:
58,315,67096,1,10,0:2:0:0:
164,170,67265,2,0,B|81:167|81:167|53:147|53:147|50:130|50:130|49:173|49:173|37:165|37:165|-4:162,1,231.41999046579,2|2,3:2|3:2,0:0:0:0:
305,176,67771,1,10,0:2:0:0:
305,176,68108,6,0,B|276:187|276:187|306:194,1,57.8549976164475,2|0,3:2|0:2,0:0:0:0:
503,73,68276,2,0,B|507:42|507:42|486:64,1,57.8549976164475,2|0,3:2|0:2,0:0:0:0:
493,295,68445,1,2,0:2:0:0:
492,294,68782,6,0,B|500:320|500:320|476:301,1,57.8549976164475,2|0,3:2|0:2,0:0:0:0:
364,18,68950,2,0,B|382:-1|382:-1|377:29,1,57.8549976164475,2|0,3:2|0:2,0:0:0:0:
190,268,69119,1,2,0:2:0:0:
503,181,69287,1,2,0:2:0:0:
188,22,69456,5,2,3:2:0:0:
329,342,69624,1,2,3:2:0:0:
364,18,69793,5,2,0:0:0:0:
312,355,69962,1,2,0:0:0:0:
73,132,70130,6,0,B|117:110|117:110|114:99|114:99|118:110|118:110|180:119,1,115.709995232895,2|0,3:2|3:0,0:0:0:0:
503,181,70467,1,10,0:2:0:0:
503,181,70804,6,0,B|442:178|442:178|442:184|442:184|414:161|414:161|391:174|391:174|326:174,1,173.564992849343,2|0,3:2|0:0,0:0:0:0:
322,175,71141,1,8,0:2:0:0:
176,336,71310,2,0,B|229:391|277:337|277:337|283:340|283:340|277:333|277:333|293:274|240:256,1,231.41999046579,0|0,3:2|3:2,0:0:0:0:
63,325,71815,1,8,0:2:0:0:
63,325,72153,5,2,3:2:0:0:
110,26,72321,1,2,3:2:0:0:
239,255,72490,5,2,0:2:0:0:
207,97,72658,1,2,0:2:0:0:
176,336,72827,5,2,3:2:0:0:
317,52,72995,1,2,3:2:0:0:
68,126,73164,5,2,0:2:0:0:
290,152,73332,1,2,0:2:0:0:
27,227,73501,5,2,3:2:0:0:
341,38,73669,1,2,3:2:0:0:
97,12,73838,5,2,0:2:0:0:
223,256,74006,1,2,0:2:0:0:
371,16,74175,5,2,3:2:0:0:
269,371,74344,1,0,3:2:0:0:
88,22,74512,1,2,0:2:0:0:
88,22,74849,5,2,3:2:0:0:
463,118,75018,2,0,B|444:133|444:133|459:108|459:108|443:120|443:120|423:120|423:120|419:126|419:126|348:130|348:130|341:123|341:123|290:125,1,231.41999046579,2|2,3:2|0:2,0:0:0:0:
45,125,75523,5,2,3:2:0:0:
420,221,75692,2,0,B|401:236|401:236|416:211|416:211|400:223|400:223|380:223|380:223|376:229|376:229|305:233|305:233|298:226|298:226|247:228,1,231.41999046579,2|2,3:2|0:2,0:0:0:0:
2,228,76197,5,2,3:2:0:0:
420,221,76366,1,2,3:2:0:0:
45,125,76535,5,2,3:2:0:0:
463,118,76703,1,2,3:2:0:0:
463,118,77714,5,8,0:2:0:0:
48,122,77883,1,8,0:2:0:0:
420,221,78051,5,8,0:2:0:0:
40,118,78220,2,0,B|34:77|34:77|42:83|42:83|90:79|90:79|99:84|99:84|167:78|167:78|178:49|178:49|156:67,1,231.41999046579,8|2,0:2|0:3,0:0:0:0:
173,62,78894,6,0,B|142:89|142:89|151:117|151:117|146:118|146:118|151:117|151:117|164:172|164:172|168:172|168:172|164:173|164:173|175:217,1,173.564992849343,2|0,3:2|0:0,0:0:0:0:
192,286,79231,1,10,0:2:0:0:
442,258,79400,2,0,B|417:240|417:240|383:251|383:251|386:256|386:256|383:252|383:252|343:267|343:267|315:242|315:242|312:246|312:246|315:243|315:243|282:216|282:216|251:229,1,231.41999046579,2|2,3:2|3:2,0:0:0:0:
416,344,79905,1,8,0:2:0:0:
360,163,80074,1,2,0:2:0:0:
256,319,80242,5,2,3:2:0:0:
438,108,80411,1,0,0:0:0:0:
503,374,80580,5,10,0:2:0:0:
351,65,80748,2,0,B|352:48|352:48|422:10|422:10|446:14,1,115.709995232895,2|0,3:2|0:0,0:0:0:0:
269,120,81085,5,2,3:2:0:0:
512,158,81254,1,8,0:2:0:0:
187,169,81422,2,0,B|188:186|188:186|258:224|258:224|282:220,1,115.709995232895,2|0,0:2|3:2,0:0:0:0:
186,69,81759,5,2,0:2:0:0:
276,220,81928,1,10,0:2:0:0:
103,115,82096,1,2,3:2:0:0:
280,314,82265,5,2,0:2:0:0:
269,120,82433,1,2,3:2:0:0:
202,359,82602,5,10,0:2:0:0:
187,169,82771,1,2,0:2:0:0:
365,358,82939,5,2,3:2:0:0:
269,120,83108,1,0,0:0:0:0:
121,315,83276,1,10,0:2:0:0:
355,169,83445,2,0,B|369:159|369:159|367:80|367:80|351:61,1,115.709995232895,2|0,3:2|0:0,0:0:0:0:
446,320,83782,5,2,3:2:0:0:
354,65,83950,1,8,0:2:0:0:
196,274,84119,1,2,0:2:0:0:
271,19,84287,5,10,0:2:0:0:
280,314,84456,1,2,3:2:0:0:
512,60,84624,5,10,0:2:0:0:
365,358,84793,1,2,3:2:0:0:
186,69,84962,5,10,0:2:0:0:
446,320,85130,1,2,3:2:0:0:
435,12,85299,5,10,0:2:0:0:
280,314,85467,1,2,3:2:0:0:
110,24,85636,5,8,0:2:0:0:
196,274,85804,1,0,3:2:0:0:
266,18,85973,5,8,0:2:0:0:
114,232,86141,1,0,3:2:0:0:
354,65,86310,5,8,0:2:0:0:
280,314,86478,1,0,3:2:0:0:
269,120,86647,5,8,0:2:0:0:
365,358,86815,1,2,3:2:0:0:
435,12,86984,5,10,0:2:0:0:
196,274,87153,1,2,3:2:0:0:
512,60,87321,5,10,0:2:0:0:
365,358,87490,1,2,3:2:0:0:
266,18,87658,5,10,0:2:0:0:
448,314,87827,1,2,3:2:0:0:
115,133,87995,5,10,0:2:0:0:
497,159,88164,1,2,3:2:0:0:
31,272,88332,5,10,0:2:0:0:
505,166,88501,1,2,3:2:0:0:
20,81,88669,5,10,0:2:0:0:
512,175,88838,1,2,3:2:0:0:
20,276,89006,5,10,0:2:0:0:
512,365,89175,1,10,3:2:0:0:
7,88,89344,5,10,0:0:0:0:
512,0,89512,1,10,0:2:0:0:
10,382,91703,6,0,B|75:294|97:188|59:68|25:10|25:10|-15:126|31:271|129:372|129:372|176:288|199:189|165:91|146:20|146:20|176:115|236:187|283:204|283:204|400:180|501:198|501:198|530:68|459:0|337:-27|253:9|253:9|293:124|286:216|270:315|240:375|240:375|284:310|341:281|449:291|524:308|524:308|476:392|451:359,1,2777.03988558948,2|0,3:2|0:3,0:0:0:0:
