osu file format v14

[General]
AudioFilename: audio.mp3
AudioLeadIn: 0
PreviewTime: 59672
Countdown: 0
SampleSet: Soft
StackLeniency: 0.4
Mode: 0
LetterboxInBreaks: 0
WidescreenStoryboard: 1

[Editor]
DistanceSpacing: 0.9
BeatDivisor: 2
GridSize: 4
TimelineZoom: 1

[Metadata]
Title:Chikatto Chika Chika (TV Size)
TitleUnicode:チカっとチカ千花っ♡ (TV Size)
Artist:Fujiwara Chika (CV: Kohara Konomi)
ArtistUnicode:藤原千花 (CV: 小原好美)
Creator:Affirmation
Version:Normal
Source:Kaguya-sama: Love Is War
Tags:wa Kokurasetai Tensai-tachi no Renai Zunousen wants to be confessed japanese pop jpop j anime The Geniuses' War of Love and Brains かぐや様は告らせたい ~天才たちの恋愛頭脳戦~
BeatmapID:1973534
BeatmapSetID:944993

[Difficulty]
HPDrainRate:4.1
CircleSize:3.3
OverallDifficulty:4.3
ApproachRate:5.3
SliderMultiplier:0.999999999999999
SliderTickRate:1

[Events]
//Background and Video events
Video,0,"video.mp4"
0,0,"BG.jpg",0,0
//Break Periods
//Storyboard Layer 0 (Background)
//Storyboard Layer 1 (Fail)
//Storyboard Layer 2 (Pass)
//Storyboard Layer 3 (Foreground)
//Storyboard Sound Samples

[TimingPoints]
3380,337.078651685393,4,2,1,35,1,0
3380,-90.9090909090909,4,2,1,35,0,0
16863,-90.9090909090909,4,2,1,60,0,0
17958,-90.9090909090909,4,2,1,5,0,0
18211,-90.9090909090909,4,2,1,60,0,0
51919,-90.9090909090909,4,2,1,50,0,0
54615,-90.9090909090909,4,2,1,50,0,0
59840,-90.9090909090909,4,2,1,80,0,1
76694,-90.9090909090909,4,2,1,80,0,0
77537,-90.9090909090909,4,2,1,60,0,0
95739,-90.9090909090909,4,2,1,5,0,0

[Colours]
Combo1 : 164,80,17
Combo2 : 254,207,208
Combo3 : 203,150,150
Combo4 : 255,128,128
SliderBorder : 148,250,248
SliderTrackOverride : 0,0,0

[HitObjects]
305,264,14166,6,0,P|411:263|479:344,2,220.000006713867,4|4|4,1:2|1:2|1:2,0:0:0:0:
126,325,17031,2,0,L|134:379,2,55.0000016784668,0|0|0,1:0|1:0|1:0,0:0:0:0:
86,295,17537,2,0,P|64:245|75:192,1,110.000003356934,0|8,1:0|0:3,0:0:0:0:
128,109,18211,6,0,L|237:119,1,110.000003356934,4|0,3:2|0:0,0:0:0:0:
272,154,18717,2,0,L|381:143,1,110.000003356934,0|0,3:0|0:0,0:0:0:0:
423,118,19222,1,0,1:0:0:0:
486,42,19559,2,0,P|520:116|488:190,1,165.0000050354,0|0,3:0|3:0,0:0:0:0:
421,262,20402,2,0,L|367:251,1,55.0000016784668,0|0,0:0|1:0,0:0:0:0:
273,213,20908,6,0,P|221:203|173:229,1,110.000003356934,0|0,3:0|1:0,0:0:0:0:
142,267,21413,2,0,L|131:157,1,110.000003356934,0|0,3:0|3:0,0:0:0:0:
94,124,21919,1,0,1:0:0:0:
225,55,22424,2,0,L|279:58,2,55.0000016784668,0|0|0,1:0|1:0|1:0,0:0:0:0:
189,19,22930,1,0,1:0:0:0:
36,145,23604,6,0,L|44:254,1,110.000003356934,4|0,3:2|1:0,0:0:0:0:
72,295,24110,2,0,P|125:304|175:282,1,110.000003356934,0|0,3:0|3:0,0:0:0:0:
203,242,24615,1,0,1:0:0:0:
290,289,24953,2,0,L|477:314,2,165.0000050354,0|0|0,3:0|3:0|1:0,0:0:0:0:
203,242,26301,6,0,P|184:190|194:137,1,110.000003356934,0|0,3:0|1:0,0:0:0:0:
219,95,26806,2,0,L|328:105,1,110.000003356934,0|0,3:0|3:0,0:0:0:0:
364,71,27312,1,0,1:0:0:0:
443,129,27649,2,0,B|455:226|403:191|420:288,2,165.0000050354,0|0|0,3:0|3:0|1:0,0:0:0:0:
364,71,28997,6,0,L|254:81,1,110.000003356934,0|0,3:0|1:0,0:0:0:0:
202,165,29672,2,0,P|152:187|100:173,1,110.000003356934,0|0,0:0|1:0,0:0:0:0:
11,130,30346,2,0,L|5:239,1,110.000003356934,0|0,3:0|1:0,0:0:0:0:
55,239,30851,2,0,L|49:348,1,110.000003356934,0|0,3:0|3:0,0:0:0:0:
96,361,31357,1,0,1:0:0:0:
181,311,31694,6,0,L|306:313,1,110.000003356934,8|8,3:0|1:3,0:0:0:0:
334,224,32368,2,0,L|224:222,1,110.000003356934,8|8,0:3|1:3,0:0:0:0:
131,188,33042,2,0,P|126:160|124:133,1,55.0000016784668,8|0,3:0|1:0,0:0:0:0:
168,110,33379,2,0,P|166:82|161:55,1,55.0000016784668,0|0,1:0|1:0,0:0:0:0:
124,20,33717,1,0,1:0:0:0:
310,82,34391,6,0,P|364:87|409:57,1,110.000003356934,0|0,3:2|1:0,0:0:0:0:
448,27,34896,2,0,L|440:136,1,110.000003356934,0|0,3:0|3:0,0:0:0:0:
478,169,35402,1,0,1:0:0:0:
429,255,35739,2,0,P|350:240|293:294,2,165.0000050354,0|0|0,3:0|3:0|1:0,0:0:0:0:
481,337,37087,6,0,P|427:349|376:330,1,110.000003356934,0|0,3:0|1:0,0:0:0:0:
290,281,37762,2,0,P|238:262|185:273,1,110.000003356934,0|0,0:0|1:0,0:0:0:0:
148,307,38267,1,0,0:0:0:0:
115,343,38436,2,0,B|149:288|149:288|128:189,2,165.0000050354,0|0|0,3:0|3:0|1:0,0:0:0:0:
52,265,39784,6,0,L|43:155,1,110.000003356934,0|0,3:0|1:0,0:0:0:0:
54,106,40290,1,0,3:0:0:0:
143,66,40627,2,0,P|143:38|140:11,2,55.0000016784668,0|0|0,3:0|1:0|0:0,0:0:0:0:
175,104,41132,2,0,L|282:80,1,110.000003356934,0|0,3:0|1:0,0:0:0:0:
326,57,41638,2,0,B|356:102|356:102|348:157,1,110.000003356934,0|0,3:0|3:0,0:0:0:0:
321,199,42144,1,0,1:0:0:0:
385,273,42481,5,0,3:0:0:0:
313,340,42818,2,0,L|94:314,1,220.000006713867,0|0,1:0|1:0,0:0:0:0:
37,233,43829,2,0,B|16:104|99:169|72:24,2,220.000006713867,4|4|4,1:2|1:2|1:2,0:0:0:0:
37,233,46526,6,0,L|91:241,1,55.0000016784668,0|0,3:0|3:0,0:0:0:0:
379,49,47874,2,0,L|324:40,1,55.0000016784668,0|0,3:0|3:0,0:0:0:0:
420,373,49222,6,0,L|411:318,1,55.0000016784668,0|0,3:0|3:0,0:0:0:0:
95,175,50571,2,0,L|86:229,1,55.0000016784668,0|0,3:0|3:0,0:0:0:0:
416,330,51919,5,0,3:0:0:0:
415,330,52087,2,0,P|435:279|421:227,1,110.000003356934,0|0,3:0|0:0,0:0:0:0:
392,187,52593,2,0,L|284:210,1,110.000003356934,0|0,1:0|0:0,0:0:0:0:
188,186,53267,1,0,3:0:0:0:
188,186,53435,2,0,P|168:135|182:83,1,110.000003356934,0|0,3:0|0:0,0:0:0:0:
211,42,53941,2,0,P|263:62|317:61,1,110.000003356934,0|0,1:0|0:0,0:0:0:0:
416,48,54615,6,0,L|413:157,1,110.000003356934,0|0,3:0|1:0,0:0:0:0:
378,192,55121,1,0,3:0:0:0:
432,273,55458,2,0,P|460:268|487:268,2,55.0000016784668,0|0|0,3:0|1:0|0:0,0:0:0:0:
416,320,55964,2,0,P|364:337|311:324,1,110.000003356934,0|0,3:0|1:0,0:0:0:0:
264,309,56469,1,0,3:0:0:0:
220,285,56638,2,0,P|167:271|115:288,1,110.000003356934,0|0,0:0|1:0,0:0:0:0:
43,220,57312,6,0,L|26:0,2,220.000006713867,4|4|4,1:2|1:2|1:2,0:0:0:0:
302,365,59672,1,8,0:3:0:0:
302,365,59840,6,0,P|325:316|307:265,1,110.000003356934,4|0,3:2|0:0,0:0:0:0:
265,238,60346,2,0,P|259:211|260:183,1,55.0000016784668,0|0,1:0|3:0,0:0:0:0:
289,143,60683,2,0,L|343:145,2,55.0000016784668,0|0|0,0:0|3:0|1:0,0:0:0:0:
237,59,61357,2,0,L|182:61,1,55.0000016784668,0|0,3:0|0:0,0:0:0:0:
140,88,61694,2,0,L|30:82,2,110.000003356934,0|0|0,1:0|0:0|1:0,0:0:0:0:
173,122,62537,6,0,P|187:176|176:229,1,110.000003356934,0|0,0:0|0:0,0:0:0:0:
152,272,63042,2,0,L|97:271,1,55.0000016784668,0|0,1:0|3:0,0:0:0:0:
63,307,63379,2,0,L|8:306,2,55.0000016784668,0|0|0,0:0|3:0|1:0,0:0:0:0:
146,358,64054,2,0,P|173:365|201:365,1,55.0000016784668,0|0,3:0|0:0,0:0:0:0:
244,344,64391,2,0,P|270:336|297:333,1,55.0000016784668,0|0,1:0|3:0,0:0:0:0:
340,358,64728,1,0,0:0:0:0:
438,367,65065,1,0,1:0:0:0:
438,367,65233,6,0,L|441:257,1,110.000003356934,0|0,0:0|0:0,0:0:0:0:
456,210,65739,2,0,P|430:200|403:200,1,55.0000016784668,0|0,1:0|3:0,0:0:0:0:
353,207,66076,2,0,L|354:152,2,55.0000016784668,0|0|0,0:0|3:0|1:0,0:0:0:0:
263,250,66750,2,0,P|238:203|247:149,1,110.000003356934,0|0,3:0|1:0,0:0:0:0:
279,111,67256,2,0,P|287:57|262:9,1,110.000003356934,0|0,3:0|3:0,0:0:0:0:
212,8,67762,1,0,1:0:0:0:
138,74,68099,5,4,1:2:0:0:
138,74,68267,1,4,1:2:0:0:
72,207,68773,1,4,1:2:0:0:
72,207,68941,1,4,1:2:0:0:
162,325,69447,1,4,1:2:0:0:
162,325,69615,1,4,1:2:0:0:
291,254,70121,2,0,P|344:243|391:271,1,110.000003356934,0|0,3:2|1:2,0:0:0:0:
464,337,70795,6,0,L|473:227,1,110.000003356934,0|0,3:0|1:0,0:0:0:0:
509,193,71301,2,0,L|499:83,1,110.000003356934,0|0,3:0|3:1,0:0:0:0:
476,39,71806,1,0,1:0:0:0:
402,106,72144,5,4,1:2:0:0:
402,106,72312,1,4,1:2:0:0:
255,79,72818,1,4,1:2:0:0:
255,79,72986,1,4,1:2:0:0:
108,52,73492,1,4,1:2:0:0:
108,52,73660,1,4,1:2:0:0:
157,192,74166,2,0,L|144:255,2,55.0000016784668,4|4|0,1:2|1:2|0:0,0:0:0:0:
232,128,74840,5,4,1:2:0:0:
232,128,75009,2,0,P|277:156|330:147,1,110.000003356934,0|0,0:0|0:0,0:0:0:0:
369,117,75514,1,4,1:2:0:0:
412,141,75683,2,0,L|401:250,1,110.000003356934,0|0,0:0|0:0,0:0:0:0:
388,298,76188,2,0,L|443:294,2,55.0000016784668,4|0|4,1:2|0:0|1:2,0:0:0:0:
352,333,76694,1,0,0:0:0:0:
106,302,77705,6,0,L|51:298,2,55.0000016784668,0|0|0,1:0|1:0|1:0,0:0:0:0:
151,284,78211,2,0,P|170:233|152:182,1,110.000003356934,0|8,1:0|0:3,0:0:0:0:
106,95,78885,6,0,L|215:99,1,110.000003356934,4|0,3:2|1:0,0:0:0:0:
247,137,79391,2,0,L|356:141,1,110.000003356934,0|0,3:0|3:0,0:0:0:0:
398,115,79896,1,0,1:0:0:0:
467,184,80233,2,0,P|507:115|474:42,2,165.0000050354,0|0|0,3:0|3:0|1:0,0:0:0:0:
412,267,81582,6,0,L|302:262,1,110.000003356934,0|0,0:0|1:0,0:0:0:0:
275,221,82087,2,0,L|165:225,1,110.000003356934,0|0,3:0|3:0,0:0:0:0:
137,266,82593,1,0,1:0:0:0:
62,201,82930,2,0,P|44:149|51:95,1,110.000003356934,0|0,3:0|1:0,0:0:0:0:
85,58,83436,1,0,3:0:0:0:
117,20,83604,2,0,L|226:29,1,110.000003356934,0|0,0:0|1:0,0:0:0:0:
323,50,84278,6,0,L|321:104,1,55.0000016784668,0|0,1:0|3:0,0:0:0:0:
367,123,84615,2,0,L|365:177,1,55.0000016784668,0|0,1:0|3:0,0:0:0:0:
411,196,84953,2,0,L|409:250,2,55.0000016784668,0|0|0,1:0|3:0|1:0,0:0:0:0:
501,155,85627,2,0,P|511:101|498:48,1,110.000003356934,0|0,1:0|1:0,0:0:0:0:
410,3,86301,2,0,L|300:13,1,110.000003356934,0|0,1:0|1:0,0:0:0:0:
268,50,86806,1,0,3:0:0:0:
232,83,86975,6,0,P|180:101|127:91,1,110.000003356934,0|0,1:0|1:0,0:0:0:0:
71,173,87649,2,0,P|88:224|78:277,1,110.000003356934,0|0,1:0|1:0,0:0:0:0:
49,372,88323,2,0,L|103:364,1,55.0000016784668,0|0,1:0|1:0,0:0:0:0:
141,332,88660,2,0,L|195:324,1,55.0000016784668,0|0,1:0|1:0,0:0:0:0:
230,359,88997,2,0,L|284:351,1,55.0000016784668,0|0,1:0|1:0,0:0:0:0:
322,319,89334,2,0,L|376:311,1,55.0000016784668,0|0,1:0|1:0,0:0:0:0:
256,192,91694,5,4,1:2:0:0:
256,192,91863,12,0,95739,0:0:0:0:
