osu file format v14

[General]
AudioFilename: audio.mp3
AudioLeadIn: 0
PreviewTime: 59672
Countdown: 0
SampleSet: Soft
StackLeniency: 0.4
Mode: 0
LetterboxInBreaks: 0
WidescreenStoryboard: 1

[Editor]
DistanceSpacing: 0.5
BeatDivisor: 4
GridSize: 4
TimelineZoom: 1

[Metadata]
Title:Chikatto Chika Chika (TV Size)
TitleUnicode:チカっとチカ千花っ♡ (TV Size)
Artist:Fujiwara Chika (CV: Kohara Konomi)
ArtistUnicode:藤原千花 (CV: 小原好美)
Creator:Affirmation
Version:IQ 3
Source:Kaguya-sama: Love Is War
Tags:wa Kokurasetai Tensai-tachi no Renai Zunousen wants to be confessed japanese pop jpop j anime The Geniuses' War of Love and Brains かぐや様は告らせたい ~天才たちの恋愛頭脳戦~
BeatmapID:1973410
BeatmapSetID:944993

[Difficulty]
HPDrainRate:5.8
CircleSize:3.5
OverallDifficulty:8.7
ApproachRate:9.1
SliderMultiplier:0.999999999999999
SliderTickRate:1

[Events]
//Background and Video events
Video,0,"video.mp4"
0,0,"BG.jpg",0,0
//Break Periods
//Storyboard Layer 0 (Background)
//Storyboard Layer 1 (Fail)
//Storyboard Layer 2 (Pass)
//Storyboard Layer 3 (Foreground)
//Storyboard Sound Samples

[TimingPoints]
3380,337.078651685393,4,2,1,35,1,0
3380,-250.000000000001,4,2,1,35,0,0
16863,-100,4,2,1,60,0,0
17874,-41.6666666666667,4,2,1,60,0,0
17958,-41.6666666666667,4,2,1,5,0,0
18211,-58.8235294117647,4,2,1,60,0,0
23604,-71.4285714285714,4,2,1,60,0,0
34391,-62.5,4,2,1,60,0,0
45177,-250,4,2,1,60,0,0
46526,-83.3333333333333,4,2,1,60,0,0
51919,-71.4285714285714,4,2,1,50,0,0
54615,-62.5,4,2,1,50,0,0
59840,-55.5555555555556,4,2,1,80,0,1
76694,-55.5555555555556,4,2,1,80,0,0
77537,-55.5555555555556,4,2,1,60,0,0
78211,-250,4,2,1,60,0,0
78885,-58.8235294117647,4,2,1,60,0,0
91694,-1000,4,2,1,60,0,0
95739,-1000,4,2,1,5,0,0

[Colours]
Combo1 : 164,80,17
Combo2 : 254,207,208
Combo3 : 203,150,150
Combo4 : 255,128,128
SliderBorder : 148,250,248
SliderTrackOverride : 0,0,0

[HitObjects]
89,92,4054,6,0,L|85:171,3,79.9999999999999,2|2|2|2,0:0|0:0|0:0|0:0,0:0:0:0:
324,340,8099,2,0,L|327:260,3,79.9999999999999,2|2|2|2,0:0|0:0|0:0|0:0,0:0:0:0:
361,259,11469,5,2,0:0:0:0:
361,259,12818,2,0,P|323:272|284:267,1,79.9999999999999,2|2,0:0|0:0,0:0:0:0:
105,144,14166,5,4,1:2:0:0:
403,66,14840,1,4,1:2:0:0:
321,363,15514,1,4,1:2:0:0:
321,363,17031,5,0,1:0:0:0:
192,68,17199,1,0,1:0:0:0:
422,136,17368,1,0,1:0:0:0:
143,269,17536,1,0,1:0:0:0:
143,269,17874,2,0,L|84:266,1,59.9999981689453,8|0,0:3|0:0,0:0:0:0:
63,250,18211,6,0,P|146:250|207:194,1,170.000003242493,4|0,3:2|0:0,0:0:0:0:
322,37,18717,2,0,B|306:123|361:106|339:202,1,170.000003242493,0|0,3:0|0:0,0:0:0:0:
198,325,19222,1,0,1:0:0:0:
154,96,19391,1,0,0:0:0:0:
348,225,19559,6,0,L|432:213,1,85.0000016212463,0|0,3:0|0:0,0:0:0:0:
290,374,19896,1,0,1:0:0:0:
186,197,20065,2,0,B|81:191|133:243|25:236,1,170.000003242493,0|0,3:0|0:0,0:0:0:0:
266,241,20571,2,0,P|273:199|267:157,1,85.0000016212463,0|0,1:0|0:0,0:0:0:0:
170,27,20908,6,0,L|185:196,1,170.000003242493,0|0,3:0|1:0,0:0:0:0:
343,290,21413,2,0,P|357:206|346:122,1,170.000003242493,0|0,3:0|3:0,0:0:0:0:
170,27,21919,1,0,1:0:0:0:
266,241,22087,1,0,0:0:0:0:
266,241,22424,5,0,1:0:0:0:
170,27,22593,1,0,1:0:0:0:
325,86,22762,1,0,1:0:0:0:
111,182,22931,1,0,1:0:0:0:
110,182,23604,6,0,P|179:178|228:224,1,139.999995727539,4|0,3:2|1:0,0:0:0:0:
345,342,24110,2,0,L|349:202,1,139.999995727539,0|0,3:0|3:0,0:0:0:0:
169,299,24615,2,0,L|166:368,1,69.9999978637695,0|0,1:0|0:0,0:0:0:0:
258,232,24953,5,0,3:0:0:0:
70,288,25121,1,0,0:0:0:0:
233,88,25290,1,0,1:0:0:0:
43,147,25458,2,0,B|116:156|96:200|168:202,1,139.999995727539,0|0,3:0|3:0,0:0:0:0:
344,126,25964,1,0,1:0:0:0:
344,126,26301,6,0,L|338:265,1,139.999995727539,0|0,3:0|1:0,0:0:0:0:
264,354,26806,1,0,3:0:0:0:
425,260,26975,2,0,P|459:252|493:247,1,69.9999978637695,0|0,0:0|3:0,0:0:0:0:
347,359,27312,1,0,1:0:0:0:
241,170,27481,1,0,0:0:0:0:
175,313,27649,5,0,3:0:0:0:
334,143,27817,1,0,0:0:0:0:
105,147,27986,1,0,1:0:0:0:
347,359,28155,2,0,L|357:219,1,139.999995727539,0|0,3:0|0:0,0:0:0:0:
229,74,28660,2,0,L|234:143,1,69.9999978637695,0|0,1:0|0:0,0:0:0:0:
456,87,28998,6,0,B|364:95|421:136|333:142,1,139.999995727539,0|0,3:0|1:0,0:0:0:0:
146,143,29503,1,0,3:0:0:0:
252,287,29672,2,0,P|257:252|261:217,1,69.9999978637695,0|0,0:0|3:0,0:0:0:0:
64,90,30009,2,0,P|58:124|54:159,1,69.9999978637695,0|0,1:0|0:0,0:0:0:0:
163,261,30346,6,0,P|95:259|48:308,1,139.999995727539,0|0,3:0|1:0,0:0:0:0:
289,357,30851,2,0,L|298:217,1,139.999995727539,0|0,3:0|3:0,0:0:0:0:
226,45,31357,1,0,1:0:0:0:
226,44,31694,6,0,P|219:79|226:113,1,69.9999978637695,8|0,3:0|0:0,0:0:0:0:
365,160,32031,2,0,P|399:154|433:148,1,69.9999978637695,8|0,1:3|3:0,0:0:0:0:
206,258,32368,2,0,P|171:251|137:245,1,69.9999978637695,8|0,0:3|3:0,0:0:0:0:
374,351,32706,2,0,P|380:316|373:282,1,69.9999978637695,8|0,1:3|0:0,0:0:0:0:
226,113,33042,5,8,3:0:0:0:
298,316,33211,1,0,1:0:0:0:
322,75,33379,1,0,1:0:0:0:
206,258,33548,1,0,1:0:0:0:
108,36,33717,1,0,1:0:0:0:
108,36,34391,6,0,B|128:81|128:81|113:190,1,160,0|0,3:2|1:0,0:0:0:0:
71,333,34896,1,0,3:0:0:0:
232,216,35065,1,0,0:0:0:0:
189,362,35233,1,0,3:0:0:0:
94,207,35402,2,0,P|94:167|93:127,1,79.9999999999999,0|0,1:0|0:0,0:0:0:0:
219,237,35739,6,0,L|378:216,1,160,0|0,3:0|1:0,0:0:0:0:
91,347,36245,2,0,P|60:276|94:206,1,160,0|0,3:0|0:0,0:0:0:0:
256,50,36750,1,0,1:0:0:0:
256,49,37087,6,0,P|295:45|333:33,1,79.9999999999999,0|0,3:0|0:0,0:0:0:0:
161,113,37424,2,0,P|121:108|83:96,1,79.9999999999999,0|0,1:0|3:0,0:0:0:0:
300,155,37762,2,0,L|290:314,1,160,0|0,0:0|1:0,0:0:0:0:
187,194,38267,1,0,0:0:0:0:
392,230,38436,5,0,3:0:0:0:
197,216,38604,1,0,0:0:0:0:
424,90,38773,1,0,1:0:0:0:
477,355,38941,2,0,B|377:366|413:315|323:331,1,160,0|0,3:0|3:0,0:0:0:0:
118,372,39447,1,0,1:0:0:0:
118,372,39784,6,0,P|129:292|137:213,1,160,0|0,3:0|1:0,0:0:0:0:
48,33,40290,2,0,P|41:72|48:111,1,79.9999999999999,0|0,3:0|0:0,0:0:0:0:
266,239,40627,1,0,3:0:0:0:
31,200,40795,1,0,1:0:0:0:
241,85,40964,1,0,0:0:0:0:
174,221,41132,6,0,B|186:124|139:160|146:66,1,160,0|0,3:0|1:0,0:0:0:0:
380,170,41638,2,0,B|373:264|420:228|407:324,1,160,0|0,3:0|3:0,0:0:0:0:
184,365,42144,2,0,L|104:352,1,79.9999999999999,0|0,1:0|0:0,0:0:0:0:
14,138,42481,6,0,P|91:136|145:192,1,160,0|0,3:0|1:0,0:0:0:0:
275,371,42986,2,0,P|278:291|283:211,1,160,0|0,3:0|3:0,0:0:0:0:
310,52,43492,1,0,1:0:0:0:
310,52,43829,6,0,L|349:48,1,40,4|0,1:2|0:0,0:0:0:0:
363,136,43998,2,0,L|402:132,1,40,0|0,0:0|0:0,0:0:0:0:
450,49,44166,1,0,0:0:0:0:
202,52,44503,2,0,L|162:48,1,40,4|0,1:2|0:0,0:0:0:0:
149,136,44672,2,0,L|109:132,1,40,0|0,0:0|0:0,0:0:0:0:
62,49,44840,1,0,0:0:0:0:
41,332,45177,6,0,L|179:314,1,140,4|0,1:2|0:0,0:0:0:0:
278,372,46526,5,0,3:0:0:0:
221,186,46694,1,0,3:0:0:0:
399,257,46863,2,0,P|369:250|340:245,1,59.9999981689453,0|0,0:0|0:0,0:0:0:0:
133,186,47200,1,0,0:0:0:0:
133,186,47368,1,0,0:0:0:0:
264,300,47537,2,0,P|257:329|252:358,1,59.9999981689453,0|0,0:0|0:0,0:0:0:0:
330,190,47874,5,0,3:0:0:0:
165,266,48042,1,0,3:0:0:0:
358,321,48211,2,0,P|387:316|417:312,1,59.9999981689453,0|0,0:0|0:0,0:0:0:0:
233,176,48548,2,0,P|203:171|173:167,2,59.9999981689453,0|0|0,0:0|0:0|0:0,0:0:0:0:
379,151,49222,5,0,3:0:0:0:
264,300,49391,1,0,3:0:0:0:
408,372,49559,2,0,P|412:342|417:312,1,59.9999981689453,0|0,0:0|0:0,0:0:0:0:
283,104,49896,2,0,P|294:162|302:222,1,119.999996337891,0|0,0:0|0:0,0:0:0:0:
315,234,50571,5,0,3:0:0:0:
315,234,50739,1,0,3:0:0:0:
497,228,50908,2,0,P|468:219|439:212,1,59.9999981689453,0|0,0:0|0:0,0:0:0:0:
257,144,51245,2,0,P|286:136|314:128,1,59.9999981689453,0|0,0:0|0:0,0:0:0:0:
417,76,51582,1,0,0:0:0:0:
417,76,51919,5,0,3:0:0:0:
377,195,52087,1,0,3:0:0:0:
264,24,52256,2,0,P|298:28|332:38,1,69.9999978637695,0|0,0:0|0:0,0:0:0:0:
257,144,52593,1,0,1:0:0:0:
142,100,52762,2,0,P|132:66|127:31,1,69.9999978637695,0|0,0:0|0:0,0:0:0:0:
282,161,53099,1,0,0:0:0:0:
104,245,53267,5,0,3:0:0:0:
280,286,53436,1,0,3:0:0:0:
171,172,53604,2,0,B|199:209|199:209|184:301,1,139.999995727539,0|0,0:0|1:0,0:0:0:0:
190,330,54278,2,0,P|155:326|120:323,1,69.9999978637695,0|0,0:0|0:0,0:0:0:0:
335,369,54615,6,0,B|369:328|369:328|339:225,1,160,0|0,3:0|1:0,0:0:0:0:
137,153,55121,2,0,B|237:162|186:100|283:110,1,160,0|0,3:0|3:0,0:0:0:0:
502,198,55627,2,0,P|462:191|422:186,1,79.9999999999999,0|0,1:0|0:0,0:0:0:0:
348,28,55964,6,0,P|427:18|506:4,1,160,0|0,3:0|1:0,0:0:0:0:
283,110,56469,2,0,P|204:96|124:86,1,160,0|0,3:0|3:0,0:0:0:0:
74,248,56975,1,0,1:0:0:0:
74,248,57312,5,4,1:2:0:0:
277,54,57986,1,4,1:2:0:0:
341,318,58660,2,0,P|511:262|337:218,1,479.999999999999,4|8,1:2|0:3,0:0:0:0:
180,353,59840,6,0,L|189:173,1,179.999994506836,4|0,3:2|0:0,0:0:0:0:
311,55,60346,1,0,1:0:0:0:
95,150,60514,1,0,3:0:0:0:
337,217,60683,1,0,0:0:0:0:
155,63,60851,1,0,3:0:0:0:
422,88,61020,1,0,1:0:0:0:
171,213,61188,1,0,0:0:0:0:
445,241,61357,5,0,3:0:0:0:
269,63,61526,1,0,0:0:0:0:
315,292,61694,1,0,1:0:0:0:
380,38,61863,1,0,3:0:0:0:
170,213,62031,2,0,P|163:257|172:301,1,89.999997253418,0|0,0:0|3:0,0:0:0:0:
360,151,62368,1,0,1:0:0:0:
93,173,62537,6,0,P|78:261|96:349,1,179.999994506836
379,247,63042,1,0,1:0:0:0:
168,131,63211,1,0,3:0:0:0:
380,93,63379,1,0,0:0:0:0:
280,335,63548,1,0,3:0:0:0:
242,108,63717,1,0,1:0:0:0:
368,325,63885,1,0,0:0:0:0:
393,71,64054,5,0,3:0:0:0:
232,264,64222,1,0,0:0:0:0:
151,32,64391,1,0,1:0:0:0:
311,188,64559,1,0,3:0:0:0:
101,368,64728,2,0,L|11:355,1,89.999997253418,0|0,0:0|0:0,0:0:0:0:
210,190,65065,1,0,1:0:0:0:
341,363,65233,6,0,P|427:347|482:279,1,179.999994506836,0|0,0:0|0:0,0:0:0:0:
311,50,65739,1,0,1:0:0:0:
298,274,65908,1,0,3:0:0:0:
469,31,66076,1,0,0:0:0:0:
386,282,66245,1,0,3:0:0:0:
228,20,66413,1,0,1:0:0:0:
356,185,66582,1,0,0:0:0:0:
209,372,66750,6,0,P|121:349|34:329,1,179.999994506836,0|0,3:0|1:0,0:0:0:0:
127,117,67256,2,0,P|191:172|160:251,1,179.999994506836,0|0,3:0|3:0,0:0:0:0:
30,182,67762,2,0,P|24:137|18:92,1,89.999997253418,0|0,1:0|0:0,0:0:0:0:
323,6,68099,5,4,1:2:0:0:
160,251,68267,1,4,1:2:0:0:
470,192,68773,5,4,1:2:0:0:
125,117,68942,1,4,1:2:0:0:
492,108,69447,5,4,1:2:0:0:
105,219,69616,1,4,1:2:0:0:
105,219,70121,6,0,P|60:212|16:204,1,89.999997253418,0|0,3:2|0:0,0:0:0:0:
308,278,70458,2,0,P|352:271|396:263,1,89.999997253418,0|0,1:2|0:0,0:0:0:0:
203,357,70795,6,0,P|209:267|214:177,1,179.999994506836,0|0,3:0|1:0,0:0:0:0:
372,3,71301,2,0,P|378:92|383:182,1,179.999994506836,0|0,3:0|3:1,0:0:0:0:
450,366,71806,1,0,1:0:0:0:
450,366,72144,5,4,1:2:0:0:
120,274,72312,1,4,1:2:0:0:
154,354,72818,5,4,1:2:0:0:
423,218,72986,1,4,1:2:0:0:
373,293,73492,5,4,1:2:0:0:
316,15,73660,1,4,1:2:0:0:
379,81,74166,5,4,1:2:0:0:
71,70,74335,1,4,1:2:0:0:
216,285,74503,2,0,B|242:240|242:240|226:158,1,134.999995880127
226,158,74840,5,4,1:2:0:0:
429,282,75009,2,0,P|437:192|462:106,1,179.999994506836,0|0,0:0|0:0,0:0:0:0:
266,75,75514,5,4,1:2:0:0:
103,340,75683,2,0,P|94:250|69:164,1,179.999994506836,0|0,0:0|0:0,0:0:0:0:
327,159,76188,5,4,1:2:0:0:
18,300,76357,1,0,0:0:0:0:
197,57,76526,1,4,1:2:0:0:
283,353,76694,1,0,0:0:0:0:
288,363,77705,5,0,1:0:0:0:
196,44,77873,1,0,1:0:0:0:
3,306,78042,1,0,1:0:0:0:
336,154,78211,2,0,L|376:155,1,40,0|8,1:0|0:3,0:0:0:0:
398,172,78885,6,0,P|317:157|261:216,1,170.000003242493,4|0,3:2|1:0,0:0:0:0:
153,360,79391,2,0,L|137:190,1,170.000003242493,0|0,3:0|3:0,0:0:0:0:
255,39,79896,2,0,L|247:123,1,85.0000016212463,0|0,1:0|0:0,0:0:0:0:
0,55,80233,6,0,B|89:44|62:113|158:95,1,170.000003242493,0|0,3:0|1:0,0:0:0:0:
344,11,80739,2,0,L|328:180,1,170.000003242493,0|0,3:0|3:0,0:0:0:0:
215,357,81245,1,0,1:0:0:0:
422,229,81413,6,0,L|252:213,1,170.000003242493,0|0,0:0|0:0,0:0:0:0:
49,111,81919,1,0,1:0:0:0:
128,244,82087,1,0,3:0:0:0:
153,54,82256,1,0,0:0:0:0:
37,218,82424,1,0,3:0:0:0:
73,19,82593,1,0,1:0:0:0:
215,204,82762,1,0,0:0:0:0:
95,359,82930,6,0,L|10:351,1,85.0000016212463,0|0,3:0|0:0,0:0:0:0:
205,172,83267,1,0,1:0:0:0:
342,375,83436,2,0,B|353:276|295:314|317:212,1,170.000003242493,0|0,3:0|0:0,0:0:0:0:
398,37,83941,1,0,1:0:0:0:
456,209,84110,1,0,0:0:0:0:
129,107,84278,5,0,1:0:0:0:
456,209,84447,1,0,3:0:0:0:
108,231,84615,5,0,1:0:0:0:
413,137,84784,1,0,3:0:0:0:
104,103,84953,5,0,1:0:0:0:
459,245,85121,1,0,3:0:0:0:
73,264,85290,5,0,1:0:0:0:
441,126,85458,1,0,3:0:0:0:
80,16,85627,5,0,1:0:0:0:
176,352,85795,1,0,3:0:0:0:
300,196,85964,6,0,P|259:182|219:169,1,85.0000016212463,0|0,1:0|3:0,0:0:0:0:
438,83,86301,5,0,1:0:0:0:
289,350,86469,1,0,3:0:0:0:
264,24,86638,5,0,1:0:0:0:
420,276,86806,1,0,3:0:0:0:
113,185,86975,5,0,1:0:0:0:
376,110,87144,1,0,3:0:0:0:
134,33,87312,5,0,1:0:0:0:
259,268,87481,1,0,3:0:0:0:
319,23,87649,5,0,1:0:0:0:
166,252,87818,1,0,3:0:0:0:
423,192,87986,5,0,1:0:0:0:
153,116,88155,1,0,3:0:0:0:
423,192,88323,5,0,1:0:0:0:
53,321,88492,1,0,1:0:0:0:
356,40,88660,1,0,1:0:0:0:
260,371,88829,1,0,1:0:0:0:
147,20,88997,5,0,1:0:0:0:
260,383,89166,1,0,1:0:0:0:
463,200,89335,1,0,1:0:0:0:
55,133,89503,1,0,1:0:0:0:
68,149,91694,6,0,L|188:135,1,120,4|0,1:2|0:0,0:0:0:0:
