osu file format v14

[General]
AudioFilename: audio.mp3
AudioLeadIn: 0
PreviewTime: 59672
Countdown: 0
SampleSet: Soft
StackLeniency: 0.4
Mode: 0
LetterboxInBreaks: 0
WidescreenStoryboard: 1

[Editor]
DistanceSpacing: 0.8
BeatDivisor: 4
GridSize: 4
TimelineZoom: 1

[Metadata]
Title:Chikatto Chika Chika (TV Size)
TitleUnicode:チカっとチカ千花っ♡ (TV Size)
Artist:Fujiwara Chika (CV: Kohara Konomi)
ArtistUnicode:藤原千花 (CV: 小原好美)
Creator:Affirmation
Version:Expert
Source:Kaguya-sama: Love Is War
Tags:wa Kokurasetai Tensai-tachi no Renai Zunousen wants to be confessed japanese pop jpop j anime The Geniuses' War of Love and Brains かぐや様は告らせたい ~天才たちの恋愛頭脳戦~
BeatmapID:1973474
BeatmapSetID:944993

[Difficulty]
HPDrainRate:5.3
CircleSize:4
OverallDifficulty:8.3
ApproachRate:9
SliderMultiplier:0.999999999999999
SliderTickRate:1

[Events]
//Background and Video events
Video,0,"video.mp4"
0,0,"BG.jpg",0,0
//Break Periods
//Storyboard Layer 0 (Background)
//Storyboard Layer 1 (Fail)
//Storyboard Layer 2 (Pass)
//Storyboard Layer 3 (Foreground)
//Storyboard Sound Samples

[TimingPoints]
3380,337.078651685393,4,2,1,35,1,0
3380,-250.000000000001,4,2,1,35,0,0
14166,-62.5,4,2,1,35,0,0
16863,-62.5,4,2,1,60,0,0
17537,-125,4,2,1,60,0,0
17958,-125,4,2,1,5,0,0
18211,-58.8235294117647,4,2,1,60,0,0
23604,-71.4285714285714,4,2,1,60,0,0
34391,-62.5,4,2,1,60,0,0
45177,-250,4,2,1,60,0,0
46526,-83.3333333333333,4,2,1,60,0,0
51919,-71.4285714285714,4,2,1,50,0,0
54615,-62.5,4,2,1,50,0,0
59840,-55.5555555555556,4,2,1,80,0,1
76694,-55.5555555555556,4,2,1,80,0,0
77537,-55.5555555555556,4,2,1,60,0,0
78211,-125,4,2,1,60,0,0
78885,-58.8235294117647,4,2,1,60,0,0
91694,-400,4,2,1,60,0,0
95739,-400,4,2,1,5,0,0

[Colours]
Combo1 : 164,80,17
Combo2 : 254,207,208
Combo3 : 203,150,150
Combo4 : 255,128,128
SliderBorder : 148,250,248
SliderTrackOverride : 0,0,0

[HitObjects]
159,264,4054,6,0,L|151:184,3,79.9999999999999,2|2|2|2,0:0|0:0|0:0|0:0,0:0:0:0:
366,183,8099,6,0,L|373:103,3,79.9999999999999,2|2|2|2,0:0|0:0|0:0|0:0,0:0:0:0:
389,94,11469,5,2,0:0:0:0:
389,94,12818,2,0,L|381:173,1,79.9999999999999,2|2,0:0|0:0,0:0:0:0:
458,256,14166,6,0,P|378:248|298:239,1,160,4|0,1:2|0:0,0:0:0:0:
463,348,14840,2,0,P|383:340|303:331,1,160,4|0,1:2|0:0,0:0:0:0:
72,274,15514,6,0,P|190:229|76:174,1,320,4|0,1:2|0:0,0:0:0:0:
76,174,17031,5,0,1:0:0:0:
255,326,17200,1,0,1:0:0:0:
47,333,17368,1,0,1:0:0:0:
211,71,17537,2,0,L|290:82,1,79.9999999999999,0|8,1:0|0:3,0:0:0:0:
306,69,18211,6,0,B|299:167|346:132|333:233,1,170.000003242493,4|0,3:2|0:0,0:0:0:0:
248,361,18717,2,0,P|331:346|415:334,1,170.000003242493,0|0,3:0|0:0,0:0:0:0:
180,277,19222,2,0,P|139:268|97:262,1,85.0000016212463,0|0,1:0|0:0,0:0:0:0:
97,81,19559,6,0,P|172:96|156:171,1,170.000003242493,0|0,3:0|1:0,0:0:0:0:
51,342,20065,2,0,P|45:257|38:172,1,170.000003242493,0|0,3:0|0:0,0:0:0:0:
167,328,20571,1,0,1:0:0:0:
167,328,20908,6,0,P|250:312|334:302,1,170.000003242493,0|0,3:0|1:0,0:0:0:0:
505,219,21413,2,0,P|420:209|337:193,1,170.000003242493,0|0,3:0|3:0,0:0:0:0:
200,78,21919,1,0,1:0:0:0:
260,291,22087,1,0,0:0:0:0:
266,312,22424,5,0,1:0:0:0:
194,56,22592,1,0,1:0:0:0:
157,292,22762,1,0,1:0:0:0:
327,93,22930,2,0,B|417:101|378:154|483:145,1,170.000003242493,0|0,1:0|0:0,0:0:0:0:
497,130,23604,6,0,P|492:199|486:269,1,139.999995727539,4|0,3:2|1:0,0:0:0:0:
328,372,24110,2,0,P|285:318|293:250,1,139.999995727539,0|0,3:0|3:0,0:0:0:0:
395,108,24615,2,0,P|360:100|326:92,1,69.9999978637695,0|0,1:0|0:0,0:0:0:0:
130,145,24953,6,0,P|194:154|217:94,1,139.999995727539,0|0,3:0|1:0,0:0:0:0:
35,91,25458,2,0,B|25:176|71:148|56:225,1,139.999995727539,0|0,3:0|3:0,0:0:0:0:
27,348,25964,1,0,1:0:0:0:
27,348,26301,6,0,P|96:338|166:333,1,139.999995727539,0|0,3:0|1:0,0:0:0:0:
399,286,26806,2,0,P|329:280|259:271,1,139.999995727539,0|0,3:0|3:0,0:0:0:0:
184,128,27312,2,0,L|179:197,1,69.9999978637695,0|0,1:0|0:0,0:0:0:0:
259,271,27649,5,0,3:0:0:0:
259,271,27818,1,0,0:0:0:0:
95,147,27986,1,0,1:0:0:0:
299,129,28155,2,0,L|438:120,1,139.999995727539,0|0,3:0|0:0,0:0:0:0:
376,325,28660,1,0,1:0:0:0:
376,325,28997,6,0,P|339:268|370:209,1,139.999995727539,0|0,3:0|1:0,0:0:0:0:
510,44,29503,2,0,L|370:35,1,139.999995727539,0|0,3:0|3:0,0:0:0:0:
175,72,30009,1,0,1:0:0:0:
175,72,30346,6,0,L|171:141,1,69.9999978637695,0|0,3:0|0:0,0:0:0:0:
70,210,30683,1,0,1:0:0:0:
261,46,30851,2,0,L|254:185,1,139.999995727539,0|0,3:0|3:0,0:0:0:0:
170,333,31357,1,0,1:0:0:0:
169,333,31694,6,0,P|204:325|238:321,1,69.9999978637695,8|0,3:0|0:0,0:0:0:0:
385,223,32031,2,0,P|350:218|316:211,1,69.9999978637695,8|0,1:3|3:0,0:0:0:0:
159,171,32368,2,0,P|166:205|170:239,1,69.9999978637695,8|0,0:3|3:0,0:0:0:0:
315,380,32705,2,0,P|319:345|326:311,1,69.9999978637695,8|0,1:3|0:0,0:0:0:0:
318,80,33042,5,8,3:0:0:0:
412,208,33211,1,0,1:0:0:0:
412,49,33379,1,0,1:0:0:0:
319,178,33548,1,0,1:0:0:0:
469,129,33717,1,0,1:0:0:0:
38,108,34391,6,0,P|114:93|179:136,1,160,0|0,3:2|1:0,0:0:0:0:
263,243,34896,2,0,L|275:83,1,160,0|0,3:0|3:0,0:0:0:0:
100,248,35402,2,0,L|106:327,1,79.9999999999999,0|0,1:0|0:0,0:0:0:0:
343,376,35739,6,0,P|382:310|347:242,1,160,0|0,3:0|1:0,0:0:0:0:
179,136,36244,2,0,P|256:116|334:97,1,160,0|0,3:0|0:0,0:0:0:0:
505,169,36750,1,0,1:0:0:0:
504,168,37087,6,0,P|427:161|372:215,1,160,0|0,3:0|1:0,0:0:0:0:
277,371,37593,2,0,L|263:211,1,160,0|0,3:0|0:0,0:0:0:0:
373,315,38099,2,0,P|411:324|449:339,1,79.9999999999999,0|0,1:0|0:0,0:0:0:0:
172,254,38436,6,0,P|133:263|95:278,1,79.9999999999999,0|0,3:0|0:0,0:0:0:0:
277,371,38773,1,0,1:0:0:0:
336,196,38941,2,0,L|349:36,1,160,0|0,3:0|3:0,0:0:0:0:
161,88,39447,2,0,P|199:97|239:94,1,79.9999999999999,0|0,1:0|0:0,0:0:0:0:
491,192,39784,6,0,P|413:177|335:195,1,160,0|0,3:0|1:0,0:0:0:0:
187,371,40290,2,0,B|216:325|216:325|200:220,1,160,0|0,3:0|3:0,0:0:0:0:
26,187,40795,2,0,P|76:189|127:167,1,79.9999999999999,0|0,1:0|0:0,0:0:0:0:
339,79,41132,6,0,B|237:65|306:115|185:100,1,160,0|0,3:0|1:0,0:0:0:0:
398,12,41638,2,0,P|429:82|396:152,1,160,0|0,3:0|3:0,0:0:0:0:
267,295,42144,2,0,L|253:216,1,79.9999999999999,0|0,1:0|0:0,0:0:0:0:
494,277,42481,6,0,B|411:286|440:221|346:235,1,160,0|0,3:0|1:0,0:0:0:0:
100,170,42986,2,0,B|182:179|153:114|247:128,1,160,0|0,3:0|3:0,0:0:0:0:
346,235,43492,1,0,1:0:0:0:
325,31,43829,5,4,1:2:0:0:
59,246,44503,1,4,1:2:0:0:
409,294,45177,1,4,1:2:0:0:
409,294,46526,5,0,3:0:0:0:
409,294,46694,1,0,3:0:0:0:
305,231,46863,2,0,P|302:260|301:290,1,59.9999981689453,0|0,0:0|0:0,0:0:0:0:
204,244,47200,2,0,P|202:214|200:184,1,59.9999981689453,0|0,0:0|0:0,0:0:0:0:
139,112,47537,1,0,0:0:0:0:
403,101,47874,5,0,3:0:0:0:
403,101,48042,1,0,3:0:0:0:
339,167,48211,2,0,P|311:156|281:149,1,59.9999981689453,0|0,0:0|0:0,0:0:0:0:
196,72,48548,2,0,P|223:61|253:54,1,59.9999981689453,0|0,0:0|0:0,0:0:0:0:
282,150,48885,1,0,0:0:0:0:
43,285,49222,5,0,3:0:0:0:
43,285,49391,1,0,3:0:0:0:
132,327,49559,2,0,P|137:298|135:268,1,59.9999981689453,0|0,0:0|0:0,0:0:0:0:
77,127,49896,2,0,P|71:156|73:186,1,59.9999981689453,0|0,0:0|0:0,0:0:0:0:
217,249,50233,1,0,0:0:0:0:
141,44,50571,5,0,3:0:0:0:
141,44,50739,1,0,3:0:0:0:
212,96,50908,2,0,L|271:86,1,59.9999981689453,0|0,0:0|0:0,0:0:0:0:
348,197,51245,2,0,L|288:187,1,59.9999981689453,0|0,0:0|0:0,0:0:0:0:
217,249,51582,1,0,0:0:0:0:
450,161,51919,5,0,3:0:0:0:
434,300,52087,2,0,P|442:230|449:160,1,139.999995727539,0|0,3:0|0:0,0:0:0:0:
362,19,52593,2,0,P|425:44|491:25,1,139.999995727539,0|0,1:0|0:0,0:0:0:0:
279,159,53267,5,0,3:0:0:0:
176,24,53436,2,0,B|100:31|127:74|48:73,1,139.999995727539,0|0,3:0|0:0,0:0:0:0:
177,224,53941,2,0,P|208:164|177:104,1,139.999995727539,0|0,1:0|0:0,0:0:0:0:
67,240,54447,1,0,0:0:0:0:
276,324,54615,6,0,L|435:308,1,160,0|0,3:0|1:0,0:0:0:0:
505,126,55121,2,0,L|345:141,1,160,0|0,3:0|3:0,0:0:0:0:
133,234,55627,1,0,1:0:0:0:
133,233,55964,6,0,P|169:165|134:96,1,160,0|0,3:0|1:0,0:0:0:0:
347,4,56469,2,0,P|310:72|345:141,1,160,0|0,3:0|3:0,0:0:0:0:
475,273,56975,1,0,1:0:0:0:
114,170,57312,5,4,1:2:0:0:
426,87,57986,1,4,1:2:0:0:
278,291,58660,1,4,1:2:0:0:
278,291,59672,1,8,0:3:0:0:
457,309,59840,6,0,L|277:290,1,179.999994506836,4|0,3:2|0:0,0:0:0:0:
61,154,60346,1,0,1:0:0:0:
141,314,60514,1,0,3:0:0:0:
203,143,60683,1,0,0:0:0:0:
41,258,60851,1,0,3:0:0:0:
275,204,61020,1,0,1:0:0:0:
124,88,61188,1,0,0:0:0:0:
187,276,61357,6,0,P|194:320|200:364,1,89.999997253418,0|0,3:0|0:0,0:0:0:0:
282,119,61694,2,0,P|288:74|295:30,1,89.999997253418,0|0,1:0|3:0,0:0:0:0:
441,248,62031,2,0,B|338:258|381:188|273:203,1,179.999994506836,0|0,0:0|1:0,0:0:0:0:
32,350,62537,6,0,P|119:352|178:288,1,179.999994506836,0|0,0:0|0:0,0:0:0:0:
134,74,63042,1,0,1:0:0:0:
61,204,63211,1,0,3:0:0:0:
263,129,63379,1,0,0:0:0:0:
30,100,63548,1,0,3:0:0:0:
178,288,63717,2,0,L|169:198,1,89.999997253418,0|0,1:0|0:0,0:0:0:0:
375,74,64054,5,0,3:0:0:0:
264,234,64222,1,0,0:0:0:0:
410,286,64391,2,0,P|454:281|499:277,1,89.999997253418,0|0,1:0|3:0,0:0:0:0:
246,373,64728,2,0,P|156:364|66:355,1,179.999994506836,0|0,0:0|1:0,0:0:0:0:
147,101,65233,6,0,B|186:147|186:147|167:265,1,179.999994506836,0|0,0:0|0:0,0:0:0:0:
11,176,65739,2,0,P|54:165|98:174,1,89.999997253418,0|0,1:0|3:0,0:0:0:0:
270,289,66076,1,0,0:0:0:0:
61,255,66245,1,0,3:0:0:0:
287,139,66413,1,0,1:0:0:0:
246,373,66581,1,0,0:0:0:0:
191,115,66750,6,0,P|103:94|15:74,1,179.999994506836,0|0,3:0|1:0,0:0:0:0:
326,217,67256,2,0,P|413:196|501:176,1,179.999994506836,0|0,3:0|3:0,0:0:0:0:
214,314,67762,1,0,1:0:0:0:
214,314,68099,5,4,1:2:0:0:
467,344,68267,1,4,1:2:0:0:
376,234,68773,5,4,1:2:0:0:
130,357,68941,1,4,1:2:0:0:
268,374,69447,5,4,1:2:0:0:
238,121,69615,1,4,1:2:0:0:
238,121,70121,6,0,P|230:165|227:210,1,89.999997253418,0|0,3:2|0:0,0:0:0:0:
416,108,70458,2,0,P|412:63|405:18,1,89.999997253418,0|0,1:2|0:0,0:0:0:0:
332,166,70795,6,0,B|331:266|389:227|383:333,1,179.999994506836,0|0,3:0|1:0,0:0:0:0:
127,212,71301,2,0,B|121:105|179:144|177:44,1,179.999994506836,0|0,3:0|3:1,0:0:0:0:
239,229,71806,1,0,1:0:0:0:
239,229,72144,5,4,1:2:0:0:
0,108,72312,1,4,1:2:0:0:
85,65,72818,5,4,1:2:0:0:
101,346,72986,1,4,1:2:0:0:
37,284,73492,5,4,1:2:0:0:
370,319,73660,1,4,1:2:0:0:
362,230,74166,5,4,1:2:0:0:
101,346,74335,1,4,1:2:0:0:
253,131,74503,2,0,L|246:265,1,134.999995880127,0|0,0:0|0:0,0:0:0:0:
246,265,74840,5,4,1:2:0:0:
165,80,75009,2,0,B|67:92|128:150|13:163,1,179.999994506836,0|0,0:0|0:0,0:0:0:0:
173,310,75514,5,4,1:2:0:0:
360,112,75683,2,0,B|458:124|397:182|511:195,1,179.999994506836,0|0,0:0|0:0,0:0:0:0:
295,322,76188,1,4,1:2:0:0:
165,80,76357,1,0,0:0:0:0:
190,289,76526,1,4,1:2:0:0:
334,54,76694,1,0,0:0:0:0:
351,27,77705,5,0,1:0:0:0:
178,309,77873,1,0,1:0:0:0:
148,58,78042,1,0,1:0:0:0:
350,322,78211,2,0,L|429:306,1,79.9999999999999,0|8,1:0|0:3,0:0:0:0:
450,319,78885,6,0,B|418:267|418:267|428:158,1,170.000003242493,4|0,3:2|1:0,0:0:0:0:
499,18,79391,2,0,P|416:39|334:62,1,170.000003242493,0|0,3:0|3:0,0:0:0:0:
169,200,79896,2,0,P|184:160|173:120,1,85.0000016212463,0|0,1:0|0:0,0:0:0:0:
18,20,80233,6,0,B|10:122|64:77|51:181,1,170.000003242493,0|0,3:0|1:0,0:0:0:0:
0,322,80739,2,0,P|78:299|143:350,1,170.000003242493,0|0,3:0|3:0,0:0:0:0:
260,208,81245,1,0,1:0:0:0:
438,359,81413,6,0,P|355:336|272:318,1,170.000003242493,0|0,0:0|0:0,0:0:0:0:
185,109,81919,1,0,1:0:0:0:
359,228,82087,1,0,3:0:0:0:
168,322,82256,2,0,P|163:280|155:239,1,85.0000016212463,0|0,0:0|3:0,0:0:0:0:
337,63,82593,2,0,P|328:104|324:146,1,85.0000016212463,0|0,1:0|0:0,0:0:0:0:
129,81,82930,5,0,3:0:0:0:
229,214,83099,1,0,0:0:0:0:
147,361,83267,1,0,1:0:0:0:
20,211,83436,2,0,L|188:233,1,170.000003242493,0|0,3:0|0:0,0:0:0:0:
431,299,83941,2,0,P|391:315|349:312,1,85.0000016212463,0|0,1:0|0:0,0:0:0:0:
216,59,84278,5,0,1:0:0:0:
351,225,84447,1,0,3:0:0:0:
358,66,84615,5,0,1:0:0:0:
137,197,84784,1,0,3:0:0:0:
421,151,84953,5,0,1:0:0:0:
89,51,85121,1,0,3:0:0:0:
222,268,85290,5,0,1:0:0:0:
280,36,85458,1,0,3:0:0:0:
109,241,85627,5,0,1:0:0:0:
344,162,85795,1,0,3:0:0:0:
239,353,85964,6,0,P|231:311|222:269,1,85.0000016212463,0|0,1:0|3:0,0:0:0:0:
135,125,86301,5,0,1:0:0:0:
350,246,86469,1,0,3:0:0:0:
84,252,86638,5,0,1:0:0:0:
348,114,86806,1,0,3:0:0:0:
146,307,86975,5,0,1:0:0:0:
248,38,87144,1,0,3:0:0:0:
350,246,87312,5,0,1:0:0:0:
63,151,87480,1,0,3:0:0:0:
383,150,87649,5,0,1:0:0:0:
84,252,87818,1,0,3:0:0:0:
252,280,87986,5,0,1:0:0:0:
201,56,88155,1,0,3:0:0:0:
176,320,88323,5,0,1:0:0:0:
319,49,88492,1,0,1:0:0:0:
419,276,88660,1,0,1:0:0:0:
199,156,88829,1,0,1:0:0:0:
457,81,88997,5,0,1:0:0:0:
283,266,89166,1,0,1:0:0:0:
326,11,89335,1,0,1:0:0:0:
490,212,89503,1,0,1:0:0:0:
497,189,91694,6,0,L|196:155,1,300,4|0,1:2|0:0,0:0:0:0:
