osu file format v14

[General]
AudioFilename: audio.mp3
AudioLeadIn: 0
PreviewTime: 59619
Countdown: 0
SampleSet: Soft
StackLeniency: 0.2
Mode: 0
LetterboxInBreaks: 0
WidescreenStoryboard: 1

[Editor]
DistanceSpacing: 0.4
BeatDivisor: 4
GridSize: 32
TimelineZoom: 1.4

[Metadata]
Title:Chikatto Chika Chika (TV Size)
TitleUnicode:チカっとチカ千花っ♡ (TV Size)
Artist:Fujiwara Chika (CV: Kohara Konomi)
ArtistUnicode:藤原千花 (CV: 小原好美)
Creator:-[Pino]-
Version:Yugu's Extra
Source:かぐや様は告らせたい~天才たちの恋愛頭脳戦~
Tags:wa Kokurasetai Tensai-tachi no Renai Zunousen wants to be confessed to japanese pop jpop j anime The Geniuses' War of Love and Brains Kaguya-Sama: Love is War UjiMatcha TT Mouse TT_Mouse Yugu
BeatmapID:1972535
BeatmapSetID:920901

[Difficulty]
HPDrainRate:6
CircleSize:4.2
OverallDifficulty:8
ApproachRate:9.2
SliderMultiplier:1.8
SliderTickRate:1

[Events]
//Background and Video events
Video,0,"chika.mp4"
0,0,"Chikachika.jpg",0,0
//Break Periods
//Storyboard Layer 0 (Background)
//Storyboard Layer 1 (Fail)
//Storyboard Layer 2 (Pass)
//Storyboard Layer 3 (Foreground)
//Storyboard Sound Samples

[TimingPoints]
14115,337.078651685393,4,2,1,60,1,0
14367,-100,4,2,1,5,0,0
14452,-133.333333333333,4,2,1,60,0,0
14789,-100,4,2,1,60,0,0
15041,-100,4,2,1,5,0,0
15126,-133.333333333333,4,2,1,60,0,0
15463,-100,4,2,1,60,0,0
16137,-100,4,2,1,60,0,0
16980,-100,4,2,1,60,0,0
17822,-100,4,2,1,60,0,0
18159,-133.333333333333,4,2,1,60,0,0
18412,-133.333333333333,4,2,1,5,0,0
18497,-133.333333333333,4,2,1,60,0,0
21109,-133.333333333333,4,2,1,5,0,0
21193,-133.333333333333,4,2,1,60,0,0
22373,-100,4,2,1,60,0,0
23553,-133.333333333333,4,2,1,60,0,0
30800,-100,4,2,1,60,0,0
31306,-100,4,2,1,60,0,0
31643,-100,4,2,1,60,0,0
32991,-100,4,2,1,60,0,0
34339,-133.333333333333,4,2,1,60,0,0
42429,-133.333333333333,4,2,1,60,0,0
42766,-133.333333333333,4,2,1,60,0,0
45126,-100,4,2,1,60,0,0
46474,-100,4,2,1,50,0,0
52036,-100,4,2,1,50,0,0
52541,-100,4,2,1,70,0,0
52710,-100,4,2,1,50,0,0
52879,-100,4,2,1,50,0,0
53890,-100,4,2,1,70,0,0
54059,-100,4,2,1,50,0,0
54227,-100,4,2,1,30,0,0
54564,-100,4,2,1,60,0,0
55070,-100,4,2,1,60,0,0
57261,-83.3333333333333,4,2,1,60,0,0
58609,-200,4,2,1,60,0,0
59620,-100,4,2,1,70,0,0
59789,-83.3333333333333,4,2,1,70,0,0
59957,-83.3333333333333,4,2,1,70,0,0
62317,-66.6666666666667,4,2,1,70,0,0
64002,-83.3333333333333,4,2,1,70,0,0
64676,-100,4,2,1,70,0,0
65013,-66.6666666666667,4,2,1,70,0,0
65182,-100,4,2,1,70,0,0
65350,-83.3333333333333,4,2,1,70,0,0
66699,-100,4,2,1,70,0,0
66952,-100,4,2,1,70,0,0
67036,-100,4,2,1,70,0,0
67457,-100,4,2,1,70,0,0
67541,-100,4,2,1,70,0,0
70070,-100,4,2,1,70,0,0
70407,-83.3333333333333,4,2,1,70,0,0
70659,-83.3333333333333,4,2,1,70,0,0
70744,-83.3333333333333,4,2,1,70,0,0
74789,-125,4,2,1,70,0,0
75210,-125,4,2,1,70,0,0
75294,-125,4,2,1,70,0,0
75884,-125,4,2,1,70,0,0
75968,-125,4,2,1,70,0,0
77654,-100,4,2,1,70,0,0
78497,-100,4,2,1,70,0,0
78834,-133.333333333333,4,2,1,60,0,0
79086,-133.333333333333,4,2,1,5,0,0
79171,-133.333333333333,4,2,1,60,0,0
81362,-100,4,2,1,60,0,0
81530,-200,4,2,1,60,0,0
82879,-133.333333333333,4,2,1,60,0,0
84058,-100,4,2,1,60,0,0
84227,-100,4,2,1,70,0,0
86923,-100,4,2,1,70,0,0
88946,-100,4,2,1,70,0,0
95688,-100,4,2,1,30,0,0

[Colours]
Combo1 : 134,134,134
Combo2 : 255,153,199
Combo3 : 199,199,199
Combo4 : 96,255,255

[HitObjects]
123,229,14114,6,0,P|172:184|188:120,1,135,0|0,3:0|0:0,0:0:0:0:
187,102,14452,2,0,L|183:22,1,67.5000025749208,2|0,0:0|0:0,0:0:0:0:
388,229,14789,6,0,P|339:184|324:120,1,135,0|0,3:0|0:0,0:0:0:0:
325,102,15127,2,0,L|328:22,1,67.5000025749208,2|0,0:0|0:0,0:0:0:0:
256,192,15463,6,0,L|256:384,1,180,4|0,3:0|0:0,0:0:0:0:
256,192,15968,1,4,0:3:0:0:
256,372,16137,1,6,0:3:0:0:
165,312,16980,5,8,3:2:0:0:
347,312,17148,1,8,3:2:0:0:
126,238,17317,1,8,3:2:0:0:
386,238,17485,1,8,3:2:0:0:
256,32,17822,5,2,0:3:0:0:
256,32,18159,6,0,P|223:69|164:85,1,101.250003862381,0|0,3:0|0:0,0:0:0:0:
150,84,18497,1,8,0:0:0:0:
45,36,18665,1,4,3:0:0:0:
48,48,19002,5,0,3:0:0:0:
96,207,19171,1,8,0:0:0:0:
147,96,19339,1,0,0:0:0:0:
174,176,19508,5,0,3:0:0:0:
96,207,19676,1,2,0:3:0:0:
201,256,19845,1,8,0:0:0:0:
18,238,20013,2,0,P|83:247|133:317,1,135.000005149842,0|0,3:0|3:0,0:0:0:0:
256,192,20519,1,8,0:0:0:0:
201,256,20688,1,0,0:0:0:0:
256,32,20856,6,0,P|289:69|348:85,1,101.250003862381,0|0,3:0|0:0,0:0:0:0:
362,84,21194,1,8,0:0:0:0:
467,36,21362,1,4,3:0:0:0:
464,48,21699,5,2,3:0:0:0:
416,207,21867,1,8,0:0:0:0:
365,96,22036,1,0,0:0:0:0:
512,161,22373,5,8,3:2:0:0:
334,178,22541,1,8,3:2:0:0:
178,285,22710,5,8,3:2:0:0:
0,268,22878,1,8,3:2:0:0:
256,384,23553,6,0,P|283:338|361:291,1,135.000005149842,0|8,3:0|0:0,0:0:0:0:
256,192,24058,2,0,P|229:238|151:285,1,135.000005149842,4|0,3:0|3:0,0:0:0:0:
88,269,24564,1,8,0:0:0:0:
15,256,24732,1,0,0:0:0:0:
15,128,24901,5,0,3:0:0:0:
88,115,25069,1,0,0:0:0:0:
234,89,25238,1,8,0:0:0:0:
161,102,25407,6,0,L|183:238,1,135.000005149842,2|0,3:0|3:0,0:0:0:0:
329,235,25912,2,0,L|343:150,1,67.5000025749208,8|0,0:0|0:0,0:0:0:0:
234,89,26249,6,0,L|255:222,1,135.000005149842,0|8,3:0|0:0,0:0:0:0:
256,304,26755,1,4,3:0:0:0:
389,200,26923,2,0,L|256:222,1,135.000005149842,0|8,0:0|0:0,0:0:0:0:
256,304,27429,1,0,0:0:0:0:
33,255,27598,5,0,3:0:0:0:
107,244,27766,1,0,0:0:0:0:
256,222,27935,1,8,0:0:0:0:
182,233,28103,6,0,L|160:99,1,135.000005149842,2|0,3:0|3:0,0:0:0:0:
351,99,28609,2,0,L|340:166,1,67.5000025749208,2|0,1:3|0:0,0:0:0:0:
256,222,28946,6,0,L|234:88,1,135.000005149842,0|8,3:0|0:0,0:0:0:0:
298,38,29452,1,4,3:0:0:0:
425,110,29620,2,0,L|414:177,1,67.5000025749208,0|0,0:0|3:0,0:0:0:0:
499,254,29957,2,0,L|488:187,1,67.5000025749208,8|0,0:0|0:0,0:0:0:0:
435,292,30294,5,0,3:0:0:0:
501,328,30462,1,0,0:0:0:0:
499,254,30631,1,8,0:0:0:0:
339,171,30800,2,0,B|297:150|261:186|256:192|250:197|214:233|172:212,1,180,2|0,3:0|3:0,0:0:0:0:
13,254,31306,1,8,0:0:0:0:
67,92,31643,5,0,3:0:0:0:
82,180,31811,1,2,0:3:0:0:
159,300,31980,5,8,0:0:0:0:
174,212,32148,1,0,3:0:0:0:
338,212,32317,5,0,0:0:0:0:
353,300,32485,1,2,3:0:0:0:
430,180,32654,5,8,0:0:0:0:
445,92,32822,1,0,0:0:0:0:
256,32,32991,5,0,3:0:0:0:
67,92,33159,5,8,0:0:0:0:
445,92,33328,1,8,0:0:0:0:
82,180,33497,1,8,0:0:0:0:
430,180,33665,1,8,0:0:0:0:
256,384,34339,6,0,L|230:251,1,135.000005149842,0|8,3:0|0:0,0:0:0:0:
318,301,34845,1,0,0:0:0:0:
163,263,35013,2,0,L|230:251,1,67.5000025749208,0|0,0:0|3:0,0:0:0:0:
349,121,35350,2,0,L|282:133,1,67.5000025749208,8|0,0:0|0:0,0:0:0:0:
194,83,35688,5,0,3:0:0:0:
120,71,35856,1,0,0:0:0:0:
32,192,36025,1,8,0:0:0:0:
106,192,36193,6,0,L|263:192,1,135.000005149842,2|0,3:0|3:0,0:0:0:0:
194,301,36699,2,0,L|103:316,1,67.5000025749208,8|0,0:0|0:0,0:0:0:0:
267,289,37036,6,0,L|358:274,1,67.5000025749208,0|0,3:2|0:0,0:0:0:0:
398,242,37373,1,8,0:0:0:0:
397,317,37541,1,4,3:0:0:0:
465,139,37710,2,0,L|464:214,1,67.5000025749208,0|0,0:0|0:0,0:0:0:0:
462,356,38047,1,8,0:0:0:0:
463,281,38216,1,0,0:0:0:0:
334,204,38384,5,0,3:0:0:0:
398,242,38553,1,0,0:0:0:0:
465,139,38721,1,8,0:0:0:0:
270,166,38890,1,2,3:0:0:0:
270,166,39227,5,0,3:0:0:0:
343,0,39396,1,8,0:0:0:0:
343,0,39732,6,0,L|193:33,1,135.000005149842,0|8,3:0|0:0,0:0:0:0:
94,130,40238,2,0,L|225:100,1,135.000005149842,4|0,3:0|3:0,0:0:0:0:
79,64,40744,2,0,L|94:130,1,67.5000025749208,8|0,0:0|0:0,0:0:0:0:
53,297,41081,6,0,L|23:164,1,135.000005149842,0|8,3:0|0:0,0:0:0:0:
121,253,41586,2,0,L|150:385,1,135.000005149842,2|0,3:0|3:0,0:0:0:0:
186,238,42092,6,0,L|121:253,1,67.5000025749208,8|0,0:0|0:0,0:0:0:0:
256,192,42429,2,0,P|301:208|366:290,1,135.000005149842,0|8,3:0|0:0,0:0:0:0:
512,114,42935,2,0,P|451:141|413:196,1,135.000005149842,0|0,3:0|0:0,0:0:0:0:
316,62,43440,1,8,0:0:0:0:
356,361,43777,5,0,3:0:0:0:
156,23,44452,5,0,3:0:0:0:
480,192,45126,6,0,B|417:192|417:259|446:269|446:269|446:238|397:221|362:221|329:208|329:171|329:171|364:184|364:230|339:255|339:299|366:308|366:308|366:275|321:259|274:259|241:249|241:213|241:213|273:222|273:271|214:314,1,720,2|0,3:0|3:0,0:0:0:0:
210,288,46643,1,0,3:0:0:0:
190,277,47823,5,0,3:0:0:0:
169,270,47991,1,0,3:0:0:0:
147,267,49171,5,0,3:0:0:0:
124,269,49339,1,0,3:0:0:0:
102,275,50519,5,0,3:0:0:0:
82,285,50688,1,0,3:0:0:0:
65,299,51867,5,0,3:0:0:0:
50,315,52036,1,0,3:0:0:0:
23,219,52541,1,8,0:0:0:0:
54,352,53216,5,0,3:0:0:0:
46,373,53384,1,0,3:0:0:0:
164,279,53890,1,8,0:0:0:0:
46,373,54564,6,0,P|63:298|26:197,1,180,0|8,3:0|0:0,0:0:0:0:
95,11,55070,2,0,P|78:86|115:187,1,180,0|0,3:0|3:0,0:0:0:0:
239,192,55575,2,0,P|190:214|160:254,1,90,8|2,0:0|0:0,0:0:0:0:
417,373,55912,6,0,P|434:298|397:197,1,180,0|8,3:0|0:0,0:0:0:0:
466,11,56418,2,0,P|449:86|486:187,1,180,0|0,3:0|0:0,0:0:0:0:
273,192,56923,2,0,P|322:170|352:130,1,90,8|0,0:0|0:0,0:0:0:0:
105,152,57261,6,0,P|2:220|121:216,1,323.999990112305,0|0,3:0|0:0,0:0:0:0:
407,152,57935,2,0,P|510:220|391:216,1,323.999990112305,0|0,3:0|0:0,0:0:0:0:
196,232,58609,6,0,B|181:239|181:261|181:284|210:291|210:291|244:288|255:261|255:261|267:288|300:291|300:291|330:284|330:261|330:239|315:232,1,270,2|2,3:0|0:3,0:0:0:0:
256,184,59789,1,0,0:0:0:0:
321,128,59957,6,0,P|329:75|321:22,1,107.999996704102,0|0,0:0|0:0,0:0:0:0:
191,128,60294,2,0,P|182:75|191:22,1,107.999996704102,8|0,0:0|3:0,0:0:0:0:
61,234,60631,6,0,P|52:181|61:128,1,107.999996704102,0|0,0:0|3:0,0:0:0:0:
191,234,60969,2,0,P|199:181|191:128,1,107.999996704102,8|0,0:0|0:0,0:0:0:0:
321,234,61306,6,0,P|313:181|321:128,1,107.999996704102,0|2,3:0|0:0,0:0:0:0:
451,234,61643,2,0,P|460:181|451:128,1,107.999996704102,8|0,0:0|3:0,0:0:0:0:
256,320,61980,5,0,0:0:0:0:
341,242,62148,1,0,0:0:0:0:
171,242,62317,2,0,B|159:284|173:322|173:322|174:293|201:251,1,135.000005149842,8|2,0:0|0:0,0:0:0:0:
256,164,62654,5,0,0:0:0:0:
96,192,62822,1,0,0:0:0:0:
68,32,62991,1,8,0:0:0:0:
228,4,63159,1,0,3:0:0:0:
239,152,63328,5,0,0:0:0:0:
108,175,63497,1,0,3:0:0:0:
85,44,63665,1,8,0:0:0:0:
216,21,63834,1,0,0:0:0:0:
374,111,64002,6,0,P|377:167|360:237,1,107.999996704102,0|2,3:0|0:0,0:0:0:0:
440,379,64339,2,0,P|437:325|447:273,1,107.999996704102,8|0,0:0|3:0,0:0:0:0:
306,274,64676,1,2,0:3:0:0:
508,216,64845,1,0,0:0:0:0:
273,128,65013,6,0,P|258:158|256:192,1,67.5000025749208,8|0,0:0|0:0,0:0:0:0:
256,344,65182,1,2,0:0:0:0:
206,274,65350,6,0,B|118:253|118:253|142:299,1,107.999996704102,0|0,0:0|0:0,0:0:0:0:
306,274,65688,2,0,B|394:253|394:253|370:299,1,107.999996704102,8|0,0:0|3:0,0:0:0:0:
190,178,66025,6,0,B|64:178,1,107.999996704102,0|0,0:0|3:0,0:0:0:0:
322,178,66362,2,0,B|448:178,1,107.999996704102,8|0,0:0|0:0,0:0:0:0:
174,82,66699,6,0,P|126:69|60:0,1,135,0|0,3:0|0:0,0:0:0:0:
48,5,67036,1,8,0:0:0:0:
338,82,67204,6,0,P|386:69|452:0,1,135,0|0,3:0|0:0,0:0:0:0:
464,5,67541,1,0,3:0:0:0:
256,32,67710,1,8,0:0:0:0:
160,192,68047,5,8,3:2:0:0:
352,192,68216,1,8,3:2:0:0:
138,206,68721,5,8,3:2:0:0:
374,206,68890,1,8,3:2:0:0:
116,220,69395,5,8,3:2:0:0:
396,220,69564,1,8,3:2:0:0:
327,268,70070,5,0,0:0:0:0:
404,304,70238,1,0,0:0:0:0:
496,178,70407,2,0,B|368:204|368:204|411:229,1,161.999995056153,8|0,0:0|0:0,0:0:0:0:
404,304,70744,6,0,P|316:352|244:281,1,215.999993408203,4|8,3:0|0:0,0:0:0:0:
84,259,71249,2,0,P|172:210|244:281,1,215.999993408203,2|0,3:0|3:0,0:0:0:0:
161,294,71755,1,8,0:0:0:0:
112,96,72092,5,10,3:2:0:0:
161,294,72261,1,10,3:2:0:0:
400,96,72766,5,8,3:2:0:0:
351,294,72935,1,8,3:2:0:0:
97,86,73440,5,10,3:2:0:0:
149,305,73609,1,10,3:2:0:0:
414,86,74114,5,8,3:2:0:0:
362,305,74283,1,8,3:2:0:0:
256,192,74452,1,0,0:0:0:0:
256,192,74789,5,8,3:2:0:0:
340,94,74957,2,0,P|371:146|419:161,1,108,8|0,3:2|0:0,0:0:0:0:
414,86,75294,1,2,0:0:0:0:
256,192,75463,5,8,3:2:0:0:
171,94,75631,2,0,P|141:146|93:161,1,108,8|0,3:2|0:0,0:0:0:0:
97,86,75968,1,2,0:0:0:0:
256,192,76137,5,8,3:2:0:0:
47,247,76306,1,0,0:0:0:0:
256,192,76474,1,8,3:2:0:0:
464,247,76643,1,2,0:0:0:0:
464,247,77654,5,8,3:2:0:0:
256,352,77822,1,8,3:2:0:0:
464,247,77991,1,8,3:2:0:0:
256,352,78159,1,8,3:2:0:0:
362,300,78497,5,2,0:3:0:0:
256,352,78834,6,0,P|289:315|348:299,1,101.250003862381,0|0,3:0|0:0,0:0:0:0:
362,300,79171,1,8,0:0:0:0:
467,348,79339,1,4,3:0:0:0:
464,336,79676,5,0,3:0:0:0:
416,177,79845,1,8,0:0:0:0:
365,288,80013,1,2,0:3:0:0:
338,208,80183,5,0,3:0:0:0:
416,177,80350,1,2,0:3:0:0:
311,128,80519,1,8,0:0:0:0:
494,146,80688,2,0,P|429:137|379:67,1,135.000005149842,0|0,3:0|3:0,0:0:0:0:
256,192,81193,1,8,0:0:0:0:
311,128,81362,1,2,0:3:0:0:
256,32,81530,6,0,P|254:58|263:82,1,45,0|2,0:0|0:3,0:0:0:0:
228,48,81867,2,0,P|235:73|252:92,1,45,8|4,0:0|3:0,0:0:0:0:
209,72,82204,2,0,P|225:93|246:105,1,45,0|0,0:0|3:0,0:0:0:0:
197,101,82541,2,0,P|219:115|244:119,1,45,8|2,0:0|0:3,0:0:0:0:
174,208,82879,5,0,3:0:0:0:
96,177,83046,1,2,0:3:0:0:
201,128,83215,1,8,0:0:0:0:
18,146,83384,2,0,P|83:137|133:67,1,135.000005149842,0|0,3:0|3:0,0:0:0:0:
256,192,83889,1,8,0:0:0:0:
201,128,84058,1,0,0:3:0:0:
256,32,84227,6,0,P|252:81|212:133,1,90,8|2,0:0|3:0,0:0:0:0:
318,131,84564,2,0,P|294:168|256:191,1,90,8|4,0:0|3:0,0:0:0:0:
322,248,84901,2,0,P|282:268|237:269,1,90,8|0,0:0|3:0,0:0:0:0:
267,351,85238,2,0,P|222:348|183:327,1,90,8|2,0:0|3:0,0:0:0:0:
57,237,85575,5,8,0:0:0:0:
237,269,85744,1,2,3:0:0:0:
87,383,85912,5,8,0:0:0:0:
267,351,86081,1,2,3:0:0:0:
207,187,86249,5,8,0:0:0:0:
381,246,86418,1,0,3:0:0:0:
252,368,86586,5,8,0:0:0:0:
441,319,86755,1,2,3:0:0:0:
427,168,86923,6,0,P|461:214|470:265,1,90,8|2,3:2|0:3,0:0:0:0:
372,84,87261,2,0,P|338:130|329:181,1,90,8|2,3:2|0:3,0:0:0:0:
427,0,87598,2,0,P|461:46|470:97,1,90,8|2,3:2|0:3,0:0:0:0:
256,120,87935,2,0,P|249:176|267:225,1,90,8|2,3:2|0:3,0:0:0:0:
372,84,88272,5,8,3:2:0:0:
159,46,88440,1,8,3:2:0:0:
191,258,88609,1,8,3:2:0:0:
275,10,88777,1,8,3:2:0:0:
43,82,88946,5,8,3:2:0:0:
312,272,89114,1,8,3:2:0:0:
172,17,89283,1,8,3:2:0:0:
114,355,89452,1,8,3:2:0:0:
256,192,91643,5,2,3:0:0:0:
256,192,91727,12,4,95688,0:3:0:0:
