osu file format v14

[General]
AudioFilename: audio.mp3
AudioLeadIn: 0
PreviewTime: 59619
Countdown: 0
SampleSet: Soft
StackLeniency: 0.4
Mode: 0
LetterboxInBreaks: 0
WidescreenStoryboard: 1

[Editor]
Bookmarks: 34338
DistanceSpacing: 1.95
BeatDivisor: 8
GridSize: 4
TimelineZoom: 2.1

[Metadata]
Title:Chikatto Chika Chika (TV Size)
TitleUnicode:チカっとチカ千花っ♡ (TV Size)
Artist:Fujiwara Chika (CV: Kohara Konomi)
ArtistUnicode:藤原千花 (CV: 小原好美)
Creator:-[Pino]-
Version:UjiMatcha's Hard
Source:かぐや様は告らせたい~天才たちの恋愛頭脳戦~
Tags:wa Kokurasetai Tensai-tachi no Renai Zunousen wants to be confessed to japanese pop jpop j anime The Geniuses' War of Love and Brains Kaguya-Sama: Love is War UjiMatcha TT Mouse TT_Mouse Yugu
BeatmapID:1931863
BeatmapSetID:920901

[Difficulty]
HPDrainRate:5
CircleSize:3.6
OverallDifficulty:6
ApproachRate:8
SliderMultiplier:1.5
SliderTickRate:1

[Events]
//Background and Video events
Video,0,"chika.mp4"
0,0,"Chikachika.jpg",0,0
//Break Periods
//Storyboard Layer 0 (Background)
//Storyboard Layer 1 (Fail)
//Storyboard Layer 2 (Pass)
//Storyboard Layer 3 (Foreground)
//Storyboard Sound Samples

[TimingPoints]
14115,337.078651685393,4,2,1,60,1,0
15463,-94.3396226415094,4,2,1,60,0,0
17822,-100,4,2,1,60,0,0
45125,-152.439024390244,4,2,1,60,0,0
46473,-125,4,2,1,60,0,0
46474,-125,4,2,1,50,0,0
52541,-125,4,2,1,70,0,0
52710,-125,4,2,1,50,0,0
53890,-125,4,2,1,70,0,0
54059,-125,4,2,1,50,0,0
54227,-125,4,2,1,30,0,0
54563,-100,4,2,1,30,0,0
54564,-100,4,2,1,60,0,0
58608,-133.333333333333,4,2,1,60,0,0
59619,-100,4,2,1,60,0,0
59620,-100,4,2,1,70,0,0
78834,-100,4,2,1,60,0,0
84227,-100,4,2,1,70,0,0
95688,-100,4,2,1,30,0,0

[Colours]
Combo1 : 134,134,134
Combo2 : 255,153,199
Combo3 : 199,199,199
Combo4 : 96,255,255

[HitObjects]
256,192,14115,5,0,3:0:0:0:
147,294,14452,2,0,P|192:280|219:252,1,75,2|0,0:0|0:0,0:0:0:0:
256,192,14789,5,0,3:0:0:0:
365,294,15126,2,0,P|320:280|293:252,1,75,2|0,0:0|0:0,0:0:0:0:
148,210,15463,6,0,B|196:162|256:192|256:192|316:162|365:211,1,238.500000363922,4|4,3:0|0:3,0:0:0:0:
256,320,16137,1,6,0:3:0:0:
174,109,16980,5,8,3:2:0:0:
205,12,17148,1,8,3:2:0:0:
306,12,17317,1,8,3:2:0:0:
338,109,17485,1,8,3:2:0:0:
256,267,17822,2,0,L|256:192,1,75,2|0,0:3|0:0,0:0:0:0:
256,168,18159,5,0,3:0:0:0:
448,40,18497,1,8,0:0:0:0:
448,40,18665,2,0,P|420:113|469:199,1,150,4|0,3:0|3:0,0:0:0:0:
481,283,19171,2,0,P|442:277|397:274,1,75,8|0,0:0|0:0,0:0:0:0:
313,224,19508,6,0,P|335:189|357:127,2,75,0|2|8,3:0|0:0|0:0,0:0:0:0:
256,312,20013,1,0,3:0:0:0:
256,312,20350,1,0,3:0:0:0:
199,224,20519,2,0,P|177:189|155:127,1,75,8|0,0:0|0:0,0:0:0:0:
122,61,20856,5,0,3:0:0:0:
35,252,21193,1,8,0:0:0:0:
35,252,21362,2,0,P|83:313|182:315,1,150,4|2,3:0|3:0,0:0:0:0:
252,299,21867,2,0,P|245:343|243:406,1,75,8|0,0:0|0:0,0:0:0:0:
242,373,22373,5,8,3:2:0:0:
336,348,22541,1,8,3:2:0:0:
347,251,22710,1,8,3:2:0:0:
253,276,22879,1,8,3:2:0:0:
24,129,23553,6,0,P|64:135|113:108,1,75,0|0,3:0|0:0,0:0:0:0:
181,60,23890,1,8,0:0:0:0:
181,60,24058,2,0,P|223:115|183:183,1,150,4|0,3:0|3:0,0:0:0:0:
96,229,24564,1,8,0:0:0:0:
272,370,24901,6,0,P|309:362|368:355,1,75,0|2,3:0|0:0,0:0:0:0:
447,360,25238,1,8,0:0:0:0:
481,264,25407,1,2,3:0:0:0:
481,264,25744,1,0,3:0:0:0:
401,202,25912,2,0,P|362:200|326:195,1,75,8|0,0:0|0:0,0:0:0:0:
237,124,26249,6,0,P|218:156|189:178,1,75,0|0,3:0|0:0,0:0:0:0:
184,52,26586,1,8,0:0:0:0:
184,52,26755,2,0,P|256:37|319:90,1,150,4|0,3:0|3:0,0:0:0:0:
326,195,27261,1,8,0:0:0:0:
132,279,27598,6,0,P|173:270|208:266,1,75,0|2,3:0|0:0,0:0:0:0:
308,288,27935,1,8,0:0:0:0:
238,366,28103,1,2,3:0:0:0:
238,366,28440,1,0,3:0:0:0:
111,372,28609,2,0,P|66:349|45:313,1,75,2|0,1:3|0:0,0:0:0:0:
56,194,28946,6,0,P|98:167|140:167,1,75,0|0,3:0|0:0,0:0:0:0:
205,266,29283,1,8,0:0:0:0:
205,266,29452,2,0,P|271:293|331:234,1,150,4|0,3:0|3:0,0:0:0:0:
358,148,29957,1,8,0:0:0:0:
187,74,30294,6,0,P|183:123|205:159,1,75,0|2,3:0|0:0,0:0:0:0:
261,222,30631,1,8,0:0:0:0:
278,98,30800,1,2,3:0:0:0:
278,98,31137,1,0,3:0:0:0:
331,15,31306,2,0,P|371:7|417:23,1,75,8|0,0:0|0:0,0:0:0:0:
454,101,31643,6,0,L|445:210,1,75,0|2,3:0|0:3,0:0:0:0:
358,148,31980,2,0,L|351:222,1,75,8|0,0:0|3:0,0:0:0:0:
262,195,32317,2,0,L|255:269,1,75,0|2,0:0|3:0,0:0:0:0:
166,242,32654,2,0,L|159:316,1,75,8|0,0:0|0:0,0:0:0:0:
63,363,32991,6,0,L|70:289,1,75,0|8,3:0|0:0,0:0:0:0:
79,198,33328,1,8,0:0:0:0:
174,151,33497,1,8,0:0:0:0:
270,104,33665,1,8,0:0:0:0:
466,338,34339,6,0,P|431:349|394:345,1,75,0|0,3:0|0:0,0:0:0:0:
309,282,34676,1,8,0:0:0:0:
341,182,34845,1,4,3:0:0:0:
446,183,35013,2,0,P|440:219|421:252,1,75,0|0,0:0|3:0,0:0:0:0:
341,182,35350,2,0,P|346:145|365:112,1,75,8|0,0:0|0:0,0:0:0:0:
464,30,35688,6,0,P|423:26|362:19,1,75,0|2,3:0|0:0,0:0:0:0:
282,46,36025,1,8,0:0:0:0:
282,46,36193,2,0,P|240:118|239:195,1,150,2|0,3:0|3:0,0:0:0:0:
309,282,36699,2,0,P|342:292|392:295,1,75,8|0,0:0|0:0,0:0:0:0:
269,355,37036,6,0,P|236:365|186:368,1,75,0|0,3:0|0:0,0:0:0:0:
97,324,37373,2,0,L|102:246,1,75,8|4,0:0|3:0,0:0:0:0:
86,156,37710,1,0,0:0:0:0:
172,115,37879,1,0,3:0:0:0:
236,183,38047,2,0,P|273:181|308:169,1,75,8|0,0:0|0:0,0:0:0:0:
412,89,38384,6,0,P|411:132|402:179,1,75,0|2,3:0|0:0,0:0:0:0:
361,260,38721,1,8,0:0:0:0:
361,260,38890,2,0,P|298:239|316:164,1,150,2|0,3:0|3:0,0:0:0:0:
387,87,39395,2,0,P|346:85|299:72,1,75,8|0,0:0|0:0,0:0:0:0:
221,23,39732,6,0,P|164:24|128:92,1,112.5,0|0,3:0|0:0,0:0:0:0:
130,101,40070,1,8,0:0:0:0:
234,161,40238,2,0,L|326:170,1,75,4|0,3:0|0:0,0:0:0:0:
360,259,40575,2,0,L|286:267,1,75,0|8,3:0|0:0,0:0:0:0:
201,329,40912,1,0,0:0:0:0:
201,329,41081,6,0,P|183:296|186:246,1,75,0|2,3:0|0:0,0:0:0:0:
234,161,41418,1,8,0:0:0:0:
189,73,41586,2,0,P|143:42|89:49,1,112.5,2|0,3:0|0:0,0:0:0:0:
59,72,41923,1,0,3:0:0:0:
103,194,42092,2,0,P|122:161|123:124,1,75,8|0,0:0|0:0,0:0:0:0:
27,226,42429,6,0,P|64:266|118:275,1,112.5,0|0,3:0|0:0,0:0:0:0:
153,261,42766,1,8,0:0:0:0:
234,160,42935,2,0,P|219:227|286:241,1,150,0|0,3:0|3:0,0:0:0:0:
436,185,43440,2,0,P|399:177|362:182,1,75,8|0,0:0|0:0,0:0:0:0:
368,322,43777,6,0,P|422:367|498:323,1,150,0|2,3:0|0:0,0:0:0:0:
512,89,44452,2,0,P|445:114|436:185,1,150,0|2,3:0|0:0,0:0:0:0:
368,322,45126,6,0,P|400:235|494:264,1,196.799998078125,2|0,3:0|0:0,0:0:0:0:
211,325,46474,6,0,L|156:284,1,60,0|0,3:0|3:0,0:0:0:0:
90,216,46811,2,0,L|151:190,1,60,0|2,0:0|0:0,0:0:0:0:
244,167,47148,2,0,L|234:234,2,60,0|0|0,0:0|0:0|0:0,0:0:0:0:
253,87,47654,1,0,0:0:0:0:
346,183,47822,6,0,L|413:175,1,60,0|0,3:0|3:0,0:0:0:0:
443,92,48159,2,0,L|375:99,1,60,0|2,0:0|0:0,0:0:0:0:
404,15,48497,2,0,L|472:8,2,60,0|2|0,0:0|0:0|0:0,0:0:0:0:
183,53,49171,6,0,L|172:138,1,60,0|0,3:0|3:0,0:0:0:0:
98,149,49508,2,0,L|87:234,1,60,0|2,0:0|0:0,0:0:0:0:
16,251,49845,2,0,B|7:321|7:321|81:329,1,120
291,344,50519,6,0,L|299:277,1,60,0|0,3:0|3:0,0:0:0:0:
325,185,50856,2,0,L|378:225,1,60,0|2,0:0|0:0,0:0:0:0:
444,294,51193,2,0,L|381:319,2,60,0|2|0,0:0|0:0|0:0,0:0:0:0:
375,98,51867,6,0,L|321:57,1,60,0|0,3:0|3:0,0:0:0:0:
236,80,52204,2,0,L|244:13,1,60,0|2,0:0|0:0,0:0:0:0:
138,38,52541,1,8,0:0:0:0:
159,122,52710,1,0,0:0:0:0:
234,167,52879,2,0,L|296:140,1,60,0|0,0:0|0:0,0:0:0:0:
371,185,53216,6,0,L|362:251,1,60,0|0,3:0|3:0,0:0:0:0:
437,310,53553,2,0,L|374:336,1,60,0|2,0:0|0:0,0:0:0:0:
269,309,53890,1,8,0:0:0:0:
185,334,54058,1,0,0:0:0:0:
101,306,54227,2,0,P|117:277|162:253,1,60
232,214,54564,6,0,L|218:100,1,112.5,0|0,3:0|0:0,0:0:0:0:
213,64,54901,1,8,0:0:0:0:
119,15,55070,2,0,P|81:12|45:22,1,75,0|4,3:0|0:3,0:0:0:0:
17,122,55407,1,0,3:0:0:0:
18,122,55575,2,0,P|55:125|91:115,1,75,8|2,0:0|0:0,0:0:0:0:
213,64,55912,6,0,P|249:23|303:23,1,112.5,0|0,3:0|0:0,0:0:0:0:
338,37,56249,1,8,0:0:0:0:
367,138,56418,2,0,L|363:248,1,75,0|4,3:0|0:3,0:0:0:0:
442,283,56755,1,0,3:0:0:0:
442,283,56923,2,0,P|460:249|463:190,1,75,8|0,0:0|0:0,0:0:0:0:
465,92,57261,5,0,3:0:0:0:
465,92,57935,1,0,3:0:0:0:
488,22,58609,2,0,P|399:58|443:162,1,225.000008583069,2|0,3:0|0:0,0:0:0:0:
483,302,59620,5,2,0:3:0:0:
483,302,59789,2,0,P|437:253|363:282,1,150,0|0,0:0|0:0,0:0:0:0:
289,337,60294,2,0,P|248:336|202:293,1,75,8|0,0:0|3:0,0:0:0:0:
140,376,60631,2,0,P|120:340|134:279,1,75,0|0,0:0|3:0,0:0:0:0:
31,266,60968,2,0,P|51:231|111:213,1,75,8|0,0:0|0:0,0:0:0:0:
178,225,61306,6,0,P|177:187|158:156,1,75,0|2,3:0|0:0,0:0:0:0:
68,117,61643,1,8,0:0:0:0:
146,59,61811,1,0,3:0:0:0:
236,96,61980,2,0,P|268:114|305:113,1,75,0|0,0:0|3:0,0:0:0:0:
407,40,62317,1,8,0:0:0:0:
407,40,62485,6,0,P|356:-9|289:15,1,150,2|0,0:0|0:0,0:0:0:0:
236,96,62991,2,0,P|203:114|166:113,1,75,8|0,0:0|3:0,0:0:0:0:
87,56,63328,1,0,0:0:0:0:
176,15,63497,1,0,3:0:0:0:
236,96,63665,2,0,P|236:133|218:165,1,75,8|0,0:0|0:0,0:0:0:0:
154,267,64002,5,0,3:0:0:0:
242,308,64171,1,2,0:0:0:0:
297,228,64339,2,0,P|329:209|366:209,1,75,8|0,0:0|3:0,0:0:0:0:
480,152,64676,2,0,L|492:78,1,75,2|0,0:3|3:0,0:0:0:0:
378,24,65013,1,8,0:0:0:0:
378,24,65182,6,0,B|366:99|366:99|325:85|275:114,1,150,2|0,0:0|0:0,0:0:0:0:
217,165,65688,2,0,L|217:258,1,75,8|0,0:0|3:0,0:0:0:0:
266,325,66025,1,0,0:0:0:0:
266,325,66193,1,0,3:0:0:0:
169,325,66362,1,8,0:0:0:0:
169,325,66530,1,0,0:0:0:0:
141,198,66699,6,0,P|136:125|193:81,1,150,0|0,3:0|0:0,0:0:0:0:
256,42,67204,2,0,P|223:73|124:46,1,150,0|0,3:0|0:0,0:0:0:0:
54,4,67710,1,8,0:0:0:0:
54,4,68047,5,8,3:2:0:0:
50,97,68216,2,0,P|34:132|-26:159,1,75,8|0,3:2|0:0,0:0:0:0:
44,351,68721,1,8,3:2:0:0:
53,254,68890,2,0,P|37:219|-23:192,2,75,8|0|0,3:2|0:0|0:0,0:0:0:0:
44,351,69395,6,0,P|87:344|133:310,1,75,8|8,3:2|3:2,0:0:0:0:
195,384,69732,2,0,P|211:343|203:286,1,75,0|0,0:0|0:0,0:0:0:0:
299,269,70070,2,0,P|268:232|199:213,1,112.5
139,239,70407,2,0,P|181:208|199:142,1,112.5,8|0,0:0|0:0,0:0:0:0:
155,93,70744,6,0,P|211:93|267:87,1,112.5,4|0,3:0|0:0,0:0:0:0:
319,83,71081,1,8,0:0:0:0:
423,73,71249,2,0,L|429:163,1,75,2|0,3:0|0:0,0:0:0:0:
493,220,71586,1,0,3:0:0:0:
493,220,71755,2,0,P|463:240|419:243,1,75,8|0,0:0|0:0,0:0:0:0:
314,163,72092,6,0,L|312:254,1,75,10|10,3:2|3:2,0:0:0:0:
311,328,72429,1,2,0:0:0:0:
312,328,72598,1,2,0:0:0:0:
199,327,72766,6,0,L|198:253,1,75,8|8,3:2|3:2,0:0:0:0:
198,163,73103,1,0,0:0:0:0:
198,163,73272,1,0,0:0:0:0:
85,162,73440,6,0,L|86:236,1,75,10|10,3:2|3:2,0:0:0:0:
33,318,73777,2,0,P|66:334|103:333,1,75,2|2,0:0|0:0,0:0:0:0:
198,253,74114,1,8,3:2:0:0:
198,253,74283,1,8,3:2:0:0:
263,191,74452,2,0,P|234:169|197:162,1,75,0|0,0:0|0:0,0:0:0:0:
128,80,74789,6,0,L|220:71,1,75,8|8,3:2|3:2,0:0:0:0:
384,144,75294,5,2,0:0:0:0:
384,144,75463,2,0,L|292:135,1,75,8|8,3:2|3:2,0:0:0:0:
128,208,75968,5,2,0:0:0:0:
128,208,76137,2,0,L|220:199,1,75,8|0,3:2|0:0,0:0:0:0:
261,278,76474,2,0,L|186:285,1,75,8|2,3:2|0:0,0:0:0:0:
174,210,77654,5,8,3:2:0:0:
205,307,77822,1,8,3:2:0:0:
306,307,77991,1,8,3:2:0:0:
338,210,78159,1,8,3:2:0:0:
256,52,78497,2,0,L|256:127,1,75,2|0,0:3|0:0,0:0:0:0:
256,151,78834,5,0,3:0:0:0:
437,221,79171,1,8,0:0:0:0:
437,221,79339,2,0,P|409:148|455:89,1,150,4|0,3:0|3:0,0:0:0:0:
502,13,79845,2,0,L|413:11,1,75,8|2,0:0|0:3,0:0:0:0:
330,26,80182,6,0,L|341:115,1,75,0|2,3:0|0:3,0:0:0:0:
276,184,80519,1,8,0:0:0:0:
276,184,80688,2,0,P|214:146|148:174,1,150,0|0,3:0|0:0,0:0:0:0:
115,260,81193,1,8,0:0:0:0:
41,325,81362,6,0,P|12:258|44:191,1,150,2|0,0:3|0:0,0:0:0:0:
130,84,81867,2,0,P|134:124|98:176,1,75,8|4,0:0|3:0,0:0:0:0:
115,260,82204,2,0,P|144:237|180:231,1,75,0|0,0:0|3:0,0:0:0:0:
276,184,82541,2,0,P|241:170|218:141,1,75,8|2,0:0|0:3,0:0:0:0:
224,36,82879,6,0,P|259:24|296:31,1,75,0|0,3:0|0:0,0:0:0:0:
375,75,83216,1,8,0:0:0:0:
375,75,83384,2,0,P|359:145|407:198,1,150,0|0,3:0|0:0,0:0:0:0:
504,209,83890,1,8,0:0:0:0:
447,288,84058,6,0,B|380:317|380:317|298:280,1,150,0|2,0:3|3:0,0:0:0:0:
223,331,84564,2,0,L|216:256,1,75,8|4,0:0|3:0,0:0:0:0:
133,204,84901,2,0,L|194:161,1,75,8|0,0:0|3:0,0:0:0:0:
197,63,85238,2,0,L|264:94,1,75,8|2,0:0|3:0,0:0:0:0:
356,169,85575,6,0,P|323:187|286:188,1,75,8|2,0:0|3:0,0:0:0:0:
194,160,85912,2,0,P|159:172|133:199,1,75,8|2,0:0|3:0,0:0:0:0:
56,259,86249,2,0,P|38:226|36:189,1,75,8|0,0:0|3:0,0:0:0:0:
36,91,86586,1,8,0:0:0:0:
130,121,86755,6,0,B|194:161|194:161|258:121,1,150,2|2,3:0|0:3,0:0:0:0:
355,65,87261,2,0,L|423:108,1,75,8|2,3:2|0:3,0:0:0:0:
345,191,87598,2,0,L|345:266,1,75,8|2,3:2|0:3,0:0:0:0:
232,255,87935,2,0,L|168:294,1,75,8|2,3:2|0:3,0:0:0:0:
50,244,88272,6,0,L|50:169,1,75,8|8,3:2|3:2,0:0:0:0:
155,112,88609,2,0,L|155:187,1,75,8|8,3:2|3:2,0:0:0:0:
264,137,88946,2,0,L|264:62,1,75,8|8,3:2|3:2,0:0:0:0:
372,9,89283,2,0,L|372:84,1,75,8|8,3:2|3:2,0:0:0:0:
256,192,91643,5,2,3:0:0:0:
256,192,91811,12,4,95688,0:3:0:0:
