osu file format v14

[General]
AudioFilename: audio.mp3
AudioLeadIn: 0
PreviewTime: 59619
Countdown: 0
SampleSet: Soft
StackLeniency: 0.4
Mode: 0
LetterboxInBreaks: 0
WidescreenStoryboard: 1

[Editor]
DistanceSpacing: 1
BeatDivisor: 2
GridSize: 16
TimelineZoom: 1

[Metadata]
Title:Chikatto Chika Chika (TV Size)
TitleUnicode:チカっとチカ千花っ♡ (TV Size)
Artist:Fujiwara Chika (CV: Kohara Konomi)
ArtistUnicode:藤原千花 (CV: 小原好美)
Creator:-[Pino]-
Version:Tt's Normal
Source:かぐや様は告らせたい~天才たちの恋愛頭脳戦~
Tags:wa Kokurasetai Tensai-tachi no Renai Zunousen wants to be confessed to japanese pop jpop j anime The Geniuses' War of Love and Brains Kaguya-Sama: Love is War UjiMatcha TT Mouse TT_Mouse Yugu
BeatmapID:2035283
BeatmapSetID:920901

[Difficulty]
HPDrainRate:4
CircleSize:4
OverallDifficulty:4
ApproachRate:5
SliderMultiplier:0.9
SliderTickRate:1

[Events]
//Background and Video events
Video,0,"chika.mp4"
0,0,"Chikachika.jpg",0,0
//Break Periods
//Storyboard Layer 0 (Background)
//Storyboard Layer 1 (Fail)
//Storyboard Layer 2 (Pass)
//Storyboard Layer 3 (Foreground)
//Storyboard Sound Samples

[TimingPoints]
14115,337.078651685393,4,2,1,80,1,0
46474,-125,4,2,1,50,0,0
54564,-100,4,2,1,80,0,0
59620,-100,4,2,1,80,0,0

[Colours]
Combo1 : 134,134,134
Combo2 : 255,153,199
Combo3 : 199,199,199
Combo4 : 96,255,255

[HitObjects]
67,324,14114,6,0,P|104:305|185:318,1,90,0|2,3:0|0:0,0:0:0:0:
235,348,14789,2,0,P|234:290|252:256,1,90,0|2,3:0|0:0,0:0:0:0:
217,177,15463,2,0,B|203:140|166:131|166:131|104:166|114:237,1,180,4|6,3:0|0:3,0:0:0:0:
292,83,16980,2,0,P|263:67|244:35,2,45,8|8|8,3:2|3:2|3:2,0:0:0:0:
336,75,17485,1,8,3:2:0:0:
363,160,17822,1,2,0:3:0:0:
446,127,18159,6,0,B|475:117|509:138|509:138|527:177|486:226,1,135,4|4,3:2|3:0,0:0:0:0:
435,264,19002,2,0,P|410:249|377:248,2,45,0|8|0,3:0|0:0|0:0,0:0:0:0:
448,307,19508,2,0,P|377:270|304:266,1,135,0|0,3:0|3:0,0:0:0:0:
249,316,20350,2,0,L|261:379,1,45,0|8,3:0|0:0,0:0:0:0:
169,338,20856,38,0,B|155:294|182:265|182:265|209:235|193:189,1,135,0|4,3:0|3:0,0:0:0:0:
159,132,21699,1,2,3:0:0:0:
198,110,21867,2,0,P|221:119|242:144,1,45,8|0,0:0|0:0,0:0:0:0:
284,57,22373,2,0,P|286:30|301:1,2,45,8|8|8,3:2|3:2|3:2,0:0:0:0:
317,86,22879,1,8,3:2:0:0:
452,204,23553,6,0,P|407:192|313:183,1,135,4|4,3:2|3:0,0:0:0:0:
245,233,24395,2,0,P|230:211|203:208,2,45,0|8|0,3:0|0:0|0:0,0:0:0:0:
249,277,24901,1,0,3:0:0:0:
195,349,25238,1,8,0:0:0:0:
195,349,25407,2,0,B|159:358|131:330|131:330|134:299|160:273,1,135,2|8,3:0|0:0,0:0:0:0:
76,238,26249,2,0,P|74:158|23:104,1,135,0|4,3:0|3:0,0:0:0:0:
81,35,27092,2,0,P|103:37|123:47,1,45,0|8,3:0|0:0,0:0:0:0:
152,133,27598,2,0,P|207:101|296:105,2,135,0|2|0,3:0|3:0|1:3,0:0:0:0:
219,192,28946,38,0,L|232:329,1,135,4|4,3:2|3:0,0:0:0:0:
308,374,29789,2,0,P|329:356|331:331,1,45,0|8,3:0|0:0,0:0:0:0:
301,256,30294,1,0,3:0:0:0:
375,205,30631,1,8,0:0:0:0:
375,205,30800,2,0,P|401:261|449:228,1,135,2|8,3:0|0:0,0:0:0:0:
420,143,31643,5,0,3:0:0:0:
495,94,31980,1,8,0:0:0:0:
472,6,32317,1,0,0:0:0:0:
382,4,32654,1,8,0:0:0:0:
347,86,32991,2,0,P|313:55|258:46,1,90,0|8,3:0|0:0,0:0:0:0:
209,110,33665,2,0,B|205:133|205:133|225:161|224:208,1,90,8|0,0:0|0:0,0:0:0:0:
313,198,34339,6,0,P|259:215|221:288,1,135,4|4,3:2|3:0,0:0:0:0:
148,332,35181,2,0,P|136:353|103:360,2,45,0|8|0,3:0|0:0|0:0,0:0:0:0:
140,287,35687,1,0,3:0:0:0:
63,240,36024,1,8,0:0:0:0:
63,240,36193,2,0,L|92:92,1,135,2|8,3:0|0:0,0:0:0:0:
155,46,37035,37,0,3:0:0:0:
214,113,37372,2,0,P|185:120|164:142,1,45,8|4,0:0|3:0,0:0:0:0:
169,174,37709,2,0,P|200:200|281:195,1,90,0|8,0:0|0:0,0:0:0:0:
306,138,38384,2,0,P|301:74|343:-3,2,135,0|2|8,3:0|3:0|0:0,0:0:0:0:
393,157,39732,6,0,B|424:153|456:130|456:130|447:164|464:212,1,135,0|4,3:0|3:0,0:0:0:0:
384,246,40575,1,0,3:0:0:0:
384,246,40744,1,8,0:0:0:0:
302,284,41081,2,0,P|304:308|320:333,2,45,0|0|8,3:0|0:0|0:0,0:0:0:0:
305,239,41586,2,0,B|317:201|307:171|307:171|269:159|257:119,1,135,2|8,3:0|0:0,0:0:0:0:
339,85,42429,1,0,3:0:0:0:
339,85,42766,2,0,P|313:59|169:48,1,180,8|8,0:0|0:0,0:0:0:0:
176,133,43777,38,0,L|163:188,1,45,0|0,3:0|0:0,0:0:0:0:
56,256,44452,2,0,L|69:308,1,45,0|0,3:0|0:0,0:0:0:0:
187,359,45126,1,2,3:0:0:0:
189,353,46474,6,0,B|225:335|266:348|266:348|308:364|361:341,1,144,0|0,3:0|0:0,0:0:0:0:
213,266,47822,2,0,B|214:225|185:193|185:193|154:161|154:103,1,144,0|0,3:0|0:0,0:0:0:0:
287,199,49171,2,0,P|350:207|344:289,1,144,0|0,3:0|0:0,0:0:0:0:
392,137,50519,2,0,L|356:282,1,144,0|0,3:0|0:0,0:0:0:0:
292,147,51867,5,0,3:0:0:0:
264,123,52036,2,0,P|262:86|302:14,1,108,0|8,3:0|0:0,0:0:0:0:
375,91,53215,1,0,3:0:0:0:
382,55,53384,2,0,P|413:34|495:33,1,108,0|8,3:0|0:0,0:0:0:0:
504,208,54564,6,0,B|508:249|479:273|479:273|436:265|413:218,1,135,0|0,3:0|3:0,0:0:0:0:
423,150,55407,2,0,P|394:151|374:170,1,45,0|8,3:0|0:0,0:0:0:0:
302,203,55912,2,0,P|340:313|328:343,1,135,0|0,3:0|3:0,0:0:0:0:
253,360,56755,2,0,P|245:329|259:291,1,45,0|8,3:0|0:0,0:0:0:0:
175,262,57261,2,0,P|176:219|207:173,1,90,0|0,3:0|0:0,0:0:0:0:
216,91,57935,2,0,P|255:67|313:71,1,90,0|0,3:0|0:0,0:0:0:0:
378,107,58609,1,2,3:0:0:0:
437,201,59620,5,2,0:3:0:0:
474,175,59789,2,0,P|500:114|471:55,1,135,4|8,2:2|0:0,0:0:0:0:
391,14,60631,1,0,0:0:0:0:
315,63,60968,1,8,0:0:0:0:
332,151,61306,2,0,P|314:178|309:211,1,45,0|2,3:0|0:0,0:0:0:0:
330,230,61643,1,8,0:0:0:0:
405,279,61980,1,0,0:0:0:0:
355,354,62317,37,8,0:0:0:0:
320,325,62485,2,0,P|258:319|180:372,1,135,4|8,0:2|0:0,0:0:0:0:
124,297,63328,1,0,0:0:0:0:
200,249,63665,1,8,0:0:0:0:
204,159,64002,2,0,P|204:140|181:109,2,45,0|2|8,3:0|0:0|0:0,0:0:0:0:
281,204,64676,2,0,P|327:204|382:246,1,90,2|8,0:3|0:0,0:0:0:0:
382,266,65182,6,0,L|418:107,1,135,6|8,0:0|0:0,0:0:0:0:
488,86,66025,1,0,0:0:0:0:
450,4,66362,1,8,0:0:0:0:
371,48,66699,2,0,P|321:84|243:69,1,135,0|0,3:0|3:0,0:0:0:0:
170,36,67541,2,0,P|160:62|175:94,1,45,0|8,0:0|0:0,0:0:0:0:
210,154,68047,38,0,L|151:176,1,45,8|8,3:2|3:2,0:0:0:0:
48,232,68721,2,0,L|111:259,1,45,8|8,3:2|3:2,0:0:0:0:
179,257,69227,1,0,0:0:0:0:
213,285,69395,2,0,P|211:326|172:368,2,90,10|2|0,3:2|0:0|0:0,0:0:0:0:
271,215,70407,1,8,0:0:0:0:
322,289,70744,2,0,B|348:312|392:295|392:295|442:278|472:310,1,135,4|2,3:0|3:0,0:0:0:0:
417,211,71586,2,0,P|446:211|484:244,1,45,0|8,3:0|0:0,0:0:0:0:
501,136,72092,22,0,L|513:64,1,45,10|10,3:2|3:2,0:0:0:0:
404,5,72766,2,0,L|476:17,1,45,8|8,3:2|3:2,0:0:0:0:
320,57,73440,2,0,L|308:129,1,45,10|10,3:2|3:2,0:0:0:0:
414,190,74114,2,0,L|342:178,1,45,8|8,3:2|3:2,0:0:0:0:
278,282,74789,6,0,P|262:301|276:346,1,45,8|8,3:2|3:2,0:0:0:0:
130,359,75463,1,8,3:2:0:0:
157,323,75631,2,0,B|163:298|163:298|166:261|127:218,1,90,8|2,3:2|0:0,0:0:0:0:
101,221,76137,1,8,3:2:0:0:
155,149,76474,1,8,3:2:0:0:
249,163,77654,2,0,P|253:135|278:99,2,45,8|8|8,3:2|3:2|3:2,0:0:0:0:
276,198,78159,1,8,3:2:0:0:
363,176,78496,1,2,0:3:0:0:
423,242,78833,6,0,P|423:293|357:372,1,135,4|4,3:2|3:0,0:0:0:0:
294,325,79676,2,0,P|289:296|298:272,2,45,0|8|2,3:0|0:0|0:3,0:0:0:0:
254,346,80182,2,0,B|216:360|188:336|188:336|152:309|111:318,1,135,0|0,3:0|3:0,0:0:0:0:
47,355,81024,2,0,P|36:335|35:312,1,45,0|8,0:0|0:0,0:0:0:0:
87,239,81530,2,0,P|91:172|132:120,1,135,4|4,3:2|3:0,0:0:0:0:
201,62,82373,2,0,P|220:55|256:62,1,45,0|8,3:0|0:0,0:0:0:0:
256,146,82879,2,0,P|237:153|201:146,2,45,0|0|8,3:0|0:0|0:0,0:0:0:0:
292,120,83384,2,0,B|326:112|356:126|356:126|374:162|351:211,1,135,0|8,3:0|0:0,0:0:0:0:
408,268,84227,5,4,0:0:0:0:
362,345,84564,1,8,0:0:0:0:
276,316,84901,1,8,0:0:0:0:
272,226,85238,1,8,0:0:0:0:
195,179,85575,2,0,P|146:176|96:210,1,90,8|8,0:0|0:0,0:0:0:0:
22,211,86249,2,0,P|25:166|50:129,1,90,8|8,0:0|0:0,0:0:0:0:
131,92,86923,37,4,0:0:0:0:
180,16,87260,1,8,3:2:0:0:
250,72,87597,1,8,3:2:0:0:
339,79,87934,1,8,3:2:0:0:
413,27,88272,2,0,P|434:17|479:15,2,45,8|8|8,3:2|3:2|3:2,0:0:0:0:
417,116,88946,2,0,P|432:143|429:182,2,45,8|8|8,3:2|3:2|3:2,0:0:0:0:
372,111,89452,1,0,0:0:0:0:
258,163,91643,1,2,3:0:0:0:
256,192,91811,12,4,95688,0:3:0:0:
