osu file format v14

[General]
AudioFilename: audio.mp3
AudioLeadIn: 0
PreviewTime: 59619
Countdown: 0
SampleSet: Soft
StackLeniency: 0.4
Mode: 0
LetterboxInBreaks: 0
WidescreenStoryboard: 1

[Editor]
DistanceSpacing: 1.3
BeatDivisor: 4
GridSize: 16
TimelineZoom: 1.4

[Metadata]
Title:Chikatto Chika Chika (TV Size)
TitleUnicode:チカっとチカ千花っ♡ (TV Size)
Artist:Fujiwara Chika (CV: Kohara Konomi)
ArtistUnicode:藤原千花 (CV: 小原好美)
Creator:-[Pino]-
Version:Insane
Source:かぐや様は告らせたい~天才たちの恋愛頭脳戦~
Tags:wa Kokurasetai Tensai-tachi no Renai Zunousen wants to be confessed to japanese pop jpop j anime The Geniuses' War of Love and Brains Kaguya-Sama: Love is War UjiMatcha TT Mouse TT_Mouse Yugu
BeatmapID:1934762
BeatmapSetID:920901

[Difficulty]
HPDrainRate:7
CircleSize:4.2
OverallDifficulty:7.5
ApproachRate:9
SliderMultiplier:1.6
SliderTickRate:1

[Events]
//Background and Video events
Video,0,"chika.mp4"
0,0,"Chikachika.jpg",0,0
//Break Periods
//Storyboard Layer 0 (Background)
//Storyboard Layer 1 (Fail)
//Storyboard Layer 2 (Pass)
//Storyboard Layer 3 (Foreground)
//Storyboard Sound Samples

[TimingPoints]
14115,337.078651685393,4,2,1,60,1,0
14115,-66.6666666666667,4,2,1,60,0,0
14452,-100,4,2,1,60,0,0
14789,-66.6666666666667,4,2,1,60,0,0
15126,-100,4,2,1,60,0,0
15463,-133.333333333333,4,2,1,60,0,0
16137,-83.3333333333333,4,2,1,60,0,0
16980,-100,4,2,1,60,0,0
17822,-83.3333333333333,4,2,1,60,0,0
18159,-100,4,2,1,60,0,0
22373,-83.3333333333333,4,2,1,60,0,0
23553,-100,4,2,1,60,0,0
30800,-50,4,2,1,60,0,0
31306,-100,4,2,1,60,0,0
31643,-200,4,2,1,60,0,0
32991,-100,4,2,1,60,0,0
42429,-133.333333333333,4,2,1,60,0,0
42766,-66.6666666666667,4,2,1,60,0,0
45126,-57.1428571428571,4,2,1,60,0,0
46474,-50,4,2,1,50,0,0
52036,-200,4,2,1,50,0,0
52541,-100,4,2,1,70,0,0
52710,-100,4,2,1,50,0,0
52879,-200,4,2,1,50,0,0
53890,-100,4,2,1,70,0,0
54059,-100,4,2,1,50,0,0
54227,-200,4,2,1,30,0,0
54564,-66.6666666666667,4,2,1,60,0,0
55070,-100,4,2,1,60,0,0
58609,-50,4,2,1,60,0,0
59620,-100,4,2,1,70,0,0
59789,-83.3333333333333,4,2,1,70,0,0
64676,-66.6666666666667,4,2,1,70,0,0
65182,-83.3333333333333,4,2,1,70,0,0
70070,-133.333333333333,4,2,1,70,0,0
70407,-66.6666666666667,4,2,1,70,0,0
70744,-83.3333333333333,4,2,1,70,0,0
77654,-100,4,2,1,70,0,0
78497,-83.3333333333333,4,2,1,70,0,0
78834,-200,4,2,1,60,0,0
81362,-133.333333333333,4,2,1,60,0,0
81867,-200,4,2,1,60,0,0
84058,-100,4,2,1,60,0,0
84227,-100,4,2,1,70,0,0
88946,-66.6666666666667,4,2,1,70,0,0
95688,-66.6666666666667,4,2,1,30,0,0

[Colours]
Combo1 : 134,134,134
Combo2 : 255,153,199
Combo3 : 199,199,199
Combo4 : 96,255,255

[HitObjects]
72,258,14115,6,0,P|145:233|193:327,1,180.000006866455,0|0,3:0|0:0,0:0:0:0:
209,323,14452,2,0,L|219:214,1,80,2|0,0:0|0:0,0:0:0:0:
332,98,14789,6,0,P|259:73|211:167,1,180.000006866455,0|0,3:0|0:0,0:0:0:0:
195,163,15126,2,0,L|185:54,1,80,2|0,0:0|0:0,0:0:0:0:
414,63,15463,6,0,B|431:108|407:150|407:150|382:191|400:235,1,180.000006866455,4|4,3:0|0:3,0:0:0:0:
466,301,16137,6,0,B|439:247|374:244|328:291|346:348|346:348|319:377|264:369|244:315|279:277,1,335.999989746094,6|0,0:3|0:0,0:0:0:0:
171,185,16980,6,0,L|177:118,1,40,8|0,3:2|0:0,0:0:0:0:
160,316,17148,2,0,L|156:355,1,40,8|0,3:2|0:0,0:0:0:0:
193,190,17317,6,0,L|221:129,1,40,8|0,3:2|0:0,0:0:0:0:
137,310,17485,2,0,L|120:346,1,40,8|0,3:2|0:0,0:0:0:0:
16,59,17822,6,0,L|9:0,1,47.9999985351563,2|0,0:3|0:0,0:0:0:0:
28,68,18159,6,0,B|95:51|95:51|116:69|116:69|205:75,1,160,0|0,3:0|0:0,0:0:0:0:
393,84,18665,2,0,P|364:36|268:48,1,160,4|0,3:0|0:0,0:0:0:0:
221,195,19171,2,0,L|314:186,1,80,8|0,0:0|0:0,0:0:0:0:
441,186,19508,6,0,P|465:231|445:284,1,80,0|0,3:0|0:0,0:0:0:0:
388,360,19845,1,8,0:0:0:0:
281,295,20013,6,0,B|243:287|243:287|382:272,1,160,0|0,3:0|0:0,0:0:0:0:
164,332,20519,2,0,B|142:301|142:301|163:235,1,80,8|0,0:0|0:0,0:0:0:0:
228,129,20856,6,0,B|234:196|234:196|237:203|237:203|244:291,1,160,0|0,3:0|0:0,0:0:0:0:
74,228,21362,2,0,B|68:161|68:161|65:154|65:154|58:66,1,160,4|0,3:0|0:0,0:0:0:0:
217,117,21867,2,0,P|188:149|143:150,1,80,8|0,0:0|0:0,0:0:0:0:
153,152,22373,6,0,P|176:142|218:155,1,47.9999985351563,8|0,3:2|0:0,0:0:0:0:
280,79,22541,2,0,P|300:93|309:136,1,47.9999985351563,8|0,3:2|0:0,0:0:0:0:
406,152,22710,2,0,P|403:176|370:206,1,47.9999985351563,8|0,3:2|0:0,0:0:0:0:
405,297,22879,6,0,P|401:213|440:288,1,191.999994140625,8|0,3:2|0:0,0:0:0:0:
206,344,23553,6,0,B|130:351|130:351|123:358|123:358|21:368,1,160,0|8,3:0|0:0,0:0:0:0:
134,241,24058,2,0,B|171:216|210:241|210:241|244:272|286:262,1,160,4|0,3:0|3:0,0:0:0:0:
309,113,24564,2,0,P|280:143|278:213,1,80,8|0,0:0|0:0,0:0:0:0:
391,319,24901,6,0,P|386:277|334:230,1,80,0|2,3:0|0:0,0:0:0:0:
270,179,25238,1,8,0:0:0:0:
375,232,25407,6,0,P|444:257|496:191,1,160,2|0,3:0|3:0,0:0:0:0:
400,107,25912,2,0,L|288:101,1,80,8|0,0:0|0:0,0:0:0:0:
190,145,26249,6,0,B|136:120|136:120|175:10,1,160,0|8,3:0|0:0,0:0:0:0:
309,113,26755,2,0,B|363:138|363:138|324:248,1,160,4|0,3:0|3:0,0:0:0:0:
239,293,27261,2,0,P|229:255|247:212,1,80,8|0,0:0|0:0,0:0:0:0:
307,345,27598,6,0,P|279:372|232:378,1,80,0|2,3:0|0:0,0:0:0:0:
163,337,27935,1,8,0:0:0:0:
41,362,28103,6,0,B|46:304|46:304|39:281|39:281|50:261|50:261|58:173,1,160,2|0,3:0|3:0,0:0:0:0:
130,109,28609,2,0,B|181:140|181:140|161:226,1,120,2|0,1:3|0:0,0:0:0:0:
167,198,28946,6,0,P|218:144|303:186,1,160,0|8,3:0|0:0,0:0:0:0:
463,260,29452,2,0,B|359:286|359:286|321:222,1,160,4|0,3:0|3:0,0:0:0:0:
391,112,29957,2,0,L|402:208,1,80,8|0,0:0|0:0,0:0:0:0:
331,377,30294,6,0,B|360:284|360:284|417:346,1,160,0|8,3:0|0:0,0:0:0:0:
509,287,30800,6,0,B|482:320|435:332|390:318|359:283|359:283|321:253|270:247|227:266|201:306,1,320,2|0,3:0|3:0,0:0:0:0:
95,324,31306,2,0,B|76:310|76:310|103:227,1,80,8|0,0:0|0:0,0:0:0:0:
165,135,31643,6,0,L|173:177,1,40,0|2,3:0|0:3,0:0:0:0:
180,384,31980,2,0,L|172:337,1,40,8|0,0:0|3:0,0:0:0:0:
181,146,32317,6,0,L|189:188,1,40,0|2,0:0|3:0,0:0:0:0:
164,373,32654,2,0,L|156:331,1,40,8|0,0:0|0:0,0:0:0:0:
178,261,32991,5,0,3:0:0:0:
188,185,33159,6,0,L|181:146,1,40,8|0,0:0|0:0,0:0:0:0:
156,333,33328,2,0,L|164:373,1,40,8|0,0:0|0:0,0:0:0:0:
172,174,33497,6,0,L|165:135,1,40,8|0,0:0|0:0,0:0:0:0:
173,344,33665,2,0,L|180:384,1,40,8|0,0:0|0:0,0:0:0:0:
444,291,34339,6,0,P|392:236|320:259,2,160,0|8|0,3:0|0:0|0:0,0:0:0:0:
311,342,35182,1,0,3:0:0:0:
235,265,35350,2,0,L|246:170,1,80,8|0,0:0|0:0,0:0:0:0:
322,71,35688,6,0,L|331:150,1,80,0|2,3:0|0:0,0:0:0:0:
320,260,36025,1,8,0:0:0:0:
160,198,36193,6,0,B|120:192|120:192|254:174,1,160,2|0,3:0|3:0,0:0:0:0:
405,262,36699,2,0,P|356:265|332:239,1,80,8|0,0:0|0:0,0:0:0:0:
427,68,37036,5,0,3:0:0:0:
430,100,37204,1,0,0:0:0:0:
382,158,37373,5,8,0:0:0:0:
386,190,37541,1,4,3:0:0:0:
405,262,37710,6,0,P|366:210|261:242,1,160,0|8,0:0|0:0,0:0:0:0:
198,187,38216,1,0,0:0:0:0:
142,327,38384,6,0,L|133:248,1,80,0|2,3:0|0:0,0:0:0:0:
83,92,38721,1,8,0:0:0:0:
66,374,38890,6,0,L|45:193,1,160,2|0,3:0|3:0,0:0:0:0:
90,78,39395,2,0,P|114:111|109:158,1,80,8|0,0:0|0:0,0:0:0:0:
198,187,39732,6,0,P|237:135|342:167,1,160,0|8,3:0|0:0,0:0:0:0:
500,172,40238,2,0,P|461:224|356:192,1,160,4|0,3:0|3:0,0:0:0:0:
243,116,40744,2,0,B|278:111|278:111|286:117|286:117|338:110,1,80,8|0,0:0|0:0,0:0:0:0:
424,154,41081,6,0,B|480:212|480:212|445:317,1,160,0|8,3:0|0:0,0:0:0:0:
241,384,41586,2,0,B|263:306|263:306|371:284,1,160,2|0,3:0|3:0,0:0:0:0:
465,372,42092,2,0,B|425:381|425:381|389:340,1,80,8|0,0:0|0:0,0:0:0:0:
166,364,42429,6,0,P|159:320|188:283,1,90.0000034332277,0|0,3:0|0:0,0:0:0:0:
309,198,42766,6,0,B|346:187|366:211|378:240|356:268|326:273|326:273|301:275|301:275|278:275|258:263|246:243|246:243|232:223|212:212|192:212|192:212|54:223|54:223|21:231|14:265|30:296|63:295|63:295|184:285,1,660.000025177003,8|0,0:0|0:0,0:0:0:0:
247,244,43777,5,0,3:0:0:0:
247,244,44452,5,0,3:0:0:0:
247,244,45126,6,0,B|237:130|237:130|236:99|264:77|300:88|307:119|307:119|327:321|327:321|334:354|368:363|398:347|397:314|397:314|386:214|386:214|160:232|160:232|144:234|131:243|126:261|126:261|124:289|98:299|70:294|62:267|62:267|54:255|40:245|26:245|26:245|-2:247,1,1050.00001001358,2|0,3:0|0:0,0:0:0:0:
85,175,46474,5,0,3:0:0:0:
85,175,46643,1,0,3:0:0:0:
85,175,47822,5,0,3:0:0:0:
85,175,47991,1,0,3:0:0:0:
427,209,49171,5,0,3:0:0:0:
427,209,49339,1,0,3:0:0:0:
427,209,50519,5,0,3:0:0:0:
427,209,50688,1,0,3:0:0:0:
256,192,51867,5,0,3:0:0:0:
256,192,52036,2,0,B|285:186|285:186|305:197|305:197|342:190,1,80,0|2,3:0|0:0,0:0:0:0:
434,141,52541,6,0,L|417:276,1,120,8|0,0:0|0:0,0:0:0:0:
434,277,52879,6,0,B|419:261|419:261|388:270,1,40
329,309,53216,5,0,3:0:0:0:
329,309,53384,2,0,B|300:303|300:303|280:314|280:314|243:307,1,80,0|2,3:0|0:0,0:0:0:0:
164,358,53890,6,0,L|147:223,1,120,8|0,0:0|0:0,0:0:0:0:
145,217,54227,2,0,P|128:236|133:253,1,40,0|0,0:0|0:0,0:0:0:0:
32,282,54564,6,0,B|52:100|52:100|75:193,1,240.000009155274,0|8,3:0|0:0,0:0:0:0:
239,71,55070,2,0,P|208:141|130:98,1,160,0|0,3:0|3:0,0:0:0:0:
29,27,55575,2,0,B|66:22|66:22|76:28|76:28|119:22,1,80,8|2,0:0|0:0,0:0:0:0:
330,108,55912,6,0,P|258:135|233:50,1,160,0|8,3:0|0:0,0:0:0:0:
357,33,56418,1,0,3:0:0:0:
483,153,56586,6,0,B|509:108|499:51|451:17|451:17|455:73|421:102,1,240,4|0,0:3|0:0,0:0:0:0:
388,204,57261,5,0,3:0:0:0:
388,204,57935,1,0,3:0:0:0:
388,204,58609,6,0,B|372:211|365:236|371:255|371:255|378:291|443:293|417:422|314:429|245:374|268:293|300:270|300:270|337:245|357:167|293:118|188:128|183:228|217:258,1,640,2|0,3:0|0:0,0:0:0:0:
29,246,59620,6,0,P|40:216|65:213,1,40,2|0,0:3|0:0,0:0:0:0:
90,0,59789,6,0,B|130:31|130:31|118:127|118:127|66:148,1,191.999994140625,2|0,0:0|0:0,0:0:0:0:
16,53,60294,5,8,0:0:0:0:
19,75,60463,1,0,3:0:0:0:
118,127,60631,5,0,0:0:0:0:
158,25,60800,1,0,3:0:0:0:
246,77,60968,5,8,0:0:0:0:
161,47,61137,1,0,0:0:0:0:
203,157,61306,5,0,3:0:0:0:
158,25,61474,1,2,0:0:0:0:
315,20,61643,6,0,P|335:76|323:119,1,95.9999970703126,8|0,0:0|3:0,0:0:0:0:
247,261,61980,2,0,P|285:215|328:204,1,95.9999970703126,0|0,0:0|3:0,0:0:0:0:
417,147,62317,5,8,0:0:0:0:
386,357,62485,2,0,B|403:236|403:236|490:289,1,191.999994140625,2|0,0:0|0:0,0:0:0:0:
512,361,62991,5,8,0:0:0:0:
507,384,63159,1,0,3:0:0:0:
399,269,63328,5,0,0:0:0:0:
382,286,63496,1,0,3:0:0:0:
417,147,63665,5,8,0:0:0:0:
393,153,63833,1,0,0:0:0:0:
273,210,64002,6,0,P|248:259|263:333,1,95.9999970703126,0|2,3:0|0:0,0:0:0:0:
160,375,64339,2,0,P|137:333|136:285,1,95.9999970703126,8|0,0:0|3:0,0:0:0:0:
144,45,64676,6,0,B|189:71|189:71|169:203,1,180.000006866455,2|0,0:3|0:0,0:0:0:0:
170,198,65013,2,0,P|141:170|106:193,1,60.0000022888184,8|0,0:0|0:0,0:0:0:0:
28,98,65182,6,0,B|66:66|118:83|118:83|168:111|216:84,1,191.999994140625,2|0,0:0|0:0,0:0:0:0:
334,45,65688,1,8,0:0:0:0:
372,114,65856,1,0,3:0:0:0:
307,162,66025,5,0,0:0:0:0:
334,45,66193,1,0,3:0:0:0:
402,206,66362,5,8,0:0:0:0:
372,114,66530,1,0,0:0:0:0:
493,181,66699,6,0,B|510:191|510:191|488:373,1,191.999994140625,0|8,3:0|0:0,0:0:0:0:
272,361,67204,2,0,P|312:289|410:337,1,191.999994140625,0|0,3:0|3:0,0:0:0:0:
508,372,67710,1,8,0:0:0:0:
138,359,68047,5,8,3:2:0:0:
172,193,68216,1,8,3:2:0:0:
217,291,68721,5,8,3:2:0:0:
168,93,68890,1,8,3:2:0:0:
275,166,69395,5,8,3:2:0:0:
38,225,69564,1,8,3:2:0:0:
161,200,70070,6,0,P|192:233|188:293,1,90.0000034332277,0|0,0:0|0:0,0:0:0:0:
175,308,70407,6,0,L|148:95,1,180.000006866455,8|0,0:0|0:0,0:0:0:0:
172,106,70744,6,0,B|243:84|243:84|279:119|279:119|391:128,1,191.999994140625,4|8,3:0|0:0,0:0:0:0:
481,160,71249,2,0,B|509:55|509:55|417:12,1,191.999994140625,2|0,3:0|3:0,0:0:0:0:
333,132,71755,2,0,B|310:146|310:146|345:241,1,95.9999970703126,8|0,0:0|0:0,0:0:0:0:
369,325,72092,5,10,3:2:0:0:
259,270,72261,1,10,3:2:0:0:
232,308,72766,5,8,3:2:0:0:
395,285,72935,1,8,3:2:0:0:
440,268,73440,5,10,3:2:0:0:
187,325,73609,1,10,3:2:0:0:
141,315,74114,5,8,3:2:0:0:
486,278,74283,1,8,3:2:0:0:
314,298,74789,5,8,3:2:0:0:
298,325,74957,2,0,P|234:254|146:303,1,191.999994140625,8|2,3:2|0:0,0:0:0:0:
0,197,75463,5,8,3:2:0:0:
16,224,75631,2,0,P|80:153|168:202,1,191.999994140625,8|2,3:2|0:0,0:0:0:0:
249,161,76137,5,8,3:2:0:0:
198,64,76306,1,0,0:0:0:0:
234,184,76474,5,8,3:2:0:0:
213,41,76643,1,2,0:0:0:0:
372,183,77654,6,0,L|366:116,1,40,8|0,3:2|0:0,0:0:0:0:
383,314,77822,2,0,L|387:353,1,40,8|0,3:2|0:0,0:0:0:0:
350,188,77990,6,0,L|322:127,1,40,8|0,3:2|0:0,0:0:0:0:
406,308,78159,2,0,L|423:344,1,40,8|0,3:2|0:0,0:0:0:0:
496,59,78497,6,0,L|503:0,1,47.9999985351563,2|0,0:3|0:0,0:0:0:0:
483,67,78834,6,0,P|458:54|436:62,1,40,0|2,3:0|0:3,0:0:0:0:
365,104,79171,6,0,L|368:143,1,40,8|4,0:0|3:0,0:0:0:0:
378,220,79508,2,0,L|381:259,1,40,0|0,0:0|3:0,0:0:0:0:
301,341,79845,6,0,P|276:354|254:346,1,40,8|2,0:0|0:3,0:0:0:0:
167,304,80182,2,0,P|154:279|161:257,1,40,0|2,3:0|0:3,0:0:0:0:
262,233,80519,6,0,L|301:229,1,40,8|0,0:0|3:0,0:0:0:0:
378,220,80856,2,0,L|417:216,1,40,0|0,0:0|3:0,0:0:0:0:
494,207,81193,1,8,0:0:0:0:
463,322,81362,6,0,B|410:317|410:317|399:302|399:302|344:297,1,120.000004577637,2|0,0:3|0:0,0:0:0:0:
230,247,81867,2,0,P|251:267|252:288,1,40,8|4,0:0|3:0,0:0:0:0:
152,338,82204,2,0,P|159:309|176:297,1,40,0|0,0:0|3:0,0:0:0:0:
271,360,82541,2,0,P|242:367|224:358,1,40,8|2,0:0|0:3,0:0:0:0:
108,225,82879,6,0,P|137:218|155:227,1,40,0|0,3:0|0:0,0:0:0:0:
244,171,83216,6,0,L|250:132,1,40,8|0,0:0|0:0,0:0:0:0:
261,55,83553,2,0,L|267:16,1,40,0|0,0:0|0:0,0:0:0:0:
251,132,83890,1,8,0:0:0:0:
68,122,84058,6,0,P|113:65|191:88,1,160,0|2,0:3|3:0,0:0:0:0:
323,106,84564,1,8,0:0:0:0:
340,222,84732,1,4,3:0:0:0:
377,127,84901,5,8,0:0:0:0:
285,200,85069,1,0,3:0:0:0:
385,185,85238,5,8,0:0:0:0:
277,142,85406,1,2,3:0:0:0:
467,146,85575,6,0,L|475:244,1,80,8|2,0:0|3:0,0:0:0:0:
395,269,85912,2,0,L|403:367,1,80,8|2,0:0|3:0,0:0:0:0:
308,220,86249,2,0,L|316:318,1,80,8|0,0:0|3:0,0:0:0:0:
229,253,86586,1,8,0:0:0:0:
130,338,86755,6,0,B|77:309|77:309|117:182,1,160,2|2,3:0|0:3,0:0:0:0:
206,133,87261,1,8,3:2:0:0:
229,253,87429,1,2,0:3:0:0:
300,72,87598,5,8,3:2:0:0:
259,187,87766,1,2,0:3:0:0:
412,66,87935,5,8,3:2:0:0:
319,146,88103,1,2,0:3:0:0:
448,193,88272,6,0,L|443:142,1,40,8|0,3:2|0:0,0:0:0:0:
438,205,88440,2,0,L|433:154,1,40,8|0,3:2|0:0,0:0:0:0:
350,269,88609,6,0,L|345:320,1,40,8|0,3:2|0:0,0:0:0:0:
340,257,88777,2,0,L|335:308,1,40,8|0,3:2|0:0,0:0:0:0:
206,133,88946,6,0,L|189:191,1,60.0000022888184,8|0,3:2|0:0,0:0:0:0:
130,338,89114,6,0,L|147:280,1,60.0000022888184,8|0,3:2|0:0,0:0:0:0:
110,93,89283,6,0,L|121:179,1,60.0000022888184,8|0,3:2|0:0,0:0:0:0:
226,378,89451,6,0,L|215:292,1,60.0000022888184,8|0,3:2|0:0,0:0:0:0:
256,192,91643,5,2,3:0:0:0:
256,192,91727,12,4,95688,0:3:0:0:
