osu file format v14

[General]
AudioFilename: audio.mp3
AudioLeadIn: 0
PreviewTime: 59619
Countdown: 0
SampleSet: Soft
StackLeniency: 0.2
Mode: 0
LetterboxInBreaks: 0
WidescreenStoryboard: 1

[Editor]
DistanceSpacing: 0.75
BeatDivisor: 8
GridSize: 16
TimelineZoom: 1.9

[Metadata]
Title:Chikatto Chika Chika (TV Size)
TitleUnicode:チカっとチカ千花っ♡ (TV Size)
Artist:Fujiwara Chika (CV: Kohara Konomi)
ArtistUnicode:藤原千花 (CV: 小原好美)
Creator:-[Pino]-
Version:Chika<3
Source:かぐや様は告らせたい~天才たちの恋愛頭脳戦~
Tags:wa Kokurasetai Tensai-tachi no Renai Zunousen wants to be confessed to japanese pop jpop j anime The Geniuses' War of Love and Brains Kaguya-Sama: Love is War UjiMatcha TT Mouse TT_Mouse Yugu
BeatmapID:1923145
BeatmapSetID:920901

[Difficulty]
HPDrainRate:7.6
CircleSize:5.4
OverallDifficulty:9
ApproachRate:9.6
SliderMultiplier:1.8
SliderTickRate:1

[Events]
//Background and Video events
Video,0,"chika.mp4"
0,0,"Chikachika.jpg",0,0
//Break Periods
//Storyboard Layer 0 (Background)
//Storyboard Layer 1 (Fail)
//Storyboard Layer 2 (Pass)
//Storyboard Layer 3 (Foreground)
//Storyboard Sound Samples

[TimingPoints]
14115,337.078651685393,4,2,1,60,1,0
14115,-66.6666666666667,4,2,1,60,0,0
14452,-100,4,2,1,60,0,0
14789,-50,4,2,1,60,0,0
15126,-100,4,2,1,60,0,0
16137,-80,4,2,1,60,0,0
16727,-200,4,2,1,60,0,0
16980,-66.6666666666667,4,2,1,60,0,0
17485,-133.333333333333,4,2,1,60,0,0
17822,-66.6666666666667,4,2,1,60,0,0
18159,-100,4,2,1,60,0,0
19633,-100,4,2,1,5,0,0
19675,-50,4,2,1,60,0,0
19802,-50,4,2,1,5,0,0
19844,-200,4,2,1,60,0,0
19970,-200,4,2,1,5,0,0
20012,-100,4,2,1,60,0,0
20518,-66.6666666666667,4,2,1,60,0,0
20855,-100,4,2,1,60,0,0
22373,-66.6666666666667,4,2,1,60,0,0
22878,-100,4,2,1,60,0,0
25069,-133.333333333333,4,2,1,60,0,0
25195,-133.333333333333,4,2,1,5,0,0
25237,-133.333333333333,4,2,1,60,0,0
25364,-133.333333333333,4,2,1,5,0,0
25406,-100,4,2,1,60,0,0
27765,-133.333333333333,4,2,1,60,0,0
27892,-133.333333333333,4,2,1,5,0,0
27934,-200,4,2,1,60,0,0
28061,-133.333333333333,4,2,1,5,0,0
28102,-100,4,2,1,60,0,0
30462,-133.333333333333,4,2,1,60,0,0
30588,-133.333333333333,4,2,1,5,0,0
30630,-133.333333333333,4,2,1,60,0,0
30757,-133.333333333333,4,2,1,5,0,0
30799,-50,4,2,1,60,0,0
31136,-100,4,2,1,60,0,0
31642,-400,4,2,1,60,0,0
31937,-400,4,2,1,5,0,0
31979,-400,4,2,1,60,0,0
32611,-400,4,2,1,5,0,0
32653,-400,4,2,1,60,0,0
33158,-66.6666666666667,4,2,1,60,0,0
33664,-83.3333333333333,4,2,1,60,0,0
34338,-100,4,2,1,60,0,0
35855,-133.333333333333,4,2,1,60,0,0
35982,-133.333333333333,4,2,1,5,0,0
36024,-200,4,2,1,60,0,0
36150,-200,4,2,1,5,0,0
36192,-100,4,2,1,60,0,0
37372,-133.333333333333,4,2,1,60,0,0
37709,-100,4,2,1,60,0,0
38552,-133.333333333333,4,2,1,60,0,0
38678,-133.333333333333,4,2,1,5,0,0
38720,-50,4,2,1,60,0,0
38847,-50,4,2,1,5,0,0
38889,-100,4,2,1,60,0,0
42765,-50,4,2,1,60,0,0
45125,-38.4615384615385,4,2,1,60,0,0
46474,-38.4615384615385,4,2,1,50,0,0
52035,-133.333333333333,4,2,1,50,0,0
52541,-50,4,2,1,70,0,0
52710,-50,4,2,1,50,0,0
52878,-200,4,2,1,50,0,0
53383,-133.333333333333,4,2,1,50,0,0
53889,-50,4,2,1,50,0,0
53890,-50,4,2,1,70,0,0
54059,-50,4,2,1,50,0,0
54226,-333.333333333333,4,2,1,50,0,0
54227,-333.333333333333,4,2,1,30,0,0
54352,-333.333333333333,4,2,1,5,0,0
54394,-333.333333333333,4,2,1,30,0,0
54521,-333.333333333333,4,2,1,5,0,0
54563,-50,4,2,1,30,0,0
54564,-50,4,2,1,60,0,0
54900,-80,4,2,1,60,0,0
56585,-66.6666666666667,4,2,1,60,0,0
57260,-50,4,2,1,60,0,0
57934,-33.3333333333333,4,2,1,60,0,0
58608,-33.3333333333333,4,2,1,60,0,0
59619,-100,4,2,1,60,0,0
59620,-100,4,2,1,70,0,0
59788,-66.6666666666667,4,2,1,70,0,0
60083,-66.6666666666667,4,2,1,5,0,0
60125,-66.6666666666667,4,2,1,70,0,0
60293,-200,4,2,1,70,0,0
60630,-66.6666666666667,4,2,1,70,0,0
60967,-200,4,2,1,70,0,0
61305,-66.6666666666667,4,2,1,70,0,0
61431,-66.6666666666667,4,2,1,5,0,0
61473,-50,4,2,1,70,0,0
61600,-50,4,2,1,5,0,0
61642,-100,4,2,1,70,0,0
61979,-66.6666666666667,4,2,1,70,0,0
62316,-50,4,2,1,70,0,0
62442,-50,4,2,1,5,0,0
62484,-66.6666666666667,4,2,1,70,0,0
62990,-100,4,2,1,70,0,0
63327,-200,4,2,1,70,0,0
63664,-400,4,2,1,70,0,0
64001,-133.333333333333,4,2,1,70,0,0
64338,-200,4,2,1,70,0,0
64675,-50,4,2,1,70,0,0
65139,-50,4,2,1,5,0,0
65181,-66.6666666666667,4,2,1,70,0,0
65476,-66.6666666666667,4,2,1,5,0,0
65518,-66.6666666666667,4,2,1,70,0,0
65687,-200,4,2,1,70,0,0
66024,-66.6666666666667,4,2,1,70,0,0
66361,-200,4,2,1,70,0,0
66699,-66.6666666666667,4,2,1,70,0,0
67541,-200,4,2,1,70,0,0
67710,-50,4,2,1,70,0,0
68046,-66.6666666666667,4,2,1,70,0,0
68173,-66.6666666666667,4,2,1,5,0,0
68215,-66.6666666666667,4,2,1,70,0,0
68341,-66.6666666666667,4,2,1,5,0,0
68383,-200,4,2,1,70,0,0
68720,-57.1428571428571,4,2,1,70,0,0
68847,-57.1428571428571,4,2,1,5,0,0
68889,-57.1428571428571,4,2,1,70,0,0
69015,-57.1428571428571,4,2,1,5,0,0
69057,-200,4,2,1,70,0,0
69394,-50,4,2,1,70,0,0
69521,-50,4,2,1,5,0,0
69563,-50,4,2,1,70,0,0
69689,-50,4,2,1,5,0,0
69732,-200,4,2,1,70,0,0
70069,-66.6666666666667,4,2,1,70,0,0
70406,-50,4,2,1,70,0,0
70743,-66.6666666666667,4,2,1,70,0,0
71248,-50,4,2,1,70,0,0
72091,-66.6666666666667,4,2,1,70,0,0
72217,-66.6666666666667,4,2,1,5,0,0
72260,-333.333333333333,4,2,1,70,0,0
72765,-66.6666666666667,4,2,1,70,0,0
72892,-66.6666666666667,4,2,1,5,0,0
72934,-333.333333333333,4,2,1,70,0,0
73439,-66.6666666666667,4,2,1,70,0,0
73566,-66.6666666666667,4,2,1,5,0,0
73608,-333.333333333333,4,2,1,70,0,0
74114,-66.6666666666667,4,2,1,70,0,0
74240,-66.6666666666667,4,2,1,5,0,0
74282,-333.333333333333,4,2,1,70,0,0
74788,-200,4,2,1,70,0,0
74914,-200,4,2,1,5,0,0
74956,-50,4,2,1,70,0,0
75293,-100,4,2,1,70,0,0
75420,-100,4,2,1,5,0,0
75462,-200,4,2,1,70,0,0
75588,-200,4,2,1,5,0,0
75630,-50,4,2,1,70,0,0
75967,-200,4,2,1,70,0,0
76094,-200,4,2,1,5,0,0
76136,-100,4,2,1,70,0,0
76262,-100,4,2,1,5,0,0
76305,-76.9230769230769,4,2,1,70,0,0
76431,-76.9230769230769,4,2,1,5,0,0
76473,-62.5,4,2,1,70,0,0
76600,-62.5,4,2,1,5,0,0
76642,-50,4,2,1,70,0,0
77653,-66.6666666666667,4,2,1,70,0,0
78158,-133.333333333333,4,2,1,70,0,0
78496,-66.6666666666667,4,2,1,70,0,0
78833,-333.333333333333,4,2,1,70,0,0
78834,-333.333333333333,4,2,1,60,0,0
79128,-333.333333333333,4,2,1,5,0,0
79170,-333.333333333333,4,2,1,60,0,0
80139,-333.333333333333,4,2,1,5,0,0
80181,-333.333333333333,4,2,1,60,0,0
80476,-333.333333333333,4,2,1,5,0,0
80518,-333.333333333333,4,2,1,60,0,0
81361,-100,4,2,1,60,0,0
81656,-100,4,2,1,5,0,0
81698,-100,4,2,1,60,0,0
81866,-200,4,2,1,60,0,0
82203,-100,4,2,1,60,0,0
82541,-200,4,2,1,60,0,0
82878,-333.333333333333,4,2,1,60,0,0
83173,-333.333333333333,4,2,1,5,0,0
83216,-333.333333333333,4,2,1,60,0,0
84226,-50,4,2,1,60,0,0
84227,-50,4,2,1,70,0,0
88271,-100,4,2,1,70,0,0
88439,-88.8888888888889,4,2,1,70,0,0
88608,-80,4,2,1,70,0,0
88776,-72.7272727272727,4,2,1,70,0,0
88945,-66.6666666666667,4,2,1,70,0,0
89114,-50,4,2,1,70,0,0
89282,-40,4,2,1,70,0,0
89451,-33.3333333333333,4,2,1,70,0,0
91642,-200,4,2,1,70,0,0
91894,-133.333333333333,4,2,1,70,0,0
95688,-133.333333333333,4,2,1,30,0,0

[Colours]
Combo1 : 134,134,134
Combo2 : 255,153,199
Combo3 : 199,199,199
Combo4 : 96,255,255

[HitObjects]
196,262,14115,6,0,B|159:248|154:200|154:200|126:235|83:253|43:247,1,202.500007724762,0|0,3:0|0:0,0:0:0:0:
250,149,14452,2,0,B|224:164|232:194|232:194|259:206|275:237|272:268,1,135,2|0,0:0|0:0,0:0:0:0:
253,367,14789,6,0,B|225:314|265:256|329:246|370:299|370:299|414:302|410:246,1,270,0|0,3:0|0:0,0:0:0:0:
486,277,15126,2,0,P|443:304|439:227,1,135,2|0,0:0|0:0,0:0:0:0:
491,112,15463,6,0,B|514:132|521:172|498:197|498:197|464:193|437:166|438:131,1,180,4|0,3:0|0:0,0:0:0:0:
364,174,15968,2,0,B|364:181|358:189|350:190|350:190|344:183|344:174|351:167,1,45,4|0,0:3|0:0,0:0:0:0:
244,28,16137,6,0,B|306:44|313:117|265:171|201:126|206:99|206:99|165:106|150:77|150:77|118:117|71:102,1,337.5,6|0,0:3|0:0,0:0:0:0:
29,137,16727,6,0,P|23:132|25:114,1,22.5,0|0,0:0|0:0,0:0:0:0:
131,345,16980,6,0,B|121:312|121:312|154:349,1,67.5,8|0,3:2|0:0,0:0:0:0:
28,268,17148,2,0,B|60:275|60:275|11:285,1,67.5,8|0,3:2|0:0,0:0:0:0:
145,217,17317,2,0,B|121:241|121:241|137:194,1,67.5,8|0,3:2|0:0,0:0:0:0:
248,293,17485,6,0,P|223:299|250:289,1,101.250003862381,8|0,3:2|0:0,0:0:0:0:
256,277,17822,6,0,P|207:280|252:297,1,135.000005149842,2|0,0:3|0:0,0:0:0:0:
438,339,18159,6,0,B|397:282|397:282|331:313,1,135,0|0,3:0|0:0,0:0:0:0:
248,374,18497,2,0,L|293:369,1,45,8|0,0:0|0:0,0:0:0:0:
397,283,18665,6,0,B|407:221|407:221|411:220|411:220|428:117,1,135,4|0,3:0|0:0,0:0:0:0:
485,227,19002,2,0,B|495:250|495:250|470:261,1,45,0|0,3:0|0:0,0:0:0:0:
341,183,19171,2,0,L|330:90,1,90,8|0,0:0|0:0,0:0:0:0:
410,147,19508,6,0,B|380:152|380:152|372:159|372:159|339:165,1,67.5,0|0,3:0|0:0,0:0:0:0:
264,158,19676,6,0,P|208:159|189:83,1,135,2|0,0:3|0:0,0:0:0:0:
235,48,19845,6,0,P|251:67|247:80,1,33.75,8|0,0:0|0:0,0:0:0:0:
135,197,20013,6,0,P|106:225|124:176,1,135,0|0,3:0|0:0,0:0:0:0:
201,174,20350,2,0,P|219:182|202:188,1,45,0|0,3:0|0:0,0:0:0:0:
36,253,20519,6,0,B|71:222|124:229|154:271|154:271|194:246|239:273,1,202.500007724762,8|0,0:0|0:0,0:0:0:0:
300,224,20856,6,0,B|337:284|337:284|283:331,1,135,0|0,3:0|0:0,0:0:0:0:
211,308,21193,2,0,L|219:260,1,45,8|0,0:0|0:0,0:0:0:0:
394,178,21362,6,0,B|401:237|401:237|406:240|406:240|413:316,1,135,4|0,3:0|0:0,0:0:0:0:
360,356,21699,2,0,B|343:370|343:370|371:365,1,45,2|0,3:0|0:0,0:0:0:0:
479,370,21867,2,0,L|496:263,1,90,8|0,0:0|0:0,0:0:0:0:
365,148,22373,6,0,B|399:143|399:143|358:167,1,67.5,8|0,3:2|0:0,0:0:0:0:
281,218,22541,2,0,B|302:244|302:244|261:221,1,67.5,8|0,3:2|0:0,0:0:0:0:
178,180,22710,2,0,B|165:211|165:211|165:164,1,67.5,8|0,3:2|0:0,0:0:0:0:
36,253,22879,6,0,P|2:281|49:256,1,180,8|0,3:2|0:0,0:0:0:0:
139,292,23553,6,0,B|169:272|199:294|199:294|230:319|265:300,1,135,0|0,3:0|0:0,0:0:0:0:
302,244,23890,2,0,P|321:253|324:284,1,45,8|0,0:0|0:0,0:0:0:0:
409,301,24058,6,0,P|430:360|392:307,1,180,4|0,3:0|3:0,0:0:0:0:
470,204,24564,2,0,P|500:209|468:212,1,90,8|0,0:0|0:0,0:0:0:0:
394,227,24901,5,0,3:0:0:0:
390,236,25070,6,0,B|382:211|382:211|406:226,1,50.6250019311906
434,114,25238,2,0,B|426:139|426:139|450:124,1,50.6250019311906,8|0,0:0|0:0,0:0:0:0:
267,138,25407,6,0,B|222:162|222:162|356:134,1,180,2|0,3:0|3:0,0:0:0:0:
486,46,25912,2,0,L|385:35,1,90,8|0,0:0|0:0,0:0:0:0:
181,38,26249,6,0,B|158:58|158:58|188:79|231:73|254:46,1,135,0|0,3:0|0:0,0:0:0:0:
323,43,26586,2,0,P|325:17|306:6,1,45,8|0,0:0|0:0,0:0:0:0:
137,48,26755,6,0,P|116:107|154:54,1,180,4|0,3:0|3:0,0:0:0:0:
15,36,27261,2,0,P|4:65|22:39,1,90,8|0,0:0|0:0,0:0:0:0:
80,0,27598,5,0,3:0:0:0:
89,6,27766,6,0,B|109:25|109:25|104:57,1,50.6250019311906
53,142,27935,2,0,B|37:148|37:148|43:131,1,33.75,8|0,0:0|0:0,0:0:0:0:
237,179,28103,6,0,B|183:170|183:170|159:190|159:190|103:181,1,135,2|0,3:0|0:0,0:0:0:0:
49,213,28440,2,0,B|26:212|26:212|39:253,1,45,0|0,3:0|0:0,0:0:0:0:
142,333,28609,6,0,B|104:257|104:257|72:302,1,135,2|0,1:3|0:0,0:0:0:0:
133,355,28946,6,0,B|163:336|197:348|197:348|235:362|266:339,1,135,0|0,3:0|0:0,0:0:0:0:
263,267,29283,2,0,P|279:254|288:273,1,45,8|0,0:0|0:0,0:0:0:0:
387,320,29452,6,0,P|360:376|370:312,1,180,4|0,3:0|3:0,0:0:0:0:
498,294,29957,2,0,P|515:318|490:298,1,90,8|0,0:0|0:0,0:0:0:0:
432,259,30294,5,0,3:0:0:0:
424,259,30463,6,0,B|421:234|421:234|445:263,1,50.6250019311906
460,162,30631,2,0,B|480:146|480:146|467:182,1,50.6250019311906,8|0,0:0|0:0,0:0:0:0:
344,196,30800,6,0,B|309:164|304:106|299:43|368:42|383:46|396:55|403:76|388:108|371:131|328:118,1,270,2|0,3:0|0:0,0:0:0:0:
199,63,31137,2,0,P|221:58|240:68,1,45,0|0,3:0|0:0,0:0:0:0:
263,219,31306,6,0,P|269:157|301:128,1,90,8|0,0:0|0:0,0:0:0:0:
432,259,31643,6,0,L|437:272,1,11.25,0|0,3:0|0:0,0:0:0:0:
432,259,31811,2,0,L|424:241,1,16.875,2|0,0:3|0:0,0:0:0:0:
324,318,31980,6,0,L|322:329,1,11.25,8|0,0:0|0:0,0:0:0:0:
324,318,32148,2,0,L|326:307,1,11.25,0|0,3:0|0:0,0:0:0:0:
192,240,32317,6,0,L|194:255,1,11.25,0|0,0:0|0:0,0:0:0:0:
192,240,32485,2,0,L|188:219,1,16.875,2|0,3:0|0:0,0:0:0:0:
99,284,32654,6,0,L|97:295,1,11.25,8|0,0:0|0:0,0:0:0:0:
99,284,32822,2,0,L|100:272,1,11.25,0|0,0:0|0:0,0:0:0:0:
184,343,32991,5,0,3:0:0:0:
107,162,33159,6,0,B|117:195|117:195|91:157,1,67.5,8|0,0:0|0:0,0:0:0:0:
272,145,33328,2,0,B|248:170|248:170|268:128,1,67.5,8|0,0:0|0:0,0:0:0:0:
369,279,33497,2,0,B|335:271|335:271|381:267,1,67.5,8|0,0:0|0:0,0:0:0:0:
453,154,33665,6,0,P|427:88|427:167,1,215.999993408203,8|0,0:0|0:0,0:0:0:0:
475,226,34339,6,0,B|455:192|470:155|470:155|483:120|463:91,1,135,0|0,3:0|0:0,0:0:0:0:
465,18,34676,2,0,B|497:30|495:72|495:72|453:96|425:63,1,135,8|0,0:0|0:0,0:0:0:0:
385,1,35013,5,0,0:0:0:0:
362,116,35182,1,0,3:0:0:0:
345,128,35350,5,8,0:0:0:0:
309,43,35519,1,0,0:0:0:0:
222,51,35688,5,0,3:0:0:0:
215,62,35856,6,0,B|208:74|208:74|248:55,1,50.6250019311906
334,147,36025,2,0,B|348:159|348:159|323:157,1,33.75,8|0,0:0|0:0,0:0:0:0:
185,202,36193,6,0,B|250:141|250:141|269:232,1,180,2|0,3:0|3:0,0:0:0:0:
105,227,36699,2,0,B|101:185|101:185|105:180|105:180|100:123,1,90,8|0,0:0|0:0,0:0:0:0:
206,272,37036,6,0,P|188:279|161:273,1,45,0|0,3:2|0:0,0:0:0:0:
36,315,37204,2,0,P|55:312|75:293,1,45
183,305,37373,6,0,P|168:305|151:294,1,33.7500012874604,8|0,0:0|0:0,0:0:0:0:
72,332,37541,2,0,P|84:325|93:306,1,33.7500012874604,4|0,3:0|0:0,0:0:0:0:
208,371,37710,6,0,B|228:368|239:351|239:351|253:352|266:362|266:362|288:341|319:336|346:353,1,135,0|0,0:0|0:0,0:0:0:0:
371,284,38047,2,0,P|375:270|363:283,1,45,8|0,0:0|0:0,0:0:0:0:
417,349,38216,2,0,P|421:362|409:349,1,45,0|0,0:0|0:0,0:0:0:0:
457,268,38384,5,0,3:0:0:0:
448,282,38553,6,0,B|472:278|472:278|477:280|477:280|500:276,1,50.6250019311906
458,106,38721,6,0,P|465:166|401:180,1,135,8|0,0:0|0:0,0:0:0:0:
305,186,38890,6,0,B|300:160|316:139|343:137|343:137|328:155|324:178|330:197,1,135,2|0,3:0|0:0,0:0:0:0:
378,249,39227,2,0,P|379:257|348:256,1,45,0|0,3:0|0:0,0:0:0:0:
165,232,39395,6,0,B|184:215|207:228|207:228|229:241|249:226,1,90,8|0,0:0|0:0,0:0:0:0:
154,303,39732,6,0,B|121:299|99:273|94:245|94:245|81:279|48:288,1,135,0|0,3:0|0:0,0:0:0:0:
27,220,40070,2,0,P|23:202|39:176,1,45,8|0,0:0|0:0,0:0:0:0:
50,64,40238,6,0,P|112:115|107:180,1,135,4|0,3:0|0:0,0:0:0:0:
94,245,40575,2,0,P|78:255|48:250,1,45,0|0,3:0|0:0,0:0:0:0:
186,177,40744,6,0,P|201:166|231:171,1,45,8|0,0:0|0:0,0:0:0:0:
220,275,40912,1,0,0:0:0:0:
40,364,41081,6,0,B|71:341|105:357|105:357|142:386|185:368,1,135,0|0,3:0|0:0,0:0:0:0:
237,346,41418,2,0,B|246:356|244:372|244:372|239:358|222:348,1,45,8|0,0:0|0:0,0:0:0:0:
154,303,41586,6,0,B|179:269|221:275|221:275|261:282|288:260,1,135,2|0,3:0|0:0,0:0:0:0:
352,275,41923,2,0,B|368:292|368:292|339:293,1,45,0|0,3:0|0:0,0:0:0:0:
444,233,42092,2,0,B|420:239|420:239|434:213,1,45,8|0,0:0|0:0,0:0:0:0:
434,333,42261,2,0,B|440:309|440:309|455:334,1,45,0|0,0:0|0:0,0:0:0:0:
277,267,42429,6,0,B|273:236|281:208|281:208|280:202|280:202|284:200|284:200|301:167|330:153,1,135,0|0,3:0|0:0,0:0:0:0:
433,46,42766,6,0,B|410:70|437:124|443:118|488:85|523:131|525:217|486:224|394:256|369:178|367:148|367:148|339:171|307:164|268:131|266:91|339:22|356:120|379:68|379:68|386:38|306:2|261:84|261:84|215:167|130:133|127:59|192:46,1,900,8|0,0:0|0:0,0:0:0:0:
77,23,43777,6,0,B|41:92|68:132|95:173|114:187|130:199|141:220|132:240|12:256|65:93|152:94,1,360,0|2,3:0|0:0,0:0:0:0:
435,361,44452,2,0,B|471:292|444:252|417:211|397:196|382:185|371:164|379:143|500:128|447:291|360:290,1,360,0|2,3:0|0:0,0:0:0:0:
38,249,45126,6,0,B|15:270|14:321|47:348|105:344|137:332|151:268|123:237|92:210|81:201|69:250|46:265|-4:245|-19:182|1:139|37:114|88:120|107:152|107:152|106:120|152:13|296:27|295:231|207:275|179:130|126:246|138:283|138:283|143:322|183:355|236:346|284:308|261:199|261:199|239:125|343:61|408:173|346:227|346:227|342:232|321:250|308:272|306:301|310:334|334:360|357:378|387:371|409:361|431:347|433:321|420:295|414:289|414:289|436:301|434:328,1,1637.99992501831,2|0,3:0|0:0,0:0:0:0:
480,212,46474,5,0,3:0:0:0:
494,224,46643,1,0,3:0:0:0:
494,243,46811,5,0,0:0:0:0:
480,212,46980,1,2,0:0:0:0:
498,121,47148,5,0,0:0:0:0:
512,152,47317,1,0,0:0:0:0:
411,211,47485,5,0,0:0:0:0:
426,138,47654,1,0,0:0:0:0:
441,65,47822,5,0,3:0:0:0:
434,101,47991,1,0,3:0:0:0:
385,151,48159,1,0,0:0:0:0:
293,128,48328,1,2,0:0:0:0:
226,31,48497,5,0,0:0:0:0:
157,16,48665,1,2,0:0:0:0:
116,39,48834,1,0,0:0:0:0:
102,58,49171,5,0,3:0:0:0:
98,68,49339,1,0,3:0:0:0:
165,93,49508,5,0,0:0:0:0:
102,58,49676,1,2,0:0:0:0:
104,131,49845,5,0,0:0:0:0:
110,139,50182,1,0,0:0:0:0:
168,165,50519,5,0,3:0:0:0:
178,164,50688,1,0,3:0:0:0:
110,139,50856,5,0,0:0:0:0:
22,173,51025,1,2,0:0:0:0:
57,259,51193,5,0,0:0:0:0:
83,199,51362,1,2,0:0:0:0:
144,225,51530,1,0,0:0:0:0:
118,285,51867,5,0,3:0:0:0:
105,308,52036,2,0,P|136:293|197:359,1,135.000005149842,0|2,3:0|0:0,0:0:0:0:
302,310,52541,6,0,B|309:218|309:218|301:196|301:196|325:169|325:169|317:147|317:147|325:18,1,270,8|0,0:0|0:0,0:0:0:0:
399,198,52879,6,0,B|423:205|423:205|378:214,1,67.5,0|0,0:0|0:0,0:0:0:0:
301,196,53216,5,0,3:0:0:0:
309,218,53384,2,0,B|278:195|244:218|244:218|212:240|183:220,1,135.000005149842,0|2,3:0|0:0,0:0:0:0:
110,302,53890,6,0,B|103:210|103:210|111:188|111:188|87:161|87:161|95:139|95:139|87:10,1,270,8|0,0:0|0:0,0:0:0:0:
213,132,54227,6,0,L|192:137,1,20.2499993820191,0|0,0:0|0:0,0:0:0:0:
181,140,54395,2,0,L|160:145,1,20.2499993820191,0|0,0:0|0:0,0:0:0:0:
25,125,54564,6,0,B|47:106|47:106|147:120|147:120|161:145|161:145|259:160|259:160|285:134,1,270,0|0,3:0|0:0,0:0:0:0:
345,138,54901,2,0,P|373:125|361:92,1,56.25,8|0,0:0|0:0,0:0:0:0:
451,187,55070,6,0,B|467:194|467:194|441:222|400:221|370:196|363:159|382:127,1,168.75,0|0,3:0|0:0,0:0:0:0:
345,138,55407,2,0,P|329:93|386:61,1,112.5,0|8,3:0|0:0,0:0:0:0:
467,91,55744,1,2,0:0:0:0:
452,233,55912,6,0,B|410:209|370:238|370:238|331:269|289:248,1,168.75,0|0,3:0|0:0,0:0:0:0:
212,243,56249,2,0,P|201:228|213:194,1,56.25,8|0,0:0|0:0,0:0:0:0:
236,201,56418,2,0,P|238:219|210:242,1,56.25,0|0,3:0|0:0,0:0:0:0:
119,216,56586,6,0,B|121:248|99:275|64:278|64:278|22:273|-12:310|4:370|68:381|108:331|79:291|62:281|62:281|28:247|20:201|43:151|92:135,1,472.500018024445,4|0,0:3|0:0,0:0:0:0:
131,48,57261,6,0,B|147:43|157:22|157:22|154:39|151:41|151:41|202:82|232:150|237:216|237:216|220:236|212:243|212:243|238:222|282:227,1,360,0|0,3:0|0:0,0:0:0:0:
386,163,57935,6,0,B|453:156|469:44|443:-48|311:-51|221:8|241:132|254:223|428:192|476:157|372:82|407:70|500:92|506:162,1,540.000020599366,0|0,3:0|0:0,0:0:0:0:
240,199,58609,6,4,B|187:288|250:366|300:387|382:398|465:349|492:218|398:127|298:156|298:156|375:230|503:186|549:22|398:-61|285:-23|274:92,1,1080.00004119873,2|0,3:0|0:0,0:0:0:0:
75,230,59620,6,0,P|68:220|72:206,1,22.5,2|0,0:3|0:0,0:0:0:0:
128,119,59789,6,0,P|179:203|170:348,1,236.250009012223,2|0,0:0|0:0,0:0:0:0:
187,364,60126,2,0,P|175:340|134:337,1,67.5000025749208,0|0,0:0|0:0,0:0:0:0:
5,319,60294,6,0,L|1:297,1,22.5,8|0,0:0|0:0,0:0:0:0:
5,319,60463,2,0,L|9:341,1,22.5,0|0,3:0|0:0,0:0:0:0:
128,119,60631,6,0,P|95:119|73:144,1,67.5000025749208,0|0,0:0|0:0,0:0:0:0:
18,167,60800,2,0,P|51:167|73:144,1,67.5000025749208,0|0,3:0|0:0,0:0:0:0:
262,188,60968,6,0,L|268:158,1,22.5,8|0,0:0|0:0,0:0:0:0:
262,188,61137,2,0,L|258:210,1,22.5,0|0,0:0|0:0,0:0:0:0:
220,33,61306,6,0,P|193:77|218:125,1,101.250003862381,0|0,3:0|0:0,0:0:0:0:
177,195,61474,6,0,L|348:180,1,135,2|0,0:0|0:0,0:0:0:0:
327,172,61643,6,0,P|356:204|352:248,1,90,8|0,0:0|3:0,0:0:0:0:
291,379,61980,2,0,B|309:336|358:322|403:348|403:348|425:364|452:360|467:339,1,202.500007724762,0|0,0:0|0:0,0:0:0:0:
512,384,62317,6,0,L|492:225,1,135,8|0,0:0|0:0,0:0:0:0:
477,140,62485,6,0,L|465:347,1,202.500007724762,2|0,0:0|0:0,0:0:0:0:
458,361,62822,2,0,P|490:359|512:384,1,67.5000025749208,0|0,0:0|0:0,0:0:0:0:
307,251,62991,6,0,L|356:247,1,45,8|0,0:0|0:0,0:0:0:0:
397,244,63159,2,0,L|352:247,1,45,0|0,3:0|0:0,0:0:0:0:
331,149,63328,6,0,L|335:127,1,22.5,0|0,0:0|0:0,0:0:0:0:
331,149,63497,2,0,L|327:171,1,22.5,0|0,3:0|0:0,0:0:0:0:
397,244,63665,6,0,L|393:233,1,11.25,8|0,0:0|0:0,0:0:0:0:
397,244,63834,2,0,L|400:254,1,11.25,0|0,0:0|0:0,0:0:0:0:
485,132,64002,6,0,P|467:117|449:126,1,33.7500012874604,0|0,3:0|0:0,0:0:0:0:
341,51,64171,2,0,P|317:47|306:63,1,33.7500012874604,2|0,0:0|0:0,0:0:0:0:
244,118,64339,6,0,L|249:147,1,22.5,8|0,0:0|0:0,0:0:0:0:
244,118,64508,2,0,L|229:143,1,22.5,0|0,3:0|0:0,0:0:0:0:
18,205,64676,6,0,B|24:172|52:147|93:152|117:182|117:182|133:221|169:239|210:232|233:204,1,270,2|0,0:3|0:0,0:0:0:0:
307,217,65013,2,0,B|331:195|328:158|309:121|280:116|259:139|278:177|309:163,1,135,8|0,0:0|0:0,0:0:0:0:
160,124,65182,6,0,P|118:182|124:364,1,236.250009012223,2|0,0:0|0:0,0:0:0:0:
107,374,65519,2,0,P|123:335|162:346,1,67.5000025749208,0|0,0:0|0:0,0:0:0:0:
268,320,65688,6,0,L|261:294,1,22.5,8|0,0:0|0:0,0:0:0:0:
268,320,65856,2,0,L|273:341,1,22.5,0|0,3:0|0:0,0:0:0:0:
380,264,66025,6,0,P|388:295|370:323,1,67.5000025749208,0|0,0:0|0:0,0:0:0:0:
363,384,66193,2,0,P|354:352|370:324,1,67.5000025749208,0|0,3:0|0:0,0:0:0:0:
463,348,66362,6,0,L|476:324,1,22.5,8|0,0:0|0:0,0:0:0:0:
463,348,66530,2,0,L|452:367,1,22.5,0|0,0:0|0:0,0:0:0:0:
307,217,66699,6,0,B|321:183|361:167|399:178|399:178|424:208|465:215|499:197,1,202.500007724762,0|0,3:0|0:0,0:0:0:0:
509,136,67036,2,0,B|507:102|507:102|489:143,1,67.5000025749208,8|0,0:0|0:0,0:0:0:0:
192,280,67204,6,0,B|227:273|227:273|252:141|252:141|283:134,1,202.500007724762,0|0,3:0|0:0,0:0:0:0:
364,114,67541,2,0,L|368:145,1,22.5,0|0,3:0|0:0,0:0:0:0:
148,21,67710,6,0,B|156:102|156:102|151:110|151:110|163:229,1,180,8|0,0:0|0:0,0:0:0:0:
369,325,68047,6,0,L|248:318,1,101.250003862381,8|0,3:2|0:0,0:0:0:0:
194,313,68216,2,0,L|73:306,1,101.250003862381,8|0,3:2|0:0,0:0:0:0:
60,355,68384,6,0,P|59:318|89:297,1,67.5,0|0,0:0|0:0,0:0:0:0:
33,232,68721,6,0,B|87:207|87:207|152:247,1,118.125001126528,8|0,3:2|0:0,0:0:0:0:
210,202,68890,2,0,B|264:227|264:227|329:187,1,118.125001126528,8|0,3:2|0:0,0:0:0:0:
349,247,69058,6,0,P|355:216|328:200,1,67.5,0|0,0:0|0:0,0:0:0:0:
395,146,69395,6,0,B|375:121|375:121|300:112|300:112|267:138,1,135,8|0,3:2|0:0,0:0:0:0:
199,82,69564,2,0,B|178:107|178:107|104:116|104:116|71:90,1,135,8|0,3:2|0:0,0:0:0:0:
57,144,69732,6,0,P|47:115|80:115,1,67.5,0|0,0:0|0:0,0:0:0:0:
35,42,70070,6,0,B|81:11|129:43|129:43|179:75|224:44,1,202.500007724762,0|0,0:0|0:0,0:0:0:0:
395,146,70407,6,0,P|393:33|294:86,1,270,8|0,0:0|0:0,0:0:0:0:
264,227,70744,6,0,B|314:196|314:196|368:275|368:275|430:237,1,202.500007724762,4|0,3:0|0:0,0:0:0:0:
492,236,71081,2,0,B|510:250|510:250|497:299,1,67.5000025749208,8|0,0:0|0:0,0:0:0:0:
265,227,71249,6,0,B|240:195|240:195|425:273|425:273|399:237,1,270,2|0,3:0|0:0,0:0:0:0:
399,343,71586,2,0,B|354:348|354:348|349:345|349:345|270:355,1,90,0|0,3:0|0:0,0:0:0:0:
212,310,71755,6,0,L|231:121,1,180,8|0,0:0|0:0,0:0:0:0:
340,12,72092,6,0,P|301:54|246:38,1,101.250003862381,10|0,3:2|0:0,0:0:0:0:
289,65,72261,6,0,P|314:60|338:40,1,53.9999983520508,10|2,3:2|0:0,0:0:0:0:
455,33,72766,6,0,L|449:137,1,101.250003862381,8|0,3:2|0:0,0:0:0:0:
463,117,72935,6,0,L|467:58,1,53.9999983520508,8|0,3:2|0:0,0:0:0:0:
354,145,73440,6,0,P|366:200|422:214,1,101.250003862381,10|0,3:2|0:0,0:0:0:0:
371,216,73609,6,0,P|351:199|341:169,1,53.9999983520508,10|2,3:2|0:0,0:0:0:0:
177,64,74114,6,0,L|73:48,1,101.250003862381,8|0,3:2|0:0,0:0:0:0:
92,64,74283,6,0,L|146:72,1,53.9999983520508,8|0,3:2|0:0,0:0:0:0:
207,205,74789,6,0,P|185:220|175:215,1,33.75,8|0,3:2|0:0,0:0:0:0:
0,278,74957,6,0,B|69:266|87:182|87:182|69:266|134:308,1,270,8|0,3:2|0:0,0:0:0:0:
199,342,75294,2,0,P|225:312|260:324,1,67.5,2|0,0:0|0:0,0:0:0:0:
263,306,75463,6,0,L|271:342,1,33.75,8|0,3:2|0:0,0:0:0:0:
405,367,75631,6,0,B|432:324|425:266|386:226|326:216|326:216|355:260|338:314,1,270,8|0,3:2|0:0,0:0:0:0:
252,217,75968,2,0,P|253:189|266:181,1,33.75,2|0,0:0|0:0,0:0:0:0:
326,60,76137,6,0,L|317:134,1,67.5,8|0,3:2|0:0,0:0:0:0:
315,149,76306,6,0,L|303:52,1,87.749995983124,0|0,0:0|0:0,0:0:0:0:
214,9,76474,6,0,L|201:115,1,108,8|0,3:2|0:0,0:0:0:0:
196,150,76643,6,0,B|179:16|179:16|123:26,1,180,2|0,0:0|0:0,0:0:0:0:
87,312,77654,6,0,B|110:286|110:286|95:333,1,67.5,8|0,3:2|0:0,0:0:0:0:
102,184,77822,2,0,B|111:215|111:215|78:177,1,67.5,8|0,3:2|0:0,0:0:0:0:
204,260,77991,2,0,B|171:251|171:251|219:241,1,67.5,8|0,3:2|0:0,0:0:0:0:
198,354,78159,6,0,P|173:328|185:363,1,101.250003862381,8|0,3:2|0:0,0:0:0:0:
183,369,78497,6,0,P|169:323|201:360,1,135.000005149842,2|0,0:3|0:0,0:0:0:0:
352,324,78834,6,0,L|354:340,1,13.4999995880127,0|0,3:0|0:0,0:0:0:0:
352,324,79002,2,0,L|349:303,1,20.2499993820191,2|0,0:3|0:0,0:0:0:0:
463,362,79171,6,0,L|465:348,1,13.4999995880127,8|0,0:0|0:0,0:0:0:0:
463,362,79339,1,4,3:0:0:0:
440,275,79508,6,0,L|452:269,1,13.4999995880127,0|0,0:0|0:0,0:0:0:0:
440,275,79676,1,0,3:0:0:0:
479,178,79845,6,0,L|495:182,1,13.4999995880127,8|0,0:0|0:0,0:0:0:0:
479,178,80013,2,0,L|459:173,1,20.2499993820191,2|0,0:3|0:0,0:0:0:0:
322,138,80182,6,0,L|319:153,1,13.4999995880127,0|0,3:0|0:0,0:0:0:0:
322,138,80350,2,0,L|327:118,1,20.2499993820191,2|0,0:3|0:0,0:0:0:0:
402,54,80519,6,0,L|394:42,1,13.4999995880127,8|0,0:0|0:0,0:0:0:0:
402,54,80688,1,0,3:0:0:0:
254,44,80856,6,0,L|248:31,1,13.4999995880127,0|0,0:0|0:0,0:0:0:0:
254,44,81025,1,0,3:0:0:0:
168,15,81193,6,0,L|164:-1,1,13.4999995880127,8|0,0:0|0:0,0:0:0:0:
39,84,81362,6,0,P|95:65|152:132,1,157.5,2|0,0:3|0:0,0:0:0:0:
162,148,81699,2,0,L|165:101,1,45,2|0,0:3|0:0,0:0:0:0:
21,175,81867,6,0,L|-9:168,1,22.5,8|0,0:0|0:0,0:0:0:0:
21,175,82036,2,0,L|42:180,1,22.5,4|0,3:0|0:0,0:0:0:0:
232,205,82204,6,0,P|209:200|189:217,1,45,0|0,0:0|0:0,0:0:0:0:
153,220,82373,2,0,P|175:224|195:207,1,45,0|0,3:0|0:0,0:0:0:0:
301,237,82541,6,0,L|308:206,1,22.5,8|0,0:0|0:0,0:0:0:0:
301,237,82710,2,0,L|296:258,1,22.5,2|0,0:3|0:0,0:0:0:0:
209,335,82879,6,0,L|212:350,1,13.4999995880127,0|0,3:0|0:0,0:0:0:0:
209,335,83047,2,0,L|204:312,1,20.2499993820191,2|0,0:3|0:0,0:0:0:0:
304,344,83216,6,0,L|287:339,1,13.4999995880127,8|0,0:0|0:0,0:0:0:0:
304,344,83384,1,0,3:0:0:0:
380,322,83553,6,0,L|376:305,1,13.4999995880127,0|0,0:0|0:0,0:0:0:0:
380,322,83721,1,0,3:0:0:0:
438,376,83890,6,0,L|450:364,1,13.4999995880127,8|0,0:0|0:0,0:0:0:0:
435,222,84058,1,0,0:3:0:0:
441,229,84143,1,0,0:0:0:0:
470,167,84227,6,0,L|488:55,1,90,8|0,0:0|0:0,0:0:0:0:
508,223,84395,1,2,3:0:0:0:
367,254,84564,6,0,L|381:342,1,90,8|0,0:0|0:0,0:0:0:0:
430,217,84732,1,4,3:0:0:0:
329,125,84901,6,0,L|347:13,1,90,8|0,0:0|0:0,0:0:0:0:
367,181,85070,1,0,3:0:0:0:
236,223,85238,6,0,L|250:311,1,90,8|0,0:0|0:0,0:0:0:0:
300,187,85407,1,2,3:0:0:0:
198,94,85575,6,0,L|78:115,1,90,8|0,0:0|0:0,0:0:0:0:
236,150,85744,1,2,3:0:0:0:
72,166,85912,6,0,L|192:187,1,90,8|0,0:0|0:0,0:0:0:0:
34,222,86081,1,2,3:0:0:0:
212,255,86249,6,0,L|92:276,1,90,8|0,0:0|0:0,0:0:0:0:
250,311,86418,1,0,3:0:0:0:
86,327,86586,6,0,L|206:348,1,90,8|0,0:0|0:0,0:0:0:0:
48,383,86755,1,2,3:0:0:0:
336,309,86923,6,0,B|341:263|341:263|306:312,1,90,8|0,3:2|0:0,0:0:0:0:
293,375,87092,1,2,0:3:0:0:
426,229,87261,6,0,B|388:201|388:201|413:256,1,90,8|0,3:2|0:0,0:0:0:0:
460,299,87429,1,2,0:3:0:0:
401,111,87598,6,0,B|357:129|357:129|417:135,1,90,8|0,3:2|0:0,0:0:0:0:
479,116,87766,1,2,0:3:0:0:
286,73,87935,6,0,B|279:120|279:120|314:71,1,90,8|0,3:2|0:0,0:0:0:0:
329,8,88103,1,2,0:3:0:0:
59,88,88272,6,0,P|81:91|101:114,1,45,8|0,3:2|0:0,0:0:0:0:
132,41,88440,2,0,P|153:54|162:87,1,50.6250019311906,8|0,3:2|0:0,0:0:0:0:
187,180,88609,6,0,P|190:152|219:127,1,56.25,8|0,3:2|0:0,0:0:0:0:
291,206,88777,2,0,P|274:180|281:138,1,61.875000590086,8|0,3:2|0:0,0:0:0:0:
26,190,88946,6,0,B|35:173|61:166|76:175|76:175|73:185|60:187,1,67.5000025749208,8|0,3:2|0:0,0:0:0:0:
347,228,89114,6,0,B|324:241|290:232|278:210|278:210|288:201|305:208,1,90,8|0,3:2|0:0,0:0:0:0:
278,22,89283,6,0,B|305:44|287:73|287:73|251:76|243:45,1,112.5,8|0,3:2|0:0,0:0:0:0:
178,364,89452,6,0,B|183:323|224:324|224:324|250:360|215:389,1,135.000005149842,8|0,3:2|0:0,0:0:0:0:
361,174,91558,5,0,0:0:0:0:
357,179,91643,2,0,P|371:183|387:177,2,22.5,2|2|2,3:0|0:0|0:3,0:0:0:0:
293,218,91895,6,0,B|275:188|279:147|310:122|310:122|361:122|394:82|382:35|382:35|332:28|297:69|312:123|312:123|361:138|398:178|400:236|368:277|368:277|341:312|368:373|440:358|465:305|423:241|368:277|368:277|342:309|303:320|270:311|270:311|208:258|152:288|152:288|103:318|31:284|5:208|126:118|157:211|157:211|170:189|235:171|260:229|223:322|161:314,1,1518.75005793572,2|4,0:0|0:3,0:0:0:0:
