osu file format v14

[General]
AudioFilename: audio.mp3
AudioLeadIn: 0
PreviewTime: 14083
Countdown: 1
SampleSet: None
StackLeniency: 0.7
Mode: 2
LetterboxInBreaks: 0
WidescreenStoryboard: 0

[Editor]
DistanceSpacing: 0.3
BeatDivisor: 4
GridSize: 4
TimelineZoom: 1

[Metadata]
Title:Chikatto Chika Chika (TV Size)
TitleUnicode:チカっとチカ千花っ♡ (TV Size)
Artist:Fujiwara Chika (CV: Kohara Konomi)
ArtistUnicode:藤原千花 (CV: 小原好美)
Creator:[_-Kukkai-_]
Version:Overdose
Source:かぐや様は告らせたい~天才たちの恋愛頭脳戦~
Tags:
BeatmapID:1927841
BeatmapSetID:923175

[Difficulty]
HPDrainRate:5
CircleSize:4
OverallDifficulty:9.4
ApproachRate:9.4
SliderMultiplier:2
SliderTickRate:2

[Events]
//Background and Video events
Video,0,"video.mp4"
0,0,"owo.png",0,0
//Break Periods
//Storyboard Layer 0 (Background)
//Storyboard Layer 1 (Fail)
//Storyboard Layer 2 (Pass)
//Storyboard Layer 3 (Foreground)
//Storyboard Sound Samples

[TimingPoints]
3297,337.078651685393,4,2,0,60,1,0
30768,-43.4782608695652,4,2,0,60,0,0
31105,-100,4,2,0,60,0,0
42735,-66.6666666666667,4,2,0,60,0,0
43746,-100,4,2,0,60,0,0
46443,-100,4,2,0,30,0,0
51836,-100,4,2,0,40,0,0
54532,-43.4782608695652,4,2,0,50,0,0
54870,-100,4,2,0,50,0,0
57229,-100,4,2,0,60,0,0
59926,-80,4,2,0,60,0,1
64645,-43.4782608695652,4,2,0,60,0,1
64813,-80,4,2,0,60,0,1
76611,-100,4,2,0,60,0,0

[HitObjects]
196,220,3971,6,2,P|56:204|196:208,3,400,2|2|2|2,0:2|0:2|0:2|0:2,0:2:0:0:
316,220,8016,6,2,P|456:204|316:208,3,400,2|2|2|2,0:2|0:2|0:2|0:2,0:2:0:0:
32,164,11386,5,2,0:2:0:0:
480,164,12735,5,2,0:2:0:0:
32,164,13409,5,2,0:2:0:0:
480,164,14083,6,2,L|480:368,1,200,2|2,1:2|0:2,0:2:0:0:
28,164,14757,6,2,L|28:368,1,200,2|2,1:2|0:2,0:2:0:0:
480,368,15431,6,0,L|480:52,1,300,4|0,1:2|0:2,0:2:0:0:
204,356,16105,2,0,P|116:316|232:96,1,400,0|0,0:2|0:2,0:2:0:0:
464,76,16948,1,8,1:2:0:0:
112,76,17117,1,8,1:2:0:0:
464,76,17285,1,8,1:2:0:0:
112,76,17454,2,0,L|112:280,1,200,8|0,1:2|0:2,0:2:0:0:
412,352,18128,6,0,L|412:128,1,200,0|0,0:2|0:2,0:2:0:0:
256,144,18634,2,0,L|464:144,1,200,0|0,0:2|0:2,0:2:0:0:
300,68,19139,1,0,0:2:0:0:
176,68,19308,1,0,0:2:0:0:
448,216,19476,6,0,L|324:216,2,100,0|0|0,0:2|0:2|0:2,0:2:0:0:
148,352,19982,2,0,P|96:292|172:200,1,200,0|0,0:2|0:2,0:2:0:0:
424,200,20488,2,0,L|424:76,1,100,0|0,0:2|0:2,0:2:0:0:
100,352,20825,6,0,L|100:128,1,200,0|0,0:2|0:2,0:2:0:0:
256,144,21331,2,0,L|48:144,1,200,0|0,0:2|0:2,0:2:0:0:
212,68,21836,1,0,0:2:0:0:
52,72,22005,1,0,0:2:0:0:
360,340,22341,5,0,0:2:0:0:
104,336,22510,1,0,0:2:0:0:
360,340,22679,1,0,0:2:0:0:
104,336,22847,1,0,0:2:0:0:
396,340,23521,6,0,P|452:284|384:188,1,200,0|0,0:2|0:2,0:2:0:0:
148,184,24027,2,0,L|364:188,1,200,0|0,0:2|0:2,0:2:0:0:
196,116,24532,1,0,0:2:0:0:
348,108,24701,1,0,0:2:0:0:
64,344,24870,6,0,L|188:344,2,100,0|0|0,0:2|0:2|0:2,0:2:0:0:
332,344,25375,2,0,L|332:120,1,200,0|0,0:2|0:2,0:2:0:0:
184,132,25881,2,0,L|56:136,1,100,0|0,0:2|0:2,0:2:0:0:
356,360,26218,6,0,P|424:316|348:240,1,200,0|0,0:2|0:2,0:2:0:0:
112,232,26723,1,0,0:2:0:0:
264,232,26892,2,0,L|132:232,1,100,0|0,0:2|0:2,0:2:0:0:
320,136,27229,1,0,0:2:0:0:
68,348,27398,6,0,L|68:212,1,100,0|0,0:2|0:2,0:2:0:0:
192,188,27735,2,0,L|52:188,1,100,0|0,0:2|0:2,0:2:0:0:
364,348,28072,2,0,P|420:308|340:220,1,200,0|0,0:2|0:2,0:2:0:0:
244,204,28577,2,0,L|364:204,1,100,0|0,0:2|0:2,0:2:0:0:
108,352,28914,6,0,P|48:312|120:232,1,200,0|0,0:2|0:2,0:2:0:0:
284,224,29420,1,0,0:2:0:0:
132,144,29589,1,0,0:2:0:0:
392,140,29757,1,0,0:2:0:0:
244,136,29926,1,0,0:2:0:0:
392,140,30094,1,0,0:2:0:0:
84,352,30263,6,0,L|72:220,1,100,0|0,0:2|0:2,0:2:0:0:
384,248,30600,1,0,0:2:0:0:
20,184,30768,2,0,L|504:184,1,460.000008773804,0|0,0:2|0:2,0:2:0:0:
192,344,31274,2,0,L|192:224,1,100,0|0,0:2|0:2,0:2:0:0:
296,228,31611,5,0,0:2:0:0:
144,228,31780,1,0,0:2:0:0:
344,164,31948,1,0,0:2:0:0:
192,160,32117,1,0,0:2:0:0:
392,96,32285,1,0,0:2:0:0:
240,92,32454,1,0,0:2:0:0:
440,24,32622,5,0,0:2:0:0:
288,20,32791,1,0,0:2:0:0:
488,96,32959,1,0,0:2:0:0:
132,92,33128,1,0,0:2:0:0:
384,96,33296,1,0,0:2:0:0:
32,96,33465,1,0,0:2:0:0:
292,104,33634,1,0,0:2:0:0:
88,352,34308,6,0,L|88:248,1,100,0|0,0:2|0:2,0:2:0:0:
344,240,34645,2,0,L|452:244,1,100,0|0,0:2|0:2,0:2:0:0:
180,168,34982,1,0,0:2:0:0:
380,164,35150,1,0,0:2:0:0:
124,96,35319,1,0,0:2:0:0:
428,88,35488,1,0,0:2:0:0:
40,344,35656,6,0,L|164:344,2,100,0|0|0,0:2|0:2|0:2,0:2:0:0:
344,340,36162,2,0,L|124:340,1,200,0|0,0:2|0:2,0:2:0:0:
468,256,36667,2,0,L|468:132,1,100,0|0,0:2|0:2,0:2:0:0:
316,100,37004,5,0,0:2:0:0:
468,104,37173,1,0,0:2:0:0:
200,344,37341,5,0,0:2:0:0:
352,348,37510,1,0,0:2:0:0:
52,244,37679,2,0,L|52:120,1,100,0|0,0:2|0:2,0:2:0:0:
208,80,38016,1,0,0:2:0:0:
56,84,38184,1,0,0:2:0:0:
256,24,38353,5,0,0:2:0:0:
56,24,38521,1,0,0:2:0:0:
316,24,38690,1,0,0:2:0:0:
56,24,38858,2,0,L|56:232,1,200,0|0,0:2|0:2,0:2:0:0:
420,340,39364,2,0,L|420:204,1,100,0|0,0:2|0:2,0:2:0:0:
160,224,39701,6,0,L|404:224,1,200,0|0,0:2|0:2,0:2:0:0:
104,360,40207,2,0,P|52:328|120:232,1,200,0|0,0:2|0:2,0:2:0:0:
264,140,40712,2,0,L|144:140,1,100,0|0,0:2|0:2,0:2:0:0:
436,344,41049,6,0,L|436:232,1,100,0|0,0:2|0:2,0:2:0:0:
132,232,41386,1,0,0:2:0:0:
392,148,41555,2,0,L|152:148,1,200,0|0,0:2|0:2,0:2:0:0:
348,80,42061,1,0,0:2:0:0:
152,84,42229,1,0,0:2:0:0:
444,352,42398,2,0,P|484:304|420:240,1,150,0|0,0:2|0:2,0:2:0:0:
200,348,42735,6,0,B|8:368|28:20|28:20|508:20,1,900.000034332277,0|0,0:2|0:2,0:2:0:0:
8,16,44420,1,0,0:2:0:0:
504,20,45094,1,0,0:2:0:0:
256,352,46443,5,0,0:2:0:0:
456,280,46611,2,0,L|456:172,1,100,0|0,0:2|0:2,0:2:0:0:
356,120,46948,2,0,L|468:120,2,100,0|0|0,0:2|0:2|0:2,0:2:0:0:
204,340,47454,6,0,P|136:292|216:228,1,200,0|0,0:2|0:2,0:2:0:0:
400,212,47959,1,0,0:2:0:0:
300,140,48128,2,0,L|412:140,1,100,0|0,0:2|0:2,0:2:0:0:
248,68,48465,2,0,L|356:68,1,100,0|0,0:2|0:2,0:2:0:0:
200,332,48802,6,0,P|144:288|224:204,1,200,0|0,0:2|0:2,0:2:0:0:
412,200,49308,2,0,L|412:92,1,100,0|0,0:2|0:2,0:2:0:0:
312,84,49645,1,0,0:2:0:0:
464,80,49813,2,0,L|252:80,1,200,0|0,0:2|0:2,0:2:0:0:
460,340,50488,5,0,0:2:0:0:
256,268,50656,1,0,0:2:0:0:
364,212,50825,1,0,0:2:0:0:
256,188,50993,1,0,0:2:0:0:
368,132,51162,1,0,0:2:0:0:
472,128,51330,1,0,0:2:0:0:
280,56,51499,6,0,L|484:56,1,200,0|0,0:2|0:2,0:2:0:0:
276,348,52004,2,0,L|276:220,1,100,0|0,0:2|0:2,0:2:0:0:
384,244,52341,1,0,0:2:0:0:
48,244,52510,2,0,L|208:244,2,150,0|0|0,0:2|0:2|0:2,0:2:0:0:
264,344,53184,5,0,0:2:0:0:
68,284,53353,2,0,L|200:284,2,100,0|0|0,0:2|0:2|0:2,0:2:0:0:
440,172,53858,2,0,L|200:172,1,200,0|0,0:2|0:2,0:2:0:0:
392,88,54364,1,0,0:2:0:0:
20,88,54532,6,0,L|524:88,1,460.000008773804
228,352,55038,2,0,L|228:212,1,100
340,240,55375,1,0,0:0:0:0:
108,168,55544,2,0,L|0:168,1,100
296,352,55881,6,0,P|352:312|284:216,1,200
136,216,56386,1,0,0:0:0:0:
448,76,56555,6,0,L|36:76,1,400
480,76,57903,1,0,0:0:0:0:
32,76,58577,2,0,B|28:364|28:364|32:36,1,600
356,340,59757,6,0,L|356:220,1,100
180,180,60094,1,0,0:0:0:0:
356,180,60263,1,0,0:0:0:0:
56,104,60431,1,0,0:0:0:0:
232,100,60600,1,0,0:0:0:0:
56,104,60768,1,0,0:0:0:0:
364,96,60937,1,0,0:0:0:0:
56,104,61105,1,0,0:0:0:0:
380,320,61274,5,0,0:0:0:0:
200,248,61443,1,0,0:0:0:0:
480,244,61611,2,0,L|480:88,1,125
212,100,61948,2,0,L|344:100,1,125
52,100,62285,1,0,0:0:0:0:
188,376,62454,6,0,L|188:248,1,125
20,244,62791,1,0,0:0:0:0:
304,184,62959,1,0,0:0:0:0:
128,184,63128,1,0,0:0:0:0:
304,184,63296,1,0,0:0:0:0:
484,184,63465,1,0,0:0:0:0:
128,112,63634,1,0,0:0:0:0:
484,112,63802,1,0,0:0:0:0:
128,360,63971,5,0,0:0:0:0:
308,292,64139,1,0,0:0:0:0:
24,280,64308,1,0,0:0:0:0:
400,276,64476,1,0,0:0:0:0:
104,164,64645,6,0,L|364:164,1,230.000004386902
48,368,64982,1,0,0:0:0:0:
200,308,65150,2,0,L|72:308,1,125
256,232,65488,1,0,0:0:0:0:
76,188,65656,1,0,0:0:0:0:
392,180,65825,1,0,0:0:0:0:
216,104,65993,1,0,0:0:0:0:
392,96,66162,1,0,0:0:0:0:
112,100,66330,1,0,0:0:0:0:
288,96,66499,1,0,0:0:0:0:
32,352,66667,6,0,L|32:216,1,125
268,212,66920,2,0,L|404:212,1,125
120,140,67173,1,0,0:0:0:0:
424,344,67341,2,0,L|424:200,1,125
124,228,67679,6,0,P|52:192|148:96,1,250
408,84,68184,1,0,0:0:0:0:
232,88,68353,1,0,0:0:0:0:
452,288,68690,2,0,L|448:192,1,62.5
148,220,68858,1,0,0:0:0:0:
324,144,69027,1,0,0:0:0:0:
144,128,69195,1,0,0:0:0:0:
456,68,69364,5,0,0:0:0:0:
144,60,69532,1,0,0:0:0:0:
316,356,69701,2,0,L|316:216,1,125
180,240,70038,2,0,P|76:224|44:120,1,187.5
272,356,70375,2,0,P|340:320|264:224,1,187.5
60,360,70712,6,0,L|56:88,1,250
364,356,71218,2,0,L|80:356,1,250
416,288,71723,6,0,P|464:236|380:96,1,250
104,104,72229,1,0,0:0:0:0:
284,104,72398,1,0,0:0:0:0:
104,40,72566,1,0,0:0:0:0:
424,44,72735,1,0,0:0:0:0:
120,352,72903,1,0,0:0:0:0:
296,264,73072,1,0,0:0:0:0:
472,168,73240,1,0,0:0:0:0:
120,172,73409,5,0,0:0:0:0:
416,168,73577,1,0,0:0:0:0:
240,164,73746,1,0,0:0:0:0:
420,104,73914,1,0,0:0:0:0:
116,88,74083,1,0,0:0:0:0:
424,44,74252,1,0,0:0:0:0:
288,360,74420,2,0,P|172:336|104:284,1,187.5
368,216,74757,5,0,0:0:0:0:
36,224,74926,1,0,0:0:0:0:
316,96,75263,1,0,0:0:0:0:
40,72,75431,1,0,0:0:0:0:
440,64,75600,1,0,0:0:0:0:
184,120,75937,1,0,0:0:0:0:
460,96,76105,1,0,0:0:0:0:
60,88,76274,1,0,0:0:0:0:
460,96,76443,1,0,0:0:0:0:
112,368,76611,6,0,P|40:260|360:104,1,600
76,84,77791,1,0,0:0:0:0:
344,88,77959,1,0,0:0:0:0:
76,84,78128,2,0,L|76:288,1,200
372,360,78802,6,0,L|372:224,1,100
120,256,79139,1,0,0:0:0:0:
268,180,79308,2,0,L|268:64,1,100
116,72,79645,1,0,0:0:0:0:
368,356,79813,2,0,L|500:356,1,100
224,280,80150,6,0,L|92:280,1,100
392,184,80488,1,0,0:0:0:0:
140,356,80656,2,0,L|140:216,1,100
300,256,80993,1,0,0:0:0:0:
60,264,81162,2,0,P|20:216|88:144,1,150
264,136,81499,5,0,0:0:0:0:
120,136,81667,1,0,0:0:0:0:
424,132,81836,1,0,0:0:0:0:
272,64,82004,1,0,0:0:0:0:
424,56,82173,1,0,0:0:0:0:
136,352,82341,1,0,0:0:0:0:
400,272,82510,1,0,0:0:0:0:
252,196,82679,1,0,0:0:0:0:
404,192,82847,6,0,L|404:56,1,100
140,76,83184,1,0,0:0:0:0:
288,368,83353,2,0,L|172:368,1,100
344,280,83690,1,0,0:0:0:0:
72,280,83858,2,0,L|72:152,1,100
304,156,84195,5,0,0:0:0:0:
152,152,84364,1,0,0:0:0:0:
404,88,84532,1,0,0:0:0:0:
252,84,84701,1,0,0:0:0:0:
504,20,84870,1,0,0:0:0:0:
148,24,85039,1,0,0:0:0:0:
412,20,85207,1,0,0:0:0:0:
64,32,85375,1,0,0:0:0:0:
324,344,85544,6,0,L|184:344,1,100
472,272,85881,2,0,L|472:160,1,100
256,144,86218,2,0,L|396:144,1,100
120,140,86555,2,0,L|8:140,1,100
336,352,86892,5,0,0:0:0:0:
480,288,87061,1,0,0:0:0:0:
228,276,87229,5,0,0:0:0:0:
372,212,87398,1,0,0:0:0:0:
116,184,87566,5,0,0:0:0:0:
260,120,87735,1,0,0:0:0:0:
8,108,87903,5,0,0:0:0:0:
376,100,88072,1,0,0:0:0:0:
120,368,88240,6,0,L|56:368,1,50
392,368,88409,2,0,L|456:368,1,50
120,368,88577,2,0,L|56:368,1,50
392,368,88746,2,0,L|456:368,1,50
64,300,88914,6,0,L|128:300,1,50
448,300,89083,2,0,L|384:300,1,50
64,300,89252,2,0,L|128:300,1,50
448,300,89421,2,0,L|384:300,1,50
68,300,89589,1,0,0:0:0:0:
256,192,91611,5,0,0:0:0:0:
256,192,91948,12,0,95656,0:0:0:0:
