osu file format v14

[General]
AudioFilename: Kakehiki.mp3
AudioLeadIn: 0
PreviewTime: 209753
Countdown: 0
SampleSet: Soft
StackLeniency: 0.7
Mode: 0
LetterboxInBreaks: 0
WidescreenStoryboard: 0

[Editor]
Bookmarks: 12610,32202,51794,66488,86080,95876,115468,130300,149753,171794,191386,210978,230570
DistanceSpacing: 1.5
BeatDivisor: 6
GridSize: 4
TimelineZoom: 2.1

[Metadata]
Title:Kakehiki
TitleUnicode:駆け引き
Artist:Fujita Maiko
ArtistUnicode:藤田麻衣子
Creator:Lafayla
Version:Desire
Source:
Tags:japanese pop Mou Ichido もう一度
BeatmapID:2113705
BeatmapSetID:1009710

[Difficulty]
HPDrainRate:5
CircleSize:5.8
OverallDifficulty:8
ApproachRate:8
SliderMultiplier:1.8
SliderTickRate:1

[Events]
//Background and Video events
0,0,"4e07f05293b8217b34ce394552bd76c49bbe109e_s2_n1.jpg",0,0
//Break Periods
//Storyboard Layer 0 (Background)
//Storyboard Layer 1 (Fail)
//Storyboard Layer 2 (Pass)
//Storyboard Layer 3 (Foreground)
//Storyboard Layer 4 (Overlay)
//Storyboard Sound Samples

[TimingPoints]
366,612.244897959184,4,2,1,30,1,0
12610,-111.111111111111,4,2,1,45,0,0
66488,-83.3333333333333,4,2,1,65,0,1
86080,-111.111111111111,4,2,1,45,0,0
128937,-90.9090909090908,4,2,1,55,0,0
130161,-76.9230769230769,4,2,1,70,0,1
149753,-83.3333333333333,4,2,1,60,0,0
171794,-111.111111111111,4,2,1,40,0,0
191386,-90.9090909090909,4,2,1,55,0,0
209753,-71.4285714285714,4,2,1,65,0,0
210978,-71.4285714285714,4,2,1,75,0,1
230570,-83.3333333333333,4,2,1,60,0,0
252610,-83.3333333333333,4,2,1,55,0,0
255059,-83.3333333333333,4,2,1,50,0,0
257508,-83.3333333333333,4,2,1,45,0,0
259957,-83.3333333333333,4,2,1,40,0,0
261182,-100,4,2,1,30,0,0

[Colours]
Combo1 : 197,217,228
Combo2 : 245,201,208
Combo3 : 217,201,224
Combo4 : 252,223,194

[HitObjects]
55,272,59,5,0,0:0:0:0:
162,177,366,5,2,0:0:0:0:
181,240,672,1,0,0:0:0:0:
198,305,978,1,0,0:0:0:0:
318,193,1284,1,2,0:0:0:0:
318,193,1590,1,2,0:0:0:0:
318,193,2508,1,0,0:0:0:0:
462,269,2814,5,2,0:0:0:0:
437,206,3120,1,0,0:0:0:0:
456,141,3426,1,0,0:0:0:0:
336,31,3732,1,2,0:0:0:0:
336,31,4038,1,2,0:0:0:0:
336,31,4956,1,0,0:0:0:0:
191,95,5263,5,2,0:0:0:0:
256,112,5569,1,0,0:0:0:0:
318,130,5875,1,0,0:0:0:0:
186,217,6181,1,2,0:0:0:0:
186,217,6487,1,2,0:0:0:0:
186,217,7406,1,0,0:0:0:0:
264,333,7712,5,2,0:0:0:0:
201,307,8018,1,0,0:0:0:0:
136,326,8324,1,0,0:0:0:0:
26,206,8630,1,2,0:0:0:0:
26,206,8936,1,2,0:0:0:0:
256,192,9013,12,0,12304,0:0:0:0:
186,183,12610,6,0,B|245:163|245:163|308:188,2,121.499996292114,2|0|2,0:0|0:0|0:0,0:0:0:0:
47,267,13835,2,0,P|87:269|127:276,1,80.9999975280763,2|0,0:0|0:0,0:0:0:0:
165,351,14294,2,0,P|205:348|245:341,1,80.9999975280763,2|0,0:0|0:0,0:0:0:0:
340,308,14753,1,0,0:0:0:0:
340,308,15059,6,0,P|379:303|409:329,1,80.9999975280763,2|0,0:0|0:0,0:0:0:0:
408,328,15519,1,0,0:0:0:0:
403,186,15825,2,0,P|405:166|412:147,1,40.4999987640381,0|0,0:0|0:0,0:0:0:0:
463,42,16131,2,0,P|421:65|377:56,1,80.9999975280763,2|0,0:0|0:0,0:0:0:0:
317,24,16590,2,0,L|276:29,3,40.4999987640381,2|0|0|0,0:0|0:0|0:0|0:0,0:0:0:0:
211,71,17202,1,2,0:0:0:0:
211,71,17355,1,0,0:0:0:0:
211,71,17508,6,0,P|201:110|214:147,1,80.9999975280763,2|0,0:0|0:0,0:0:0:0:
291,183,17968,2,0,P|300:222|288:259,1,80.9999975280763,2|0,0:0|0:0,0:0:0:0:
225,326,18427,1,0,0:0:0:0:
53,371,18733,2,0,L|44:291,1,80.9999975280763,2|0,0:0|0:0,0:0:0:0:
0,209,19192,2,0,B|74:235|53:166|137:209,1,121.499996292114,2|0,0:0|0:0,0:0:0:0:
115,200,19804,1,0,0:0:0:0:
192,274,19957,6,0,P|192:314|172:348,1,80.9999975280763,2|0,0:0|0:0,0:0:0:0:
283,221,20570,2,0,P|262:186|263:146,1,80.9999975280763,2|0,0:0|0:0,0:0:0:0:
295,56,21029,1,0,0:0:0:0:
295,56,21182,2,0,L|215:47,1,80.9999975280763,2|0,0:0|0:0,0:0:0:0:
104,34,21641,2,0,B|133:61|133:89|133:89|96:97|87:145,1,121.499996292114,2|0,0:0|0:0,0:0:0:0:
76,221,22253,1,0,0:0:0:0:
76,221,22406,6,0,B|36:207|36:207|-7:220,2,80.9999975280763,2|0|2,0:0|0:0|0:0,0:0:0:0:
190,316,23325,2,0,L|192:275,1,40.4999987640381
198,183,23631,2,0,P|232:206|274:208,1,80.9999975280763,2|0,0:0|0:0,0:0:0:0:
331,284,24090,2,0,P|365:260|407:258,1,80.9999975280763,2|0,0:0|0:0,0:0:0:0:
502,278,24549,1,2,0:0:0:0:
502,278,24702,1,0,0:0:0:0:
502,278,24855,6,0,L|493:187,1,80.9999975280763,2|0,0:0|0:0,0:0:0:0:
512,101,25314,1,2,0:0:0:0:
512,101,25621,2,0,P|489:96|472:86,1,40.4999987640381,0|0,0:0|0:0,0:0:0:0:
365,13,25927,2,0,B|360:52|360:52|377:86|377:86|371:138,1,121.499996292114,2|0,0:0|0:0,0:0:0:0:
326,212,26539,2,0,P|286:213|251:191,1,80.9999975280763,2|0,0:0|0:0,0:0:0:0:
157,136,26998,2,0,P|177:134|195:126,1,40.4999987640381
77,70,27304,6,0,B|63:111|63:111|66:150,1,80.9999975280763,2|0,0:0|0:0,0:0:0:0:
0,210,27763,2,0,B|14:251|14:251|11:290,1,80.9999975280763,0|0,0:0|0:0,0:0:0:0:
11,289,28223,1,2,0:0:0:0:
127,265,28376,2,0,B|197:255|176:303|247:291,1,121.499996292114,2|0,0:0|0:0,0:0:0:0:
347,321,28988,2,0,P|325:289|330:246,1,80.9999975280763,2|0,0:0|0:0,0:0:0:0:
382,165,29447,2,0,P|381:144|374:125,1,40.4999987640381
374,125,29753,6,0,B|414:128,2,40.4999987640381,2|0|0,0:0|0:0|0:0,0:0:0:0:
270,81,30212,2,0,P|229:84|190:94,1,80.9999975280763,2|0,0:0|0:0,0:0:0:0:
90,144,30672,2,0,P|95:124|99:102,1,40.4999987640381,2|0,0:0|0:0,0:0:0:0:
98,104,30978,1,2,0:0:0:0:
166,202,31284,2,0,P|173:221|178:251,3,40.4999987640381,2|0|0|0,0:0|0:0|0:0|0:0,0:0:0:0:
187,324,31896,1,2,0:0:0:0:
310,287,32049,1,0,0:0:0:0:
310,287,32202,6,0,P|317:248|296:214,1,80.9999975280763,2|0,0:0|0:0,0:0:0:0:
244,158,32661,2,0,P|236:119|257:85,1,80.9999975280763,2|0,0:0|0:0,0:0:0:0:
256,85,33121,1,0,0:0:0:0:
397,57,33427,2,0,P|408:95|414:135,1,80.9999975280763,2|0,0:0|0:0,0:0:0:0:
496,162,33886,2,0,P|484:200|478:240,1,80.9999975280763,2|0,0:0|0:0,0:0:0:0:
465,358,34345,1,0,0:0:0:0:
465,358,34651,6,0,P|439:328|399:327,1,80.9999975280763,2|0,0:0|0:0,0:0:0:0:
399,326,35111,1,0,0:0:0:0:
281,353,35417,2,0,L|276:311,1,40.4999987640381,0|0,0:0|0:0,0:0:0:0:
203,219,35723,2,0,L|193:299,1,80.9999975280763,2|0,0:0|0:0,0:0:0:0:
156,358,36182,2,0,P|137:364|117:361,3,40.4999987640381,2|0|0|0,0:0|0:0|0:0|0:0,0:0:0:0:
45,334,36794,2,0,P|25:331|4:339,1,40.4999987640381,2|0,0:0|0:0,0:0:0:0:
6,337,37100,6,0,P|4:296|24:263,1,80.9999975280763,2|0,0:0|0:0,0:0:0:0:
106,215,37559,2,0,P|85:180|86:140,1,80.9999975280763,2|0,0:0|0:0,0:0:0:0:
115,48,38018,1,0,0:0:0:0:
115,48,38325,2,0,L|195:39,1,80.9999975280763,2|0,0:0|0:0,0:0:0:0:
318,21,38784,2,0,B|291:72|291:72|310:143,1,121.499996292114,2|0,0:0|0:0,0:0:0:0:
342,220,39396,1,0,0:0:0:0:
342,220,39549,5,2,0:0:0:0:
471,134,39855,2,0,L|475:176,1,40.4999987640381,2|0,0:0|0:0,0:0:0:0:
508,259,40161,2,0,P|468:258|433:279,1,80.9999975280763,2|0,0:0|0:0,0:0:0:0:
350,351,40621,1,0,0:0:0:0:
350,351,40774,2,0,L|341:271,1,80.9999975280763,2|0,0:0|0:0,0:0:0:0:
362,151,41233,2,0,B|342:178|314:182|314:182|291:148|238:150,1,121.499996292114,2|0,0:0|0:0,0:0:0:0:
147,169,41845,1,0,0:0:0:0:
147,169,41998,6,0,B|153:251,2,80.9999975280763,2|0|2,0:0|0:0|0:0,0:0:0:0:
116,336,42917,2,0,P|135:348|157:351,1,40.4999987640381,2|0,0:0|0:0,0:0:0:0:
243,352,43223,2,0,B|249:271,2,80.9999975280763,2|0|2,0:0|0:0|0:0,0:0:0:0:
343,281,44141,1,2,0:0:0:0:
343,281,44294,1,0,0:0:0:0:
343,281,44447,6,0,P|360:271|380:267,1,40.4999987640381,2|0,0:0|0:0,0:0:0:0:
466,221,44753,2,0,P|464:260|488:292,2,80.9999975280763,2|0|0,0:0|0:0|0:0,0:0:0:0:
512,126,45519,2,0,B|448:154|451:94|382:128,1,121.499996292114,2|0,0:0|0:0,0:0:0:0:
309,177,46131,1,0,0:0:0:0:
309,177,46284,2,0,L|301:137,1,40.4999987640381,2|0,0:0|0:0,0:0:0:0:
222,72,46590,2,0,L|214:111,1,40.4999987640381,2|0,0:0|0:0,0:0:0:0:
169,223,46896,6,0,P|167:183|137:156,1,80.9999975280763,2|0,0:0|0:0,0:0:0:0:
30,155,47355,1,0,0:0:0:0:
30,155,47661,2,0,L|26:194,1,40.4999987640381
11,302,47968,2,0,B|70:280|70:280|143:314,1,121.499996292114,2|0,0:0|0:0,0:0:0:0:
209,354,48580,1,0,0:0:0:0:
209,354,48733,2,0,P|229:353|248:347,1,40.4999987640381,2|0,0:0|0:0,0:0:0:0:
334,312,49039,2,0,P|354:313|373:319,1,40.4999987640381,2|0,0:0|0:0,0:0:0:0:
373,319,49345,6,0,L|381:238,1,80.9999975280763,2|0,0:0|0:0,0:0:0:0:
449,151,49804,1,0,0:0:0:0:
449,151,49957,2,0,L|408:145,1,40.4999987640381,2|0,0:0|0:0,0:0:0:0:
323,71,50263,2,0,L|364:66,1,40.4999987640381,2|0,0:0|0:0,0:0:0:0:
363,66,50570,1,2,0:0:0:0:
233,85,50876,2,0,P|214:76|195:71,3,40.4999987640381,2|0|0|0,0:0|0:0|0:0|0:0,0:0:0:0:
89,51,51488,1,0,0:0:0:0:
0,132,51641,1,0,0:0:0:0:
0,132,51794,6,0,B|71:184|3:219|84:273,1,161.999995056153,2|0,0:0|0:0,0:0:0:0:
223,330,52712,1,0,0:0:0:0:
222,329,53019,2,0,P|181:326|145:343,1,80.9999975280763,2|0,0:0|0:0,0:0:0:0:
303,281,53631,2,0,P|339:297|379:295,1,80.9999975280763,2|0,0:0|0:0,0:0:0:0:
483,218,54243,6,0,L|491:299,2,80.9999975280763,2|0|2,0:0|0:0|0:0,0:0:0:0:
437,103,55161,1,2,0:0:0:0:
437,103,55314,1,2,0:0:0:0:
437,103,55468,2,0,P|472:122|512:119,2,80.9999975280763,2|0|0,0:0|0:0|0:0,0:0:0:0:
370,63,56233,1,2,0:0:0:0:
370,63,56386,1,2,0:0:0:0:
274,176,56692,5,2,0:0:0:0:
433,269,56998,1,0,0:0:0:0:
433,269,57304,2,0,L|353:285,1,80.9999975280763,2|0,0:0|0:0,0:0:0:0:
222,353,57917,2,0,L|301:369,2,80.9999975280763,2|0|2,0:0|0:0|0:0,0:0:0:0:
77,358,58835,1,0,0:0:0:0:
77,358,59141,6,0,P|102:327|106:287,1,80.9999975280763,2|0,0:0|0:0,0:0:0:0:
0,189,59753,2,0,P|4:149|29:118,1,80.9999975280763,2|0,0:0|0:0,0:0:0:0:
30,46,60212,1,0,0:0:0:0:
30,46,60366,2,0,L|110:54,1,80.9999975280763,2|0,0:0|0:0,0:0:0:0:
208,54,60825,2,0,B|179:108|179:108|199:164,1,121.499996292114,2|0,0:0|0:0,0:0:0:0:
292,274,61590,6,0,P|294:234|319:203,2,80.9999975280763,2|0|2,0:0|0:0|0:0,0:0:0:0:
160,293,62508,1,0,0:0:0:0:
160,293,62814,2,0,P|186:331|181:373,2,80.9999975280763,2|0|2,0:0|0:0|0:0,0:0:0:0:
54,241,63733,1,0,0:0:0:0:
91,71,64039,5,2,0:0:0:0:
91,71,64345,1,2,0:0:0:0:
141,29,64498,1,2,0:0:0:0:
207,24,64651,2,0,P|226:27|245:34,1,40.4999987640381,2|0,0:0|0:0,0:0:0:0:
312,118,64957,2,0,P|331:114|350:107,1,40.4999987640381,2|0,0:0|0:0,0:0:0:0:
475,59,65263,1,2,0:0:0:0:
475,59,65417,1,2,0:0:0:0:
475,59,65570,2,0,B|482:86|506:96|506:96|485:121|480:142,2,80.9999975280763,2|0|2,0:0|0:0|0:0,0:0:0:0:
475,59,66488,6,0,P|415:24|363:62,1,107.999996704102,14|0,0:0|0:0,0:0:0:0:
271,122,66947,1,10,0:0:0:0:
271,122,67100,2,0,B|263:47,1,53.9999983520508,8|0,1:0|0:0,0:0:0:0:
383,159,67406,2,0,B|377:212,1,53.9999983520508,2|0,0:0|0:0,0:0:0:0:
379,379,67712,5,2,3:2:0:0:
339,328,67866,1,8,0:0:0:0:
279,307,68019,2,0,P|250:304|223:312,1,53.9999983520508,8|0,0:0|0:0,0:0:0:0:
101,356,68325,1,8,1:0:0:0:
12,202,68631,1,10,0:0:0:0:
12,202,68784,1,8,0:0:0:0:
12,202,68937,6,0,B|29:256|29:256|7:315,1,107.999996704102,10|0,0:0|0:0,0:0:0:0:
125,213,69396,1,2,0:0:0:0:
125,213,69549,2,0,P|151:206|178:205,1,53.9999983520508,8|0,1:0|0:0,0:0:0:0:
58,113,69855,2,0,P|84:119|111:120,1,53.9999983520508,2|0,0:0|0:0,0:0:0:0:
263,77,70161,6,0,L|210:85,2,53.9999983520508,2|8|8,3:2|0:0|0:0,0:0:0:0:
263,77,70774,2,0,P|254:102|250:129,1,53.9999983520508,8|0,1:0|0:0,0:0:0:0:
360,214,71080,2,0,P|356:187|347:161,1,53.9999983520508,10|0,0:0|0:0,0:0:0:0:
261,300,71386,6,0,B|321:281|314:328|368:311,1,107.999996704102,14|8,0:0|0:0,0:0:0:0:
394,306,71845,1,8,0:0:0:0:
394,306,71998,1,8,1:0:0:0:
508,187,72304,2,0,L|513:245,1,53.9999983520508,10|0,0:0|0:0,0:0:0:0:
461,115,72610,5,2,3:2:0:0:
461,115,72763,1,8,0:0:0:0:
461,115,72916,2,0,P|434:102|408:103,1,53.9999983520508,10|0,0:0|0:0,0:0:0:0:
242,66,73223,2,0,L|295:56,1,53.9999983520508,8|0,1:0|0:0,0:0:0:0:
185,142,73529,2,0,L|131:132,1,53.9999983520508,10|0,0:0|0:0,0:0:0:0:
131,132,73835,6,0,B|106:157|104:181|104:181|128:202|130:246,1,107.999996704102,12|0,0:0|0:0,0:0:0:0:
193,347,74294,1,8,0:0:0:0:
193,347,74447,2,0,P|168:335|140:332,1,53.9999983520508,8|0,1:0|0:0,0:0:0:0:
9,294,74753,2,0,P|34:282|62:279,1,53.9999983520508,2|0,0:0|0:0,0:0:0:0:
59,278,75059,5,8,3:0:0:0:
131,132,75366,1,8,3:0:0:0:
285,301,75672,1,8,1:0:0:0:
358,264,75825,1,8,3:0:0:0:
426,311,75978,1,10,0:0:0:0:
499,275,76131,1,8,3:0:0:0:
499,275,76284,6,0,B|503:233|503:233|486:208|486:208|492:155,1,107.999996704102,14|0,0:0|0:0,0:0:0:0:
433,39,76743,1,10,0:0:0:0:
433,39,76896,2,0,L|420:90,1,53.9999983520508,8|0,1:0|0:0,0:0:0:0:
368,222,77202,2,0,L|355:170,1,53.9999983520508,2|0,0:0|0:0,0:0:0:0:
256,31,77508,5,2,3:2:0:0:
256,31,77662,1,8,0:0:0:0:
256,31,77814,2,0,P|282:39|312:37,1,53.9999983520508,10|0,0:0|0:0,0:0:0:0:
172,129,78121,2,0,P|198:120|228:123,1,53.9999983520508,8|0,1:0|0:0,0:0:0:0:
100,38,78427,2,0,P|126:39|152:30,1,53.9999983520508,10|0,0:0|0:0,0:0:0:0:
11,71,78733,6,0,B|20:182,1,107.999996704102,10|0,0:0|0:0,0:0:0:0:
57,306,79192,1,2,0:0:0:0:
57,306,79345,2,0,P|33:291|2:285,1,53.9999983520508,8|0,1:0|0:0,0:0:0:0:
142,353,79651,2,0,P|164:339|190:333,1,53.9999983520508,10|0,0:0|0:0,0:0:0:0:
334,287,79957,6,0,P|307:285|280:281,2,53.9999983520508,2|8|8,3:2|0:0|0:0,0:0:0:0:
334,287,80570,2,0,P|326:312|320:340,1,53.9999983520508,8|0,1:0|0:0,0:0:0:0:
402,228,80876,2,0,P|396:201|388:175,1,53.9999983520508,10|0,0:0|0:0,0:0:0:0:
228,65,81182,6,0,P|261:111|316:99,1,107.999996704102,14|0,0:0|0:0,0:0:0:0:
398,52,81641,1,0,0:0:0:0:
398,52,81794,2,0,L|409:-1,1,53.9999983520508,8|0,1:0|0:0,0:0:0:0:
512,116,82100,2,0,L|500:63,1,53.9999983520508,10|0,0:0|0:0,0:0:0:0:
512,219,82406,5,2,3:2:0:0:
512,219,82559,1,8,0:0:0:0:
512,219,82712,2,0,P|485:214|455:213,1,53.9999983520508,10|0,0:0|0:0,0:0:0:0:
329,295,83019,2,0,P|355:293|382:288,1,53.9999983520508,8|0,1:0|0:0,0:0:0:0:
382,287,83325,1,10,0:0:0:0:
218,269,83631,6,0,P|203:304|211:356,2,80.9999975280763,2|2|2,3:2|3:2|3:2,0:0:0:0:
289,160,84243,2,0,P|263:167|237:165,1,53.9999983520508,8|0,1:0|0:0,0:0:0:0:
210,146,84473,2,0,P|183:143|157:150,1,53.9999983520508,2|0,3:2|0:0,0:0:0:0:
135,165,84702,1,2,3:2:0:0:
83,98,84855,6,0,B|42:112|42:112|6:101,2,80.9999975280763,10|2|2,3:2|3:2|3:2,0:0:0:0:
227,32,85468,1,8,3:0:0:0:
198,85,85621,1,8,3:0:0:0:
210,146,85774,1,8,3:0:0:0:
260,195,85927,1,8,3:0:0:0:
260,195,86080,6,0,L|340:190,2,80.9999975280763,2|0|0,3:2|0:0|0:0,0:0:0:0:
202,234,86845,1,0,3:2:0:0:
202,234,86998,1,2,3:2:0:0:
356,355,87304,1,2,0:0:0:0:
459,323,87610,1,2,3:2:0:0:
459,323,87763,2,0,P|472:285|458:241,1,80.9999975280763,2|0,0:0|0:0,0:0:0:0:
420,155,88223,2,0,P|420:134|427:116,1,40.4999987640381,2|0,3:2|3:0,0:0:0:0:
426,116,88529,6,0,P|463:122|526:122,2,80.9999975280763,2|0|0,3:2|0:0|0:0,0:0:0:0:
357,92,89294,1,0,3:2:0:0:
357,92,89447,1,2,3:2:0:0:
369,259,89753,1,2,0:0:0:0:
369,259,90059,2,0,B|304:236|310:290|248:272,1,121.499996292114,0|0,3:0|0:0,0:0:0:0:
162,245,90672,1,2,3:2:0:0:
69,289,90825,1,0,3:0:0:0:
69,289,90978,6,0,L|74:369,2,80.9999975280763,2|0|0,3:2|0:0|0:0,0:0:0:0:
60,211,91743,1,0,3:0:0:0:
60,211,91896,1,2,3:2:0:0:
166,63,92202,1,2,0:0:0:0:
166,63,92508,2,0,L|174:143,1,80.9999975280763,0|0,3:0|0:0,0:0:0:0:
174,143,92968,1,0,3:0:0:0:
256,189,93121,2,0,L|251:229,1,40.4999987640381,2|0,3:2|3:0,0:0:0:0:
250,229,93427,6,0,P|212:233|172:273,2,80.9999975280763,0|0|0,3:0|0:0|0:0,0:0:0:0:
339,246,94192,1,0,3:0:0:0:
339,246,94345,1,2,3:2:0:0:
462,115,94651,1,2,0:0:0:0:
462,115,94957,2,0,B|447:138|419:148|419:148|397:120|363:118,1,121.499996292114,2|0,0:0|0:0,0:0:0:0:
250,125,95570,1,2,0:0:0:0:
218,211,95723,1,0,0:0:0:0:
218,211,95876,6,0,B|285:242|277:183|348:215,2,121.499996292114,2|0|2,0:0|0:0|0:0,0:0:0:0:
67,139,97100,2,0,P|121:136|124:191,1,121.499996292114,2|0,0:0|0:0,0:0:0:0:
36,291,97866,1,2,0:0:0:0:
36,291,98018,1,2,0:0:0:0:
218,211,98325,6,0,B|305:183|305:183|386:219,1,161.999995056153,2|0,0:0|0:0,0:0:0:0:
485,292,99243,2,0,P|459:246|472:209,1,80.9999975280763,2|0,0:0|0:0,0:0:0:0:
504,161,99702,1,0,0:0:0:0:
504,161,99855,1,0,0:0:0:0:
425,59,100161,2,0,L|384:63,1,40.4999987640381,2|0,0:0|0:0,0:0:0:0:
384,62,100468,1,2,0:0:0:0:
264,135,100774,6,0,P|315:119|347:179,2,121.499996292114,2|0|2,0:0|0:0|0:0,0:0:0:0:
162,210,101998,2,0,L|170:129,1,80.9999975280763,2|0,0:0|0:0,0:0:0:0:
149,41,102610,1,2,0:0:0:0:
26,105,102916,1,2,0:0:0:0:
26,105,103223,6,0,P|50:139|49:179,2,80.9999975280763,2|0|2,0:0|0:0|0:0,0:0:0:0:
0,259,104141,1,0,0:0:0:0:
117,307,104447,2,0,P|158:313|197:278,1,80.9999975280763,2|0,0:0|0:0,0:0:0:0:
242,241,104906,2,0,P|283:235|322:270,1,80.9999975280763,2|0,0:0|0:0,0:0:0:0:
424,309,105417,2,0,L|428:262,1,40.4999987640381,2|0,0:0|0:0,0:0:0:0:
427,268,105672,6,0,P|452:231|449:173,1,94.4999971160889,2|0,0:0|0:0,0:0:0:0:
452,182,106590,2,0,B|311:229|353:114|199:159,1,242.999992584229,2|0,0:0|0:0,0:0:0:0:
220,153,107814,1,0,0:0:0:0:
83,34,108121,5,2,0:0:0:0:
126,111,108427,1,0,0:0:0:0:
110,198,108733,1,0,0:0:0:0:
56,269,109039,1,0,0:0:0:0:
56,269,109651,2,0,L|96:277,1,40.4999987640381,2|0,0:0|0:0,0:0:0:0:
160,334,109957,2,0,L|200:326,1,40.4999987640381,2|0,0:0|0:0,0:0:0:0:
256,262,110263,2,0,L|296:270,1,40.4999987640381,2|0,0:0|0:0,0:0:0:0:
396,362,110570,6,0,B|390:305|390:305|415:268|415:268|410:208,1,161.999995056153,2|0,0:0|0:0,0:0:0:0:
370,47,111488,2,0,L|364:88,1,40.4999987640381,2|0,0:0|0:0,0:0:0:0:
394,69,111794,1,2,0:0:0:0:
284,134,112100,2,0,P|215:136|165:102,1,121.499996292114,2|0,0:0|0:0,0:0:0:0:
77,31,112712,1,2,0:0:0:0:
77,31,112866,1,0,0:0:0:0:
77,31,113019,6,0,B|107:106|37:108|75:189,1,161.999995056153,2|0,0:0|0:0,0:0:0:0:
196,287,113937,2,0,L|155:292,1,40.4999987640381,2|0,0:0|0:0,0:0:0:0:
179,316,114244,1,2,0:0:0:0:
179,316,114855,1,8,3:0:0:0:
264,189,115008,1,8,3:0:0:0:
264,189,115085,1,8,3:0:0:0:
264,189,115161,1,8,3:0:0:0:
422,168,115314,1,0,3:0:0:0:
422,168,115468,6,0,P|404:201|408:259,1,80.9999975280763,6|0,0:0|0:0,0:0:0:0:
329,383,116080,2,0,P|328:342|310:307,1,80.9999975280763,2|0,0:0|0:0,0:0:0:0:
185,213,116692,1,2,3:2:0:0:
185,213,116845,1,0,3:0:0:0:
185,213,116998,1,2,3:2:0:0:
289,118,117305,2,0,L|208:110,1,80.9999975280763,2|0,0:0|0:0,0:0:0:0:
117,117,117763,1,0,3:0:0:0:
117,117,117917,6,0,P|135:80|133:39,2,80.9999975280763,2|0|2,0:0|0:0|0:0,0:0:0:0:
15,178,118835,2,0,L|19:218,1,40.4999987640381,2|0,3:2|0:0,0:0:0:0:
1,334,119141,1,2,3:2:0:0:
55,305,119294,1,0,3:0:0:0:
121,315,119447,1,0,3:0:0:0:
121,315,119600,2,0,P|160:319|198:306,1,80.9999975280763,2|0,0:0|0:0,0:0:0:0:
297,227,120059,1,2,3:2:0:0:
396,231,120212,1,0,3:0:0:0:
396,231,120366,6,0,L|388:312,1,80.9999975280763,6|0,0:0|0:0,0:0:0:0:
512,208,120978,2,0,L|504:127,1,80.9999975280763,2|0,0:0|0:0,0:0:0:0:
412,5,121590,1,2,3:2:0:0:
412,5,121743,1,0,3:0:0:0:
412,5,121896,1,2,3:2:0:0:
281,75,122202,1,2,0:0:0:0:
137,85,122508,1,0,0:0:0:0:
137,85,122814,6,0,P|97:81|58:68,1,80.9999975280763,2|0,0:0|0:0,0:0:0:0:
2,196,123427,2,0,P|40:183|80:179,1,80.9999975280763,2|0,0:0|0:0,0:0:0:0:
178,190,123886,1,0,3:0:0:0:
178,190,124039,1,8,3:0:0:0:
139,260,124192,1,8,3:0:0:0:
159,338,124345,1,8,3:0:0:0:
159,338,124498,2,0,B|182:360|215:358|215:358|238:325|282:332,1,121.499996292114,8|8,3:0|0:0,0:0:0:0:
384,345,125110,1,8,0:0:0:0:
384,345,125263,6,0,P|386:305|411:274,2,80.9999975280763,6|0|2,0:0|0:0|0:0,0:0:0:0:
488,207,126182,1,2,0:0:0:0:
424,91,126488,1,0,3:0:0:0:
424,91,126641,1,0,3:0:0:0:
424,91,126794,2,0,P|422:51|397:20,2,80.9999975280763,2|0|2,0:0|0:0|0:0,0:0:0:0:
387,161,127559,1,0,3:0:0:0:
387,161,127712,5,2,0:0:0:0:
258,305,128019,1,0,3:0:0:0:
193,271,128172,1,0,3:0:0:0:
131,310,128325,1,0,3:0:0:0:
68,277,128478,1,0,3:0:0:0:
68,277,128631,2,0,P|61:255|59:233,1,40.4999987640381,2|0,3:2|0:0,0:0:0:0:
63,72,128937,5,2,0:0:0:0:
63,72,129091,1,2,0:0:0:0:
63,72,129243,1,10,3:2:0:0:
120,137,129396,1,8,3:0:0:0:
207,157,129549,2,0,P|239:153|273:145,1,49.5000015106202,8|0,3:0|0:0,0:0:0:0:
421,73,129855,2,0,P|389:69|356:61,1,49.5000015106202,10|0,0:0|0:0,0:0:0:0:
372,65,130161,6,0,B|357:90|326:96|326:96|300:66|264:68,1,116.999994644165,14|0,0:0|0:0,0:0:0:0:
125,32,130620,1,10,0:0:0:0:
125,32,130774,2,0,P|150:16|178:8,1,58.4999973220826,8|0,1:0|0:0,0:0:0:0:
58,111,131080,2,0,P|30:105|5:90,1,58.4999973220826,10|0,0:0|0:0,0:0:0:0:
133,181,131386,5,2,3:2:0:0:
155,248,131540,1,8,0:0:0:0:
127,312,131693,2,0,L|69:304,1,58.4999973220826,8|0,0:0|0:0,0:0:0:0:
215,357,131998,2,0,P|245:340|280:333,1,58.4999973220826,8|0,1:0|0:0,0:0:0:0:
439,344,132304,1,10,0:0:0:0:
439,344,132457,1,8,0:0:0:0:
439,344,132610,6,0,B|423:285|469:294|445:232,1,116.999994644165,10|0,0:0|0:0,0:0:0:0:
368,118,133070,1,2,0:0:0:0:
368,118,133223,2,0,P|368:88|379:62,1,58.4999973220826,8|0,1:0|0:0,0:0:0:0:
273,183,133529,2,0,P|272:153|261:127,1,58.4999973220826,10|0,0:0|0:0,0:0:0:0:
160,34,133835,6,0,L|218:40,2,58.4999973220826,2|8|8,3:2|0:0|0:0,0:0:0:0:
160,34,134447,2,0,L|147:91,1,58.4999973220826,8|0,1:0|0:0,0:0:0:0:
64,199,134753,2,0,L|51:141,1,58.4999973220826,10|0,0:0|0:0,0:0:0:0:
127,316,135059,6,0,P|160:263|225:284,1,116.999994644165,14|0,0:0|0:0,0:0:0:0:
342,216,135519,1,8,0:0:0:0:
342,216,135672,2,0,P|312:217|287:202,1,58.4999973220826,8|0,1:0|0:0,0:0:0:0:
154,148,135978,2,0,P|182:148|207:134,1,58.4999973220826,10|0,0:0|0:0,0:0:0:0:
323,48,136283,5,2,3:2:0:0:
323,48,136436,1,8,0:0:0:0:
323,48,136590,2,0,L|264:41,1,58.4999973220826,10|0,0:0|0:0,0:0:0:0:
429,93,136896,2,0,P|444:117|449:146,1,58.4999973220826,8|0,1:0|0:0,0:0:0:0:
340,269,137202,2,0,P|346:236|363:212,1,58.4999973220826,10|0,0:0|0:0,0:0:0:0:
359,215,137508,6,0,P|301:223|222:211,1,116.999994644165,14|0,0:0|0:0,0:0:0:0:
79,158,137968,1,8,0:0:0:0:
79,158,138121,2,0,L|70:223,1,58.4999973220826,8|0,1:0|0:0,0:0:0:0:
157,357,138427,2,0,L|149:298,1,58.4999973220826,10|0,0:0|0:0,0:0:0:0:
149,299,138733,5,8,3:0:0:0:
79,158,139039,1,8,3:0:0:0:
354,17,139345,1,8,1:0:0:0:
376,90,139498,1,8,3:0:0:0:
493,145,139651,1,10,0:0:0:0:
474,222,139804,1,8,3:0:0:0:
474,222,139957,6,0,B|409:250|414:197|358:217,1,116.999994644165,6|0,0:0|0:0,0:0:0:0:
233,257,140416,1,10,0:0:0:0:
233,257,140570,2,0,P|204:253|180:237,1,58.4999973220826,8|0,1:0|0:0,0:0:0:0:
39,192,140876,2,0,P|63:176|92:173,1,58.4999973220826,10|0,0:0|0:0,0:0:0:0:
160,44,141182,5,2,3:2:0:0:
160,44,141335,1,8,0:0:0:0:
160,44,141487,2,0,L|166:107,1,58.4999973220826,10|0,0:0|0:0,0:0:0:0:
236,265,141794,2,0,L|242:200,1,58.4999973220826,8|0,1:0|0:0,0:0:0:0:
311,44,142100,2,0,L|317:107,1,58.4999973220826,10|0,0:0|0:0,0:0:0:0:
429,244,142406,6,0,P|390:192|335:212,1,116.999994644165,10|0,0:0|0:0,0:0:0:0:
235,290,142865,1,2,0:0:0:0:
235,290,143018,2,0,P|262:299|291:299,1,58.4999973220826,8|0,1:0|0:0,0:0:0:0:
426,348,143325,2,0,P|396:347|369:357,1,58.4999973220826,10|0,0:0|0:0,0:0:0:0:
453,253,143631,6,0,P|472:271|509:273,2,58.4999973220826,2|8|8,3:2|0:0|0:0,0:0:0:0:
453,253,144243,2,0,L|446:194,1,58.4999973220826,8|0,1:0|0:0,0:0:0:0:
334,188,144549,2,0,L|340:129,1,58.4999973220826,10|0,0:0|0:0,0:0:0:0:
479,29,144855,6,0,B|426:53|426:53|363:31,1,116.999994644165,14|0,0:0|0:0,0:0:0:0:
238,5,145314,1,0,0:0:0:0:
238,5,145467,2,0,P|248:35|243:63,1,58.4999973220826,8|0,1:0|0:0,0:0:0:0:
192,197,145774,2,0,P|188:168|172:143,1,58.4999973220826,10|0,0:0|0:0,0:0:0:0:
17,225,146079,5,2,3:2:0:0:
17,225,146232,1,8,0:0:0:0:
17,225,146385,2,0,P|46:228|75:237,1,58.4999973220826,10|0,0:0|0:0,0:0:0:0:
145,334,146692,2,0,P|174:330|203:321,1,58.4999973220826,8|0,1:0|0:0,0:0:0:0:
273,225,146998,2,0,P|302:228|331:237,1,58.4999973220826,10|0,0:0|0:0,0:0:0:0:
329,236,147304,6,0,B|313:276|313:276|328:319,2,87.749995983124,2|2|2,3:2|3:2|3:2,0:0:0:0:
434,130,147916,2,0,L|354:114,1,58.4999973220826,8|0,1:0|0:0,0:0:0:0:
358,87,148146,2,0,L|300:98,1,58.4999973220826,2|0,3:2|0:0,0:0:0:0:
271,109,148375,1,2,3:2:0:0:
169,95,148528,6,0,P|132:72|90:82,2,87.749995983124,10|2|2,3:2|3:2|3:2,0:0:0:0:
226,251,149141,1,8,3:0:0:0:
224,173,149294,1,8,3:0:0:0:
271,109,149447,1,8,3:0:0:0:
349,86,149600,1,8,3:0:0:0:
349,86,149753,6,0,L|402:91,1,53.9999983520508,14|0,0:0|0:0,0:0:0:0:
501,173,150059,2,0,L|447:178,1,53.9999983520508,2|0,0:0|0:0,0:0:0:0:
324,274,150366,2,0,P|359:233|337:182,1,107.999996704102,8|0,1:0|0:0,0:0:0:0:
250,108,150825,1,0,0:0:0:0:
250,108,150978,5,2,3:2:0:0:
179,96,151131,1,8,0:0:0:0:
120,139,151284,2,0,L|114:193,1,53.9999983520508,8|0,0:0|0:0,0:0:0:0:
114,192,151590,1,8,1:0:0:0:
36,311,151896,1,10,0:0:0:0:
216,269,152202,6,0,P|242:268|267:278,1,53.9999983520508,14|0,0:0|0:0,0:0:0:0:
323,364,152508,2,0,P|349:363|375:353,1,53.9999983520508,2|0,0:0|0:0,0:0:0:0:
512,257,152815,2,0,B|463:278|463:278|407:254,1,107.999996704102,8|0,1:0|0:0,0:0:0:0:
412,256,153274,1,0,0:0:0:0:
433,153,153427,6,0,P|432:126|424:100,2,53.9999983520508,2|8|8,3:2|0:0|0:0,0:0:0:0:
433,153,154039,2,0,L|379:158,1,53.9999983520508,8|0,1:0|0:0,0:0:0:0:
289,246,154345,2,0,L|235:240,1,53.9999983520508,10|0,0:0|0:0,0:0:0:0:
235,240,154651,6,0,B|216:217|193:215|193:215|163:241|124:235,1,107.999996704102,14|0,0:0|0:0,0:0:0:0:
0,200,155110,1,8,0:0:0:0:
0,200,155263,2,0,P|26:195|52:187,1,53.9999983520508,8|0,1:0|0:0,0:0:0:0:
131,97,155570,2,0,P|105:89|79:85,1,53.9999983520508,2|0,0:0|0:0,0:0:0:0:
203,151,155876,5,2,3:2:0:0:
249,91,156029,1,8,0:0:0:0:
323,74,156182,2,0,P|349:72|374:80,1,53.9999983520508,8|0,0:0|0:0,0:0:0:0:
512,140,156488,2,0,P|486:147|459:146,1,53.9999983520508,8|0,1:0|0:0,0:0:0:0:
315,191,156794,2,0,P|341:189|366:197,1,53.9999983520508,10|0,0:0|0:0,0:0:0:0:
512,331,157100,6,0,B|443:312|459:353|395:345,1,107.999996704102,14|0,0:0|0:0,0:0:0:0:
291,305,157559,1,8,0:0:0:0:
291,305,157712,2,0,P|300:326|307:356,1,53.9999983520508,8|0,1:0|0:0,0:0:0:0:
217,246,158019,1,2,0:0:0:0:
273,196,158172,1,2,0:0:0:0:
273,196,158325,6,0,L|325:204,2,53.9999983520508,2|8|8,3:2|0:0|0:0,0:0:0:0:
273,196,158937,2,0,P|260:176|256:144,1,53.9999983520508,8|0,1:0|0:0,0:0:0:0:
333,20,159243,2,0,P|330:46|317:70,1,53.9999983520508,10|0,0:0|0:0,0:0:0:0:
316,70,159549,6,0,P|266:45|201:64,1,107.999996704102,14|0,0:0|0:0,0:0:0:0:
99,118,160008,1,0,0:0:0:0:
99,118,160161,2,0,L|104:64,1,53.9999983520508,8|0,1:0|0:0,0:0:0:0:
6,157,160468,2,0,L|11:210,1,53.9999983520508,2|0,0:0|0:0,0:0:0:0:
40,353,160774,5,2,3:2:0:0:
85,292,160927,1,8,0:0:0:0:
158,275,161080,2,0,P|184:272|210:279,1,53.9999983520508,8|0,0:0|0:0,0:0:0:0:
210,279,161386,1,8,1:0:0:0:
310,381,161692,1,10,0:0:0:0:
433,218,161998,6,0,P|443:242|442:269,1,53.9999983520508,14|0,0:0|0:0,0:0:0:0:
355,189,162304,2,0,P|353:162|363:137,1,53.9999983520508,2|0,0:0|0:0,0:0:0:0:
477,51,162611,2,0,B|364:40,1,107.999996704102,8|0,1:0|0:0,0:0:0:0:
369,40,163070,1,0,0:0:0:0:
273,53,163223,6,0,P|277:26|275:-1,2,53.9999983520508,2|8|8,3:2|0:0|0:0,0:0:0:0:
273,53,163835,2,0,P|247:63|221:69,1,53.9999983520508,8|0,1:0|0:0,0:0:0:0:
125,137,164141,2,0,P|99:126|73:120,1,53.9999983520508,10|0,0:0|0:0,0:0:0:0:
73,120,164447,6,0,B|69:160|69:160|83:186|83:186|78:230,1,107.999996704102,14|0,0:0|0:0,0:0:0:0:
167,345,164906,1,0,0:0:0:0:
167,345,165059,2,0,L|162:291,1,53.9999983520508,8|0,1:0|0:0,0:0:0:0:
246,174,165366,2,0,L|241:227,1,53.9999983520508,2|0,0:0|0:0,0:0:0:0:
205,85,165672,5,2,3:2:0:0:
262,35,165825,1,8,0:0:0:0:
337,29,165978,2,0,P|367:33|393:52,1,53.9999983520508,8|0,0:0|0:0,0:0:0:0:
348,179,166284,2,0,P|337:154|337:127,1,53.9999983520508,8|0,1:0|0:0,0:0:0:0:
430,233,166590,2,0,P|414:255|390:269,1,53.9999983520508,10|0,0:0|0:0,0:0:0:0:
220,297,166896,5,2,0:0:0:0:
219,296,167202,2,0,P|221:269|228:242,1,53.9999983520508,8|0,1:0|0:0,0:0:0:0:
130,367,167508,2,0,P|127:340|120:313,1,53.9999983520508,8|0,1:0|0:0,0:0:0:0:
66,180,167814,5,10,0:0:0:0:
66,180,167968,1,8,0:0:0:0:
66,180,168121,1,2,3:2:0:0:
278,231,168427,2,0,P|254:242|227:243,1,53.9999983520508,8|0,1:0|0:0,0:0:0:0:
319,153,168733,2,0,P|345:154|369:166,1,53.9999983520508,8|0,1:0|0:0,0:0:0:0:
369,166,169039,1,14,0:0:0:0:
256,192,169116,12,0,171488,0:0:0:0:
232,130,171794,6,0,P|299:108|349:137,2,121.499996292114,2|0|2,3:2|0:0|0:0,0:0:0:0:
213,241,173019,2,0,P|150:261|103:234,2,107.999996704102,2|0|2,0:0|0:0|0:0,0:0:0:0:
332,184,174243,5,2,3:2:0:0:
332,184,174549,2,0,P|367:172|427:179,1,80.9999975280763,2|0,0:0|0:0,0:0:0:0:
476,191,175008,1,0,3:0:0:0:
476,191,175161,1,0,3:0:0:0:
397,300,175468,2,0,B|448:317|448:317|504:294,2,107.999996704102,2|0|2,0:0|0:0|0:0,0:0:0:0:
310,196,176692,6,0,B|340:265|287:252|312:327,2,121.499996292114,2|0|2,3:2|0:0|0:0,0:0:0:0:
206,105,177917,2,0,P|261:120|291:74,1,121.499996292114,2|0,0:0|0:0,0:0:0:0:
109,18,178835,1,2,0:0:0:0:
109,18,179141,5,2,3:2:0:0:
50,85,179447,1,2,0:0:0:0:
50,85,179600,2,0,P|38:126|36:164,1,80.9999975280763,2|0,0:0|0:0,0:0:0:0:
40,247,180059,1,2,3:2:0:0:
143,181,180366,2,0,P|180:169|216:186,1,80.9999975280763,2|0,0:0|0:0,0:0:0:0:
216,186,180978,1,2,3:2:0:0:
216,186,181284,1,2,0:0:0:0:
307,270,181590,6,0,L|318:176,1,80.9999975280763,2|0,3:2|0:0,0:0:0:0:
386,132,182049,2,0,L|396:212,1,80.9999975280763,2|0,3:2|0:0,0:0:0:0:
419,293,182508,1,2,3:2:0:0:
419,293,182814,2,0,P|460:290|513:291,2,80.9999975280763,2|0|0,0:0|0:0|0:0,0:0:0:0:
299,347,183733,2,0,B|282:348|258:344,1,40.4999987640381,2|0,3:2|3:0,0:0:0:0:
226,371,184039,6,0,P|218:327|192:296,1,80.9999975280763,2|0,3:2|0:0,0:0:0:0:
72,277,184651,2,0,P|79:233|105:202,1,80.9999975280763,2|0,3:2|0:0,0:0:0:0:
221,131,185263,1,2,0:0:0:0:
318,204,185570,1,2,3:2:0:0:
318,204,185876,2,0,P|336:212|356:213,1,40.4999987640381,2|0,0:0|3:0,0:0:0:0:
420,269,186182,2,0,P|438:260|458:259,1,40.4999987640381,2|0,0:0|3:0,0:0:0:0:
491,260,186488,6,0,L|497:179,1,80.9999975280763,2|0,3:2|0:0,0:0:0:0:
502,109,186947,1,0,3:0:0:0:
342,191,187253,1,0,3:0:0:0:
342,191,187406,1,0,3:0:0:0:
249,93,187712,2,0,B|288:82|288:82|338:94,2,80.9999975280763,2|0|2,0:0|0:0|0:0,0:0:0:0:
121,146,188631,2,0,P|101:145|73:146,2,40.4999987640381,2|0|2,0:0|3:0|3:2,0:0:0:0:
256,192,189013,12,2,191080,0:0:0:0:
80,145,191386,5,2,0:0:0:0:
176,98,191692,1,0,0:0:0:0:
176,98,191845,2,0,B|237:80|219:124|293:100,1,99.0000030212403,2|0,0:0|0:0,0:0:0:0:
372,75,192304,1,2,0:0:0:0:
496,181,192610,5,2,0:0:0:0:
496,181,192917,1,0,0:0:0:0:
496,181,193223,2,0,P|471:182|447:189,1,49.5000015106202,2|0,0:0|0:0,0:0:0:0:
392,271,193529,2,0,P|367:269|343:262,1,49.5000015106202,2|0,0:0|0:0,0:0:0:0:
263,226,193835,5,2,0:0:0:0:
132,264,194141,1,0,0:0:0:0:
132,264,194294,2,0,L|118:380,1,99.0000030212403,2|0,0:0|0:0,0:0:0:0:
35,257,194753,1,2,0:0:0:0:
135,162,195059,5,2,0:0:0:0:
135,162,195366,1,0,0:0:0:0:
135,162,195672,2,0,P|158:154|183:153,1,49.5000015106202,2|0,0:0|0:0,0:0:0:0:
238,78,195978,2,0,P|262:83|284:94,1,49.5000015106202,2|0,0:0|0:0,0:0:0:0:
381,160,196284,6,0,P|373:112|394:63,2,99.0000030212403,2|0|0,0:0|0:0|0:0,0:0:0:0:
315,281,197202,1,0,0:0:0:0:
315,281,197508,2,0,P|332:326|325:374,2,99.0000030212403,2|0|0,0:0|0:0|0:0,0:0:0:0:
151,185,198427,6,0,B|174:231|228:243|228:243|256:181|322:188,1,198.000006042481,2|0,0:0|0:0,0:0:0:0:
440,220,199345,1,2,0:0:0:0:
382,108,199651,5,2,0:0:0:0:
382,108,199957,1,0,0:0:0:0:
382,108,200263,2,0,B|405:112|418:129|418:129|434:106|464:100,2,99.0000030212403,2|0|0,0:0|0:0|0:0,0:0:0:0:
382,108,201182,5,2,0:0:0:0:
278,182,201488,1,0,0:0:0:0:
278,182,201641,2,0,P|222:184|181:156,1,99.0000030212403,2|0,0:0|0:0,0:0:0:0:
125,96,202100,1,2,0:0:0:0:
32,192,202406,5,2,0:0:0:0:
32,192,202713,1,0,0:0:0:0:
32,192,203019,2,0,L|38:259,1,49.5000015106202,2|0,0:0|0:0,0:0:0:0:
120,341,203325,2,0,L|125:292,1,49.5000015106202,2|0,0:0|0:0,0:0:0:0:
164,206,203631,5,2,0:0:0:0:
262,282,203937,1,0,0:0:0:0:
262,282,204090,2,0,B|323:300|305:256|379:280,1,99.0000030212403,2|0,0:0|0:0,0:0:0:0:
451,304,204549,1,2,0:0:0:0:
465,179,204855,5,2,0:0:0:0:
465,179,205162,1,0,0:0:0:0:
465,179,205468,2,0,P|466:154|479:113,1,49.5000015106202,2|0,0:0|0:0,0:0:0:0:
372,47,205774,2,0,P|378:70|379:95,1,49.5000015106202,2|0,0:0|0:0,0:0:0:0:
318,202,206080,6,0,P|309:147|259:121,1,99.0000030212403,2|0,0:0|0:0,0:0:0:0:
164,53,206692,2,0,L|231:47,1,49.5000015106202,2|0,0:0|0:0,0:0:0:0:
190,24,206998,1,2,0:0:0:0:
77,97,207304,6,0,B|55:141|55:141|76:208,2,99.0000030212403,2|0|0,0:0|0:0|0:0,0:0:0:0:
157,197,208223,1,0,0:0:0:0:
293,248,208529,5,2,0:0:0:0:
336,125,208835,1,2,0:0:0:0:
172,241,209141,1,2,0:0:0:0:
218,363,209447,1,2,0:0:0:0:
218,363,209753,6,0,P|228:329|218:295,1,62.9999980773926,2|0,3:2|0:0,0:0:0:0:
131,97,210059,1,8,1:0:0:0:
209,127,210212,1,8,3:0:0:0:
279,233,210366,1,10,0:0:0:0:
359,201,210519,1,8,3:0:0:0:
420,80,210672,1,10,0:0:0:0:
501,113,210825,1,8,3:0:0:0:
501,113,210978,6,0,B|426:86|448:154|363:121,1,125.999996154785,14|0,0:0|0:0,0:0:0:0:
231,20,211437,1,10,0:0:0:0:
231,20,211591,2,0,L|294:13,1,62.9999980773926,8|0,1:0|0:0,0:0:0:0:
170,108,211896,2,0,L|108:95,1,62.9999980773926,10|0,0:0|0:0,0:0:0:0:
0,217,212203,5,2,3:2:0:0:
72,193,212355,1,8,0:0:0:0:
148,211,212508,2,0,P|169:234|175:266,1,62.9999980773926,8|0,0:0|0:0,0:0:0:0:
267,383,212815,2,0,L|273:320,1,62.9999980773926,8|0,1:0|0:0,0:0:0:0:
399,213,213121,1,10,0:0:0:0:
399,213,213274,1,8,0:0:0:0:
399,213,213427,6,0,P|336:225|298:174,1,125.999996154785,10|0,0:0|0:0,0:0:0:0:
216,65,213887,1,2,0:0:0:0:
216,65,214040,2,0,P|216:98|205:126,1,62.9999980773926,8|0,1:0|0:0,0:0:0:0:
329,0,214345,2,0,P|329:33|340:61,1,62.9999980773926,10|0,0:0|0:0,0:0:0:0:
481,180,214652,6,0,P|481:153|475:117,2,62.9999980773926,2|8|8,3:2|0:0|0:0,0:0:0:0:
481,180,215264,2,0,L|418:187,1,62.9999980773926,8|0,1:0|0:0,0:0:0:0:
274,247,215570,2,0,L|337:254,1,62.9999980773926,10|0,0:0|0:0,0:0:0:0:
234,88,215876,6,0,B|167:126|222:144|153:188,1,125.999996154785,14|0,0:0|0:0,0:0:0:0:
21,272,216336,1,8,0:0:0:0:
21,272,216489,2,0,P|48:256|79:257,1,62.9999980773926,8|0,1:0|0:0,0:0:0:0:
169,356,216794,2,0,P|200:357|227:341,1,62.9999980773926,10|0,0:0|0:0,0:0:0:0:
355,218,217100,5,2,3:2:0:0:
355,218,217253,1,8,0:0:0:0:
355,218,217407,2,0,L|347:281,1,62.9999980773926,10|0,0:0|0:0,0:0:0:0:
272,128,217713,2,0,P|298:111|329:107,1,62.9999980773926,8|0,1:0|0:0,0:0:0:0:
430,14,218019,2,0,P|456:30|487:34,1,62.9999980773926,10|0,0:0|0:0,0:0:0:0:
487,33,218325,6,0,B|528:65|517:96|517:96|481:94|453:133,1,125.999996154785,14|0,0:0|0:0,0:0:0:0:
337,234,218785,1,8,0:0:0:0:
337,234,218938,2,0,P|342:199|352:172,1,62.9999980773926,8|0,1:0|0:0,0:0:0:0:
474,272,219243,2,0,P|481:302|482:333,1,62.9999980773926,10|0,0:0|0:0,0:0:0:0:
481,334,219550,5,8,3:0:0:0:
337,234,219856,1,8,3:0:0:0:
74,358,220162,1,8,1:0:0:0:
47,269,220314,1,8,3:0:0:0:
210,131,220468,1,10,0:0:0:0:
184,215,220621,1,8,3:0:0:0:
184,215,220774,6,0,B|153:214|135:226|135:226|110:177|58:182,1,125.999996154785,6|0,0:0|0:0,0:0:0:0:
186,305,221233,1,10,0:0:0:0:
186,305,221387,2,0,P|217:301|242:284,1,62.9999980773926,8|0,1:0|0:0,0:0:0:0:
403,327,221693,2,0,P|377:309|347:305,1,62.9999980773926,10|0,0:0|0:0,0:0:0:0:
512,251,221999,5,2,3:2:0:0:
512,251,222152,1,8,0:0:0:0:
512,251,222304,2,0,L|504:321,1,62.9999980773926,10|0,0:0|0:0,0:0:0:0:
451,146,222610,2,0,L|408:202,1,62.9999980773926,8|0,1:0|0:0,0:0:0:0:
449,24,222917,2,0,L|383:51,1,62.9999980773926,10|0,0:0|0:0,0:0:0:0:
225,139,223223,6,0,P|253:152|284:155,1,62.9999980773926,10|0,0:0|0:0,0:0:0:0:
168,71,223529,2,0,P|136:74|108:87,1,62.9999980773926,2|0,0:0|0:0,0:0:0:0:
0,225,223835,1,8,1:0:0:0:
0,225,223988,1,8,0:0:0:0:
0,225,224141,2,0,L|69:218,1,62.9999980773926,10|0,0:0|0:0,0:0:0:0:
260,199,224447,5,2,3:2:0:0:
186,214,224599,1,8,0:0:0:0:
142,276,224754,2,0,L|149:344,1,62.9999980773926,8|0,0:0|0:0,0:0:0:0:
311,371,225060,2,0,P|308:339|293:312,1,62.9999980773926,8|0,1:0|0:0,0:0:0:0:
379,189,225366,2,0,P|363:216|361:247,1,62.9999980773926,10|0,0:0|0:0,0:0:0:0:
512,111,225672,6,0,B|485:136|453:139|453:139|434:102|389:101,1,125.999996154785,14|0,0:0|0:0,0:0:0:0:
283,34,226131,1,0,0:0:0:0:
283,34,226284,2,0,L|298:108,1,62.9999980773926,8|0,1:0|0:0,0:0:0:0:
177,204,226590,2,0,L|190:142,1,62.9999980773926,10|0,0:0|0:0,0:0:0:0:
260,289,226896,5,2,3:2:0:0:
260,289,227049,1,8,0:0:0:0:
260,289,227202,2,0,P|233:308|203:311,1,62.9999980773926,10|0,0:0|0:0,0:0:0:0:
305,206,227508,2,0,P|333:218|352:243,1,62.9999980773926,8|0,1:0|0:0,0:0:0:0:
442,355,227814,2,0,P|438:324|450:295,1,62.9999980773926,10|0,0:0|0:0,0:0:0:0:
449,295,228121,6,0,P|479:277|480:211,2,94.499997116089,2|2|2,3:2|3:2|3:2,0:0:0:0:
352,243,228733,2,0,P|355:205|370:166,1,62.9999980773926,8|0,1:0|0:0,0:0:0:0:
394,165,228963,2,0,P|391:133|382:104,1,62.9999980773926,2|0,3:2|0:0,0:0:0:0:
369,73,229192,1,2,3:2:0:0:
267,127,229345,6,0,B|212:146|226:103|165:124,2,94.499997116089,10|2|2,3:2|3:2|3:2,0:0:0:0:
109,50,229958,1,8,3:0:0:0:
59,124,230111,1,8,3:0:0:0:
124,202,230263,1,8,3:0:0:0:
72,275,230416,1,8,3:0:0:0:
72,275,230570,6,0,P|42:271|21:259,1,53.9999983520508,14|0,0:0|0:0,0:0:0:0:
100,361,230876,2,0,P|123:348|150:345,1,53.9999983520508,2|0,0:0|0:0,0:0:0:0:
243,233,231183,2,0,B|254:343,1,107.999996704102,8|0,1:0|0:0,0:0:0:0:
384,263,231641,1,0,0:0:0:0:
384,263,231794,5,2,3:2:0:0:
381,187,231947,1,8,0:0:0:0:
325,135,232100,2,0,P|295:125|273:126,1,53.9999983520508,8|0,0:0|0:0,0:0:0:0:
272,126,232406,1,8,1:0:0:0:
349,26,232713,1,10,0:0:0:0:
504,80,233019,6,0,L|497:144,1,53.9999983520508,14|0,0:0|0:0,0:0:0:0:
404,183,233325,2,0,L|410:247,1,53.9999983520508,2|0,0:0|0:0,0:0:0:0:
512,349,233632,2,0,B|482:328|462:328|462:328|431:351|388:349,1,107.999996704102,8|0,1:0|0:0,0:0:0:0:
413,347,234091,1,0,0:0:0:0:
320,314,234244,6,0,P|319:341|311:367,2,53.9999983520508,2|8|8,3:2|0:0|0:0,0:0:0:0:
320,314,234856,2,0,P|293:306|267:302,1,53.9999983520508,8|0,1:0|0:0,0:0:0:0:
152,238,235161,2,0,P|176:229|205:227,1,53.9999983520508,10|0,0:0|0:0,0:0:0:0:
204,226,235468,6,0,P|171:186|198:142,1,107.999996704102,14|0,0:0|0:0,0:0:0:0:
338,100,235927,1,0,0:0:0:0:
338,100,236080,2,0,P|306:94|286:78,1,53.9999983520508,8|0,1:0|0:0,0:0:0:0:
190,29,236386,2,0,P|167:43|141:47,1,53.9999983520508,2|0,0:0|0:0,0:0:0:0:
17,126,236692,5,2,3:2:0:0:
90,121,236845,1,8,0:0:0:0:
153,165,236998,2,0,L|159:226,1,53.9999983520508,8|0,0:0|0:0,0:0:0:0:
136,351,237304,2,0,L|185:314,1,53.9999983520508,8|0,1:0|0:0,0:0:0:0:
304,272,237610,2,0,L|247:246,1,53.9999983520508,10|0,0:0|0:0,0:0:0:0:
390,350,237917,6,0,B|410:302|410:302|386:238,1,107.999996704102,14|0,0:0|0:0,0:0:0:0:
309,143,238376,1,0,0:0:0:0:
309,143,238529,2,0,P|332:155|359:153,1,53.9999983520508,8|0,1:0|0:0,0:0:0:0:
293,46,238835,1,2,0:0:0:0:
209,60,238988,1,2,0:0:0:0:
209,60,239142,6,0,P|218:91|218:114,2,53.9999983520508,2|8|8,3:2|0:0|0:0,0:0:0:0:
209,60,239754,2,0,P|186:74|159:77,1,53.9999983520508,8|0,1:0|0:0,0:0:0:0:
24,111,240059,2,0,P|50:114|73:128,1,53.9999983520508,10|0,0:0|0:0,0:0:0:0:
73,128,240366,6,0,B|68:167|68:167|82:193|82:193|76:245,1,107.999996704102,14|0,0:0|0:0,0:0:0:0:
112,376,240825,1,0,0:0:0:0:
112,376,240978,2,0,P|119:350|135:322,1,53.9999983520508,8|0,1:0|0:0,0:0:0:0:
238,277,241284,2,0,P|230:251|217:227,1,53.9999983520508,2|0,0:0|0:0,0:0:0:0:
143,111,241591,5,2,3:2:0:0:
216,130,241744,1,8,0:0:0:0:
288,107,241897,2,0,P|300:83|303:56,1,53.9999983520508,8|0,0:0|0:0,0:0:0:0:
303,56,242203,1,8,1:0:0:0:
407,4,242509,1,10,0:0:0:0:
512,162,242815,6,0,P|486:169|453:173,1,53.9999983520508,14|0,0:0|0:0,0:0:0:0:
397,258,243121,2,0,P|371:249|344:246,1,53.9999983520508,2|0,0:0|0:0,0:0:0:0:
196,173,243428,2,0,P|242:193|242:244,1,107.999996704102,8|0,1:0|0:0,0:0:0:0:
241,244,243886,1,0,0:0:0:0:
186,323,244040,6,0,P|178:348|191:398,2,53.9999983520508,2|8|8,3:2|0:0|0:0,0:0:0:0:
186,323,244652,2,0,L|238:333,1,53.9999983520508,8|0,1:0|0:0,0:0:0:0:
108,271,244957,2,0,L|55:282,1,53.9999983520508,10|0,0:0|0:0,0:0:0:0:
55,281,245264,6,0,B|77:218|17:244|62:148,1,107.999996704102,14|0,0:0|0:0,0:0:0:0:
103,78,245723,1,0,0:0:0:0:
103,78,245876,2,0,P|99:51|88:26,1,53.9999983520508,8|0,1:0|0:0,0:0:0:0:
199,86,246182,2,0,P|188:110|184:137,1,53.9999983520508,10|0,0:0|0:0,0:0:0:0:
202,277,246489,5,2,3:2:0:0:
247,216,246642,1,8,0:0:0:0:
318,190,246795,2,0,L|371:199,1,53.9999983520508,8|0,0:0|0:0,0:0:0:0:
512,252,247100,2,0,L|438:265,1,53.9999983520508,8|0,1:0|0:0,0:0:0:0:
316,315,247406,2,0,L|389:328,1,53.9999983520508,10|0,0:0|0:0,0:0:0:0:
369,324,247713,5,2,0:0:0:0:
247,216,248019,2,0,P|223:203|196:201,1,53.9999983520508,8|0,1:0|0:0,0:0:0:0:
48,179,248325,2,0,P|74:177|98:164,1,53.9999983520508,8|0,1:0|0:0,0:0:0:0:
197,72,248630,1,10,0:0:0:0:
197,72,248784,1,8,0:0:0:0:
197,72,248937,5,8,3:0:0:0:
265,17,249090,1,8,3:0:0:0:
353,19,249243,1,8,3:0:0:0:
432,56,249396,1,8,3:0:0:0:
432,56,249548,2,0,P|444:79|446:106,1,53.9999983520508,8|0,1:0|0:0,0:0:0:0:
326,182,249855,2,0,P|313:205|311:232,1,53.9999983520508,8|0,1:0|0:0,0:0:0:0:
311,232,250161,5,14,0:0:0:0:
256,192,250314,12,0,261182,0:0:0:0:
