osu file format v14

[General]
AudioFilename: audio.mp3
AudioLeadIn: 0
PreviewTime: 44170
Countdown: 0
SampleSet: Soft
StackLeniency: 0.4
Mode: 0
LetterboxInBreaks: 0
WidescreenStoryboard: 1

[Editor]
DistanceSpacing: 0.8
BeatDivisor: 2
GridSize: 4
TimelineZoom: 1.8

[Metadata]
Title:Precious You*
TitleUnicode:Precious You☆
Artist:Fujita Akane, Miyamoto Yume, Ozawa Ari
ArtistUnicode:藤田 茜、宮本侑芽、小澤亜李
Creator:Koiyuki
Version:Normal
Source:ロクでなし魔術講師と禁忌教典
Tags:akashic records of bastard magic instructor rokudenashi majutsu koushi to kinki kyouten tv size anime ending white cat mtbbsben minakami yuki システィーナ=フィーベル Sistine Fibel ルミア=ティンジェル Rumia Tingel リィエル=レイフォード Riel Reyford
BeatmapID:1301329
BeatmapSetID:617120

[Difficulty]
HPDrainRate:4
CircleSize:3.6
OverallDifficulty:4
ApproachRate:5.5
SliderMultiplier:1.2
SliderTickRate:1

[Events]
//Background and Video events
Video,0,"optc.flv"
0,0,"bg.jpg",0,0
//Break Periods
//Storyboard Layer 0 (Background)
//Storyboard Layer 1 (Fail)
//Storyboard Layer 2 (Pass)
//Storyboard Layer 3 (Foreground)
//Storyboard Sound Samples

[TimingPoints]
-1060,461.538461538462,4,3,0,60,1,0
786,-100,4,2,1,35,0,0
13709,-100,4,2,1,45,0,0
30324,-100,4,2,1,35,0,0
35863,-100,4,2,1,45,0,0
37709,-100,4,2,1,50,0,0
44170,-100,4,2,1,30,0,0
44632,-100,4,2,1,60,0,0
45093,-100,4,2,1,60,0,1
59632,-100,4,2,1,60,0,0
59863,-100,4,2,1,60,0,1
74632,-100,4,2,1,50,0,0
87786,-100,4,2,1,20,0,0

[Colours]
Combo1 : 174,255,174
Combo2 : 233,233,233
Combo3 : 255,176,138
Combo4 : 15,135,255

[HitObjects]
258,195,324,6,0,L|265:258,1,60
251,301,786,6,0,P|292:286|337:280,2,90,2|2|2,0:0|0:0|0:0,0:0:0:0:
224,340,1709,2,0,L|102:329,1,120,2|0,0:0|0:0,0:0:0:0:
80,211,2632,2,0,P|36:201|-1:175,2,90,2|2|2,0:0|0:0|0:0,0:0:0:0:
119,183,3555,2,0,P|195:152|265:216,1,180,2|2,0:0|0:0,0:0:0:0:
231,245,4478,6,0,L|219:348,2,90,2|2|2,0:0|0:0|0:0,0:0:0:0:
263,209,5401,2,0,P|312:240|377:240,1,120,2|0,0:0|0:0,0:0:0:0:
349,123,6324,2,0,P|393:101|441:98,2,90,2|2|2,0:0|0:0|0:0,0:0:0:0:
313,154,7247,2,0,P|318:72|223:33,1,180,2|2,0:0|0:0,0:0:0:0:
212,68,8170,6,0,P|170:84|126:81,2,90,2|2|2,0:0|0:0|0:0,0:0:0:0:
240,29,9093,2,0,L|369:35,1,120,2|0,0:0|0:0,0:0:0:0:
457,104,10016,2,0,P|475:63|476:18,2,90,2|2|2,0:0|0:0|0:0,0:0:0:0:
430,143,10939,2,0,B|423:192|459:224|459:224|473:275|448:326,1,180,2|2,0:0|0:0,0:0:0:0:
417,343,11862,6,0,P|339:371|306:296,1,180,2|2,0:0|0:0,0:0:0:0:
296,249,12786,2,0,P|218:222|185:297,1,180,2|0,0:0|0:0,0:0:0:0:
200,342,13709,6,0,P|142:327|71:325,2,120,2|8|0,0:0|0:0|0:0,0:0:0:0:
315,309,15093,2,0,L|308:234,1,60,8|0,0:0|0:0,0:0:0:0:
341,213,15555,6,0,P|353:155|328:101,1,120,6|8,0:0|0:0,0:0:0:0:
289,74,16247,1,0,0:0:0:0:
289,74,16478,2,0,L|170:87,1,120,2|8,0:0|0:0,0:0:0:0:
68,20,17401,2,0,P|50:76|59:135,1,120,2|8,0:0|0:0,0:0:0:0:
88,173,18093,1,0,0:0:0:0:
88,173,18324,2,0,P|106:229|97:288,1,120,2|8,0:0|0:0,0:0:0:0:
202,346,19247,6,0,P|255:319|314:321,1,120,2|8,0:0|0:0,0:0:0:0:
340,361,19939,1,0,0:0:0:0:
340,361,20170,2,0,L|405:367,1,60,2|0,0:0|0:0,0:0:0:0:
447,357,20632,2,0,P|470:331|483:303,1,60,8|0,0:0|0:0,0:0:0:0:
469,261,21093,2,0,P|456:198|482:128,2,120,2|8|2,0:0|0:0|0:0,0:0:0:0:
353,229,22478,2,0,L|349:161,1,60,8|0,0:0|0:0,0:0:0:0:
381,133,22939,6,0,P|394:70|368:0,1,120,2|8,0:0|0:0,0:0:0:0:
331,10,23632,1,0,0:0:0:0:
331,10,23862,2,0,L|211:20,1,120,2|8,0:0|0:0,0:0:0:0:
150,123,24786,2,0,P|97:150|40:137,1,120,2|8,0:0|0:0,0:0:0:0:
9,94,25478,1,0,0:0:0:0:
9,94,25709,2,0,L|20:224,1,120,2|8,0:0|0:0,0:0:0:0:
108,292,26632,6,0,P|56:326|0:329,2,120,2|8|2,0:0|0:0|0:0,0:0:0:0:
127,247,27786,1,0,0:0:0:0:
116,200,28016,2,0,L|196:208,1,60,8|0,0:0|0:0,0:0:0:0:
213,236,28478,2,0,B|260:230|260:230|290:238|290:238|357:230,1,120,2|8,0:0|0:0,0:0:0:0:
433,170,29401,2,0,L|502:177,2,60,8|8|8,3:0|3:0|1:0,0:0:0:0:
434,289,30324,6,0,P|342:334|330:233,1,240,4|0,0:0|3:0,0:0:0:0:
433,170,31709,2,0,L|427:102,1,60,8|0,1:0|0:0,0:0:0:0:
460,75,32170,6,0,B|382:61|382:61|308:88|308:88|218:72,1,240,0|8,3:0|0:0,0:0:0:0:
128,4,33555,2,0,P|113:31|107:60,1,60,8|0,1:0|0:0,0:0:0:0:
117,107,34016,6,0,B|62:109|23:74|23:74|67:131|60:223,1,240,4|8,0:0|0:0,0:0:0:0:
16,315,35401,2,0,L|82:322,1,60,8|0,1:0|0:0,0:0:0:0:
116,347,35862,5,12,0:0:0:0:
163,340,36093,1,4,0:0:0:0:
210,334,36324,1,12,0:0:0:0:
256,328,36555,2,0,P|288:250|220:201,1,180,4|8,0:0|0:0,0:0:0:0:
102,224,37709,6,0,P|101:164|116:106,1,120,2|8,0:0|0:0,0:0:0:0:
196,17,38632,2,0,P|256:16|314:31,1,120,2|8,0:0|0:0,0:0:0:0:
424,78,39555,2,0,P|425:138|410:196,1,120,2|8,0:0|0:0,0:0:0:0:
380,233,40247,1,0,0:0:0:0:
380,233,40478,2,0,L|506:222,1,120,2|8,0:0|0:0,0:0:0:0:
486,341,41401,6,0,L|366:351,1,120,4|0,0:0|0:0,0:0:0:0:
324,328,42093,2,0,P|299:345|272:357,1,60,0|0,1:0|1:0,0:0:0:0:
224,352,42555,1,0,1:0:0:0:
224,352,42786,2,0,L|215:292,1,60,8|4,0:0|1:0,0:0:0:0:
182,257,43247,6,0,P|180:194|215:136,2,120,0|0|2,1:0|1:0|0:0,0:0:0:0:
290,307,44632,1,8,1:0:0:0:
348,205,45093,6,0,L|337:74,1,120,6|8,0:0|0:0,0:0:0:0:
357,41,45786,1,0,0:0:0:0:
357,41,46016,2,0,L|288:47,1,60,2|0,0:0|0:0,0:0:0:0:
252,64,46478,2,0,L|192:54,1,60,8|0,0:0|0:0,0:0:0:0:
156,20,46939,2,0,P|98:16|43:45,1,120,2|8,0:0|0:0,0:0:0:0:
27,162,47862,2,0,P|85:166|140:137,1,120,2|10,0:0|0:0,0:0:0:0:
255,172,48786,6,0,B|270:220|270:220|259:309,1,120,2|8,0:0|0:0,0:0:0:0:
240,332,49478,1,0,0:0:0:0:
240,332,49709,2,0,P|284:324|315:311,1,60,2|0,0:0|0:0,0:0:0:0:
341,298,50170,2,0,P|385:306|416:319,1,60,10|0,0:0|0:0,0:0:0:0:
434,344,50632,2,0,P|472:298|479:239,1,120,2|8,0:0|0:0,0:0:0:0:
385,164,51555,2,0,P|392:105|430:59,1,120,2|8,0:0|0:0,0:0:0:0:
471,35,52247,1,0,0:0:0:0:
471,35,52478,6,0,L|331:24,1,120,2|8,0:0|0:0,0:0:0:0:
255,97,53401,2,0,L|115:86,1,120,2|10,0:0|0:0,0:0:0:0:
28,33,54324,2,0,L|37:102,1,60,2|0,0:0|0:0,0:0:0:0:
16,136,54786,2,0,L|25:205,1,60,8|0,0:0|0:0,0:0:0:0:
4,239,55247,2,0,L|13:308,1,60,2|0,0:0|0:0,0:0:0:0:
50,327,55709,1,8,0:0:0:0:
93,306,55939,1,0,0:0:0:0:
131,334,56170,6,0,P|185:356|245:353,1,120,2|8,0:0|0:0,0:0:0:0:
306,250,57093,2,0,P|360:227|420:230,1,120,2|8,0:0|0:0,0:0:0:0:
480,334,58016,2,0,P|425:356|365:353,1,120,0|8,1:0|0:0,0:0:0:0:
306,250,58939,2,0,L|317:174,1,60,8|8,0:0|0:0,0:0:0:0:
305,143,59401,1,12,1:0:0:0:
296,95,59632,1,0,0:0:0:0:
287,47,59862,6,0,P|343:67|406:63,1,120,6|8,0:0|0:0,0:0:0:0:
445,43,60555,1,0,0:0:0:0:
445,43,60786,2,0,L|427:161,1,120,2|8,0:0|0:0,0:0:0:0:
498,257,61709,2,0,P|443:280|379:272,1,120,2|8,0:0|0:0,0:0:0:0:
341,252,62401,1,0,0:0:0:0:
341,252,62632,2,0,L|351:323,1,60,2|2,0:0|0:0,0:0:0:0:
320,349,63093,2,0,P|293:339|262:336,1,60,10|2,0:0|0:0,0:0:0:0:
221,310,63555,6,0,P|175:347|117:350,1,120,2|8,0:0|0:0,0:0:0:0:
72,331,64247,1,0,0:0:0:0:
72,331,64478,2,0,B|58:282|58:282|74:188,1,120,2|10,0:0|0:0,0:0:0:0:
186,184,65401,2,0,B|200:135|200:135|184:41,1,120,2|8,0:0|0:0,0:0:0:0:
85,4,66324,1,2,0:0:0:0:
21,105,66786,2,0,L|84:113,1,60,10|0,0:0|0:0,0:0:0:0:
121,137,67247,6,0,P|167:108|245:104,1,120,2|8,0:0|0:0,0:0:0:0:
321,181,68170,2,0,P|323:235|287:304,1,120,2|8,0:0|0:0,0:0:0:0:
182,332,69093,2,0,P|133:306|91:241,1,120,2|8,0:0|0:0,0:0:0:0:
69,214,69786,1,0,0:0:0:0:
69,214,70016,2,0,L|63:144,1,60,2|0,0:0|0:0,0:0:0:0:
61,106,70478,1,8,0:0:0:0:
166,49,70939,6,0,P|225:51|277:80,1,120,6|8,0:0|0:0,0:0:0:0:
299,123,71632,1,0,0:0:0:0:
308,169,71862,2,0,L|320:298,1,120,2|8,0:0|0:0,0:0:0:0:
347,327,72555,1,0,0:0:0:0:
393,338,72786,2,0,P|437:334|476:311,2,90,4|4|4,0:0|0:0|0:0,0:0:0:0:
133,192,74632,6,0,P|80:185|12:220,2,120,4|8|2,0:0|0:0|0:0,0:0:0:0:
229,262,76016,2,0,L|221:328,1,60,8|2,0:0|0:0,0:0:0:0:
194,361,76478,2,0,B|244:349|244:349|337:360,1,120,2|8,0:0|0:0,0:0:0:0:
430,338,77401,2,0,P|461:287|455:215,1,120,2|8,0:0|0:0,0:0:0:0:
435,186,78093,1,2,0:0:0:0:
435,186,78324,6,0,P|434:126|465:76,2,120,2|8|2,0:0|0:0|0:0,0:0:0:0:
485,295,79709,2,0,L|410:287,1,60,8|2,0:0|0:0,0:0:0:0:
384,262,80170,2,0,L|261:274,1,120,2|8,0:0|0:0,0:0:0:0:
154,322,81093,2,0,P|142:265|163:210,1,120,2|8,0:0|0:0,0:0:0:0:
193,172,81786,1,2,0:0:0:0:
193,172,82016,6,0,L|73:160,1,120,2|8,0:0|0:0,0:0:0:0:
29,48,82939,2,0,L|149:60,1,120,2|8,0:0|0:0,0:0:0:0:
255,114,83862,2,0,P|313:106|361:71,2,120,2|8|2,0:0|0:0|0:0,0:0:0:0:
148,59,85247,2,0,L|155:119,1,60,8|2,0:0|0:0,0:0:0:0:
133,161,85709,5,2,0:0:0:0:
237,220,86170,2,0,L|230:279,1,60,8|2,0:0|0:0,0:0:0:0:
247,325,86632,2,0,P|304:331|363:301,1,120,2|8,0:0|3:0,0:0:0:0:
386,264,87324,1,0,0:0:0:0:
386,264,87555,6,0,B|386:160|354:56|354:56|418:133|504:138,1,360,2|0,0:0|0:0,0:0:0:0:
