osu file format v14

[General]
AudioFilename: audio.mp3
AudioLeadIn: 0
PreviewTime: 44170
Countdown: 0
SampleSet: Soft
StackLeniency: 0.4
Mode: 0
LetterboxInBreaks: 0
WidescreenStoryboard: 1

[Editor]
DistanceSpacing: 1.2
BeatDivisor: 2
GridSize: 4
TimelineZoom: 1.1

[Metadata]
Title:Precious You*
TitleUnicode:Precious You☆
Artist:Fujita Akane, Miyamoto Yume, Ozawa Ari
ArtistUnicode:藤田 茜、宮本侑芽、小澤亜李
Creator:Koiyuki
Version:Easy
Source:ロクでなし魔術講師と禁忌教典
Tags:akashic records of bastard magic instructor rokudenashi majutsu koushi to kinki kyouten tv size anime ending white cat mtbbsben minakami yuki システィーナ=フィーベル Sistine Fibel ルミア=ティンジェル Rumia Tingel リィエル=レイフォード Riel Reyford
BeatmapID:1301327
BeatmapSetID:617120

[Difficulty]
HPDrainRate:2
CircleSize:3
OverallDifficulty:2
ApproachRate:3.2
SliderMultiplier:0.9
SliderTickRate:1

[Events]
//Background and Video events
Video,0,"optc.flv"
0,0,"bg.jpg",0,0
//Break Periods
//Storyboard Layer 0 (Background)
//Storyboard Layer 1 (Fail)
//Storyboard Layer 2 (Pass)
//Storyboard Layer 3 (Foreground)
//Storyboard Sound Samples

[TimingPoints]
-1060,461.538461538462,4,3,0,60,1,0
786,-100,4,2,1,35,0,0
15555,-100,4,2,1,45,0,0
17632,-100,4,2,2,45,0,0
18093,-100,4,2,1,45,0,0
26862,-100,4,2,2,45,0,0
27324,-100,4,2,1,45,0,0
30324,-100,4,2,1,35,0,0
35863,-100,4,2,1,45,0,0
37709,-100,4,2,1,50,0,0
44170,-100,4,2,1,30,0,0
44632,-100,4,2,1,60,0,0
45093,-100,4,2,1,60,0,1
59632,-100,4,2,1,60,0,0
59863,-100,4,2,1,60,0,1
67478,-100,4,2,2,60,0,1
67939,-100,4,2,1,60,0,1
68401,-100,4,2,2,60,0,1
68862,-100,4,2,1,60,0,1
74632,-100,4,2,1,50,0,0
76709,-100,4,2,2,50,0,0
77170,-100,4,2,1,50,0,0
80401,-100,4,2,2,50,0,0
80862,-100,4,2,1,50,0,0
84093,-100,4,2,2,50,0,0
84555,-100,4,2,1,50,0,0
87786,-100,4,2,1,20,0,0

[Colours]
Combo1 : 174,255,174
Combo2 : 233,233,233
Combo3 : 255,176,138
Combo4 : 15,135,255

[HitObjects]
444,307,324,6,0,L|437:250,1,45,0|0,0:0|0:0,0:0:0:0:
409,216,786,6,0,P|412:172|428:130,1,90,2|0,0:0|0:0,0:0:0:0:
497,46,1709,2,0,P|456:26|409:24,1,90,2|0,0:0|0:0,0:0:0:0:
314,69,2632,2,0,B|249:6|140:39|140:39|187:67|195:122,1,270,2|0,0:0|0:0,0:0:0:0:
86,132,4478,6,0,P|41:132|0:117,2,90,2|0|2,0:0|0:0|0:0,0:0:0:0:
192,108,5862,1,0,0:0:0:0:
261,25,6324,2,0,P|291:148|184:215,1,270,2|0,0:0|0:0,0:0:0:0:
82,252,8170,6,0,L|90:342,1,90,2|0,0:0|0:0,0:0:0:0:
192,305,9093,2,0,L|184:215,1,90,2|0,0:0|0:0,0:0:0:0:
100,146,10016,2,0,B|79:99|19:86|19:86|31:17|103:-7|159:41,1,270,2|0,0:0|0:0,0:0:0:0:
245,69,11862,6,0,L|344:56,1,90,2|0,0:0|0:0,0:0:0:0:
435,18,12786,2,0,L|448:117,1,90,2|0,0:0|0:0,0:0:0:0:
504,198,13709,2,0,P|502:242|483:283,2,90,2|8|0,0:0|0:0|0:0,0:0:0:0:
446,107,15093,1,8,0:0:0:0:
360,40,15555,6,0,P|342:80|340:125,1,90,6|8,0:0|0:0,0:0:0:0:
364,230,16478,2,0,L|271:221,1,90,2|8,0:0|0:0,0:0:0:0:
195,147,17401,2,0,B|126:152|126:152|92:172|92:172|20:178,1,180,2|2,0:0|0:0,0:0:0:0:
56,76,18786,1,8,0:0:0:0:
153,28,19247,6,0,P|197:29|238:47,1,90,2|8,0:0|0:0,0:0:0:0:
195,147,20170,2,0,L|201:244,1,90,2|8,0:0|0:0,0:0:0:0:
303,270,21093,1,2,0:0:0:0:
223,342,21555,1,8,0:0:0:0:
120,309,22016,2,0,P|75:309|34:327,1,90,2|8,0:0|0:0,0:0:0:0:
5,223,22939,6,0,L|17:131,1,90,2|8,0:0|0:0,0:0:0:0:
112,182,23862,2,0,L|124:90,1,90,2|8,0:0|0:0,0:0:0:0:
206,23,24786,2,0,P|243:49|287:58,1,90,2|8,0:0|0:0,0:0:0:0:
394,76,25709,2,0,P|430:50|474:41,1,90,2|8,0:0|0:0,0:0:0:0:
471,149,26632,6,0,B|494:206|494:206|479:334,1,180,2|2,0:0|0:0,0:0:0:0:
377,357,28016,1,8,0:0:0:0:
310,271,28478,2,0,P|262:274|223:292,2,90,2|8|8,0:0|0:0|3:0,0:0:0:0:
377,357,29862,1,8,1:0:0:0:
480,323,30324,6,0,P|492:236|438:168,1,180,4|0,0:0|3:0,0:0:0:0:
336,131,31709,1,8,1:0:0:0:
375,30,32170,2,0,B|306:22|306:22|257:67|172:58,1,180,0|8,3:0|0:0,0:0:0:0:
105,16,33555,1,8,1:0:0:0:
12,71,34016,6,0,B|26:138|26:138|17:184|17:184|32:257,1,180,4|8,0:0|0:0,0:0:0:0:
111,318,35401,1,8,1:0:0:0:
188,242,35862,2,0,P|217:301|207:367,2,135,12|4|8,0:0|0:0|0:0,0:0:0:0:
287,199,37709,6,0,P|289:151|306:112,2,90,2|8|2,0:0|0:0|0:0,0:0:0:0:
388,235,39093,1,8,0:0:0:0:
489,197,39555,2,0,L|480:103,1,90,2|8,0:0|0:0,0:0:0:0:
436,9,40478,2,0,P|402:38|360:52,1,90,2|8,0:0|0:0,0:0:0:0:
261,96,41401,6,0,B|207:50|138:67|138:67|119:119|63:148,1,225,4|0,0:0|1:0,0:0:0:0:
29,42,43016,2,0,P|80:147|34:257,1,225,4|2,1:0|0:0,0:0:0:0:
82,346,44632,1,8,1:0:0:0:
171,285,45093,6,0,L|263:294,1,90,6|8,0:0|0:0,0:0:0:0:
343,362,46016,2,0,L|432:353,1,90,2|8,0:0|0:0,0:0:0:0:
498,266,46939,2,0,P|514:225|514:180,1,90,2|8,0:0|0:0,0:0:0:0:
409,204,47862,2,0,P|392:162|392:117,1,90,2|10,0:0|0:0,0:0:0:0:
423,13,48786,6,0,L|520:23,2,90,2|8|2,0:0|0:0|0:0,0:0:0:0:
317,39,50170,1,10,0:0:0:0:
211,63,50632,2,0,L|121:53,1,90,2|8,0:0|0:0,0:0:0:0:
24,6,51555,2,0,P|13:54|19:95,1,90,2|8,0:0|0:0,0:0:0:0:
102,162,52478,6,0,P|112:205|107:249,1,90,2|8,0:0|0:0,0:0:0:0:
16,309,53401,2,0,P|47:341|89:355,1,90,2|10,0:0|0:0,0:0:0:0:
191,319,54324,2,0,L|281:307,2,90,2|8|2,0:0|0:0|0:0,0:0:0:0:
107,249,55709,1,8,0:0:0:0:
147,149,56170,6,0,L|237:137,1,90,2|8,0:0|0:0,0:0:0:0:
343,150,57093,2,0,L|331:60,1,90,2|8,0:0|0:0,0:0:0:0:
434,28,58016,2,0,L|446:118,1,90,0|8,1:0|0:0,0:0:0:0:
501,209,58940,1,8,0:0:0:0:
448,303,59401,1,12,1:0:0:0:
392,211,59863,6,0,P|347:212|307:233,1,90,6|8,0:0|0:0,0:0:0:0:
326,339,60786,2,0,P|281:337|241:316,1,90,2|8,0:0|0:0,0:0:0:0:
140,278,61709,2,0,L|132:374,1,90,2|8,0:0|0:0,0:0:0:0:
31,328,62632,2,0,L|38:238,1,90,2|10,0:0|0:0,0:0:0:0:
95,145,63555,6,0,P|54:129|9:132,2,90,2|8|2,0:0|0:0|0:0,0:0:0:0:
168,225,64939,1,10,0:0:0:0:
240,305,65401,2,0,L|349:298,1,90,2|8,0:0|0:0,0:0:0:0:
364,196,66324,2,0,L|274:201,1,90,2|10,0:0|0:0,0:0:0:0:
168,225,67247,6,0,B|138:187|144:143|144:143|184:101|180:36,2,180,2|2|2,0:0|0:0|0:0,0:0:0:0:
264,273,69555,1,8,0:0:0:0:
363,231,70016,2,0,L|357:141,1,90,2|8,0:0|0:0,0:0:0:0:
447,82,70939,6,0,P|418:49|376:35,1,90,6|8,0:0|0:0,0:0:0:0:
274,71,71862,2,0,P|240:100|196:108,1,90,2|8,0:0|0:0,0:0:0:0:
93,77,72786,2,0,L|104:-8,2,67.5,4|4|4,0:0|0:0|0:0,0:0:0:0:
11,333,74632,6,0,P|49:310|93:303,1,90,4|8,0:0|0:0,0:0:0:0:
197,333,75555,2,0,P|235:356|279:363,1,90,2|8,0:0|0:0,0:0:0:0:
385,343,76478,2,0,B|433:304|437:271|437:271|410:218|433:169,1,180,2|2,0:0|0:0,0:0:0:0:
500,105,77862,1,8,0:0:0:0:
454,7,78324,6,0,L|352:18,1,90,2|8,0:0|0:0,0:0:0:0:
295,98,79247,2,0,L|205:88,1,90,2|8,0:0|0:0,0:0:0:0:
113,28,80170,2,0,P|30:48|12:132,1,180,2|2,0:0|0:0,0:0:0:0:
58,230,81555,1,8,0:0:0:0:
153,180,82016,6,0,B|165:217|165:217|155:271,1,90,2|8,0:0|0:0,0:0:0:0:
100,360,82939,2,0,B|137:372|137:372|191:362,1,90,2|8,0:0|0:0,0:0:0:0:
270,294,83862,2,0,B|340:264|340:264|461:274,1,180,2|2,0:0|0:0,0:0:0:0:
503,182,85247,1,8,0:0:0:0:
464,81,85709,6,0,P|424:60|380:59,1,90,2|8,0:0|0:0,0:0:0:0:
298,131,86632,2,0,P|258:151|214:152,1,90,2|8,0:0|3:0,0:0:0:0:
130,82,87555,2,0,B|79:141|127:227|127:227|193:253|206:328,1,270,2|0,0:0|0:0,0:0:0:0:
