osu file format v14

[General]
AudioFilename: Fujita Akane, Miyamoto Yume, Ozawa Ari - Precious You.mp3
AudioLeadIn: 0
PreviewTime: 44451
Countdown: 0
SampleSet: Normal
StackLeniency: 0.7
Mode: 1
LetterboxInBreaks: 0
WidescreenStoryboard: 1

[Editor]
DistanceSpacing: 2.1
BeatDivisor: 4
GridSize: 32
TimelineZoom: 2.1

[Metadata]
Title:Precious You*
TitleUnicode:Precious You☆
Artist:Fujita Akane, Miyamoto Yume, Ozawa Ari
ArtistUnicode:藤田 茜、宮本侑芽、小澤亜李
Creator:aabc271
Version:Oni
Source:ロクでなし魔術講師と禁忌教典
Tags:Taiko anime ED ending rokuaka Akashic Records of Bastard Magic Instructor Roku de Nashi Majutsu Kōshi to Akashikku Rekōdo Koshi Rekodo 2017
BeatmapID:1699035
BeatmapSetID:809709

[Difficulty]
HPDrainRate:4
CircleSize:5
OverallDifficulty:5
ApproachRate:7
SliderMultiplier:1.4
SliderTickRate:1

[Events]
//Background and Video events
0,0,"BG.png",0,25
//Break Periods
//Storyboard Layer 0 (Background)
//Storyboard Layer 1 (Fail)
//Storyboard Layer 2 (Pass)
//Storyboard Layer 3 (Foreground)
//Storyboard Sound Samples

[TimingPoints]
1182,461.538461538462,4,1,0,88,1,0
1182,-104.166666666667,4,1,0,88,0,0
12720,-103.092783505155,4,1,0,88,0,0
13643,-102.040816326531,4,1,0,88,0,0
14451,-101.010101010101,4,1,0,88,0,0
15951,-100,4,1,0,80,0,0
31182,-102.040816326531,4,1,0,80,0,0
38105,-102.040816326531,4,1,0,84,0,0
38451,-100,4,1,0,84,0,0
44797,-99.502487562189,4,1,0,84,0,0
45028,-99.009900990099,4,1,0,84,0,0
45258,-98.522167487685,4,1,0,84,0,0
45489,-98.039215686275,4,1,0,90,0,1
59335,-98.039215686275,4,1,0,90,0,0
60258,-98.039215686275,4,1,0,90,0,1
74105,-98.039215686275,4,1,0,45,0,0
74912,-100,4,1,0,88,0,0
88182,-100,4,1,0,44,0,0

[HitObjects]
256,192,1182,5,0,0:0:0:0:
256,192,1412,1,0,0:0:0:0:
256,192,1643,5,8,0:0:0:0:
256,192,2105,1,8,0:0:0:0:
256,192,2566,5,0,0:0:0:0:
256,192,3028,1,0,0:0:0:0:
256,192,3720,5,8,0:0:0:0:
256,192,4412,1,8,0:0:0:0:
256,192,4874,5,0,0:0:0:0:
256,192,5105,1,0,0:0:0:0:
256,192,5335,5,8,0:0:0:0:
256,192,5797,1,8,0:0:0:0:
256,192,6258,5,0,0:0:0:0:
256,192,6720,1,0,0:0:0:0:
256,192,6951,5,8,0:0:0:0:
256,192,7182,1,8,0:0:0:0:
256,192,7412,5,0,0:0:0:0:
256,192,7643,1,0,0:0:0:0:
256,192,8105,5,8,0:0:0:0:
256,192,8566,5,0,0:0:0:0:
256,192,8797,1,0,0:0:0:0:
256,192,9028,5,8,0:0:0:0:
256,192,9489,1,8,0:0:0:0:
256,192,9951,5,0,0:0:0:0:
256,192,10412,1,0,0:0:0:0:
256,192,11105,5,8,0:0:0:0:
256,192,11797,1,8,0:0:0:0:
256,192,12028,5,0,0:0:0:0:
256,192,12258,1,0,0:0:0:0:
256,192,12720,5,8,0:0:0:0:
256,192,12951,5,0,0:0:0:0:
256,192,13182,5,8,0:0:0:0:
256,192,13643,5,0,0:0:0:0:
256,192,13874,5,8,0:0:0:0:
256,192,14105,5,0,0:0:0:0:
256,192,14451,1,0,0:0:0:0:
256,192,14566,5,8,0:0:0:0:
256,192,14797,5,0,0:0:0:0:
256,192,15028,1,0,0:0:0:0:
256,192,15258,1,0,0:0:0:0:
256,192,15489,5,8,0:0:0:0:
256,192,15951,5,0,0:0:0:0:
256,192,16182,5,8,0:0:0:0:
256,192,16412,1,8,0:0:0:0:
256,192,16643,5,0,0:0:0:0:
256,192,16874,1,0,0:0:0:0:
256,192,17220,1,0,0:0:0:0:
256,192,17335,5,8,0:0:0:0:
256,192,17566,1,8,0:0:0:0:
256,192,17797,5,0,0:0:0:0:
256,192,18028,5,8,0:0:0:0:
256,192,18258,1,8,0:0:0:0:
256,192,18489,5,0,0:0:0:0:
256,192,18720,1,0,0:0:0:0:
256,192,19066,1,0,0:0:0:0:
256,192,19182,5,8,0:0:0:0:
256,192,19412,1,8,0:0:0:0:
256,192,19643,5,0,0:0:0:0:
256,192,19874,5,8,0:0:0:0:
256,192,20105,1,8,0:0:0:0:
256,192,20335,5,0,0:0:0:0:
256,192,20566,5,8,0:0:0:0:
256,192,20912,1,8,0:0:0:0:
256,192,21028,5,0,0:0:0:0:
256,192,21258,1,0,0:0:0:0:
256,192,21489,5,8,0:0:0:0:
256,192,21720,5,0,0:0:0:0:
256,192,21835,1,0,0:0:0:0:
256,192,21951,5,8,0:0:0:0:
256,192,22182,1,8,0:0:0:0:
256,192,22412,1,8,0:0:0:0:
256,192,22643,5,0,0:0:0:0:
256,192,22874,5,8,0:0:0:0:
256,192,23335,5,0,0:0:0:0:
256,192,23566,5,8,0:0:0:0:
256,192,23797,1,8,0:0:0:0:
256,192,24028,5,0,0:0:0:0:
256,192,24258,5,8,0:0:0:0:
256,192,24605,5,0,0:0:0:0:
256,192,24720,5,8,0:0:0:0:
256,192,24951,1,8,0:0:0:0:
256,192,25182,5,0,0:0:0:0:
256,192,25412,5,8,0:0:0:0:
256,192,25643,1,8,0:0:0:0:
256,192,25874,5,0,0:0:0:0:
256,192,26105,5,8,0:0:0:0:
256,192,26451,5,0,0:0:0:0:
256,192,26566,5,8,0:0:0:0:
256,192,26797,1,8,0:0:0:0:
256,192,27028,5,0,0:0:0:0:
256,192,27258,5,8,0:0:0:0:
256,192,27489,1,8,0:0:0:0:
256,192,27720,5,0,0:0:0:0:
256,192,27951,1,0,0:0:0:0:
256,192,28297,1,0,0:0:0:0:
256,192,28412,5,8,0:0:0:0:
256,192,28643,1,8,0:0:0:0:
256,192,28874,5,0,0:0:0:0:
256,192,29105,5,8,0:0:0:0:
256,192,29335,5,0,0:0:0:0:
256,192,29566,1,0,0:0:0:0:
256,192,30028,1,0,0:0:0:0:
256,192,30258,1,0,0:0:0:0:
256,192,30489,5,8,0:0:0:0:
256,192,30720,1,12,0:0:0:0:
256,192,31412,5,0,0:0:0:0:
256,192,31643,1,0,0:0:0:0:
256,192,32105,5,8,0:0:0:0:
256,192,32566,5,0,0:0:0:0:
256,192,33258,1,0,0:0:0:0:
256,192,33489,5,8,0:0:0:0:
256,192,33951,5,0,0:0:0:0:
256,192,34412,5,8,0:0:0:0:
256,192,35105,5,0,0:0:0:0:
256,192,35335,1,0,0:0:0:0:
256,192,35797,5,8,0:0:0:0:
256,192,36258,5,0,0:0:0:0:
256,192,36489,5,8,0:0:0:0:
256,192,36720,5,0,0:0:0:0:
256,192,36951,5,8,0:0:0:0:
256,192,37412,1,8,0:0:0:0:
256,192,37643,5,0,0:0:0:0:
256,192,37874,1,0,0:0:0:0:
256,192,38105,1,4,0:0:0:0:
256,192,38451,1,0,0:0:0:0:
256,192,38566,1,0,0:0:0:0:
256,192,38797,5,8,0:0:0:0:
256,192,39028,1,8,0:0:0:0:
256,192,39258,5,0,0:0:0:0:
256,192,39374,1,0,0:0:0:0:
256,192,39489,5,8,0:0:0:0:
256,192,39720,5,0,0:0:0:0:
256,192,39951,5,8,0:0:0:0:
256,192,40297,1,8,0:0:0:0:
256,192,40412,5,0,0:0:0:0:
256,192,40643,1,0,0:0:0:0:
256,192,40874,5,8,0:0:0:0:
256,192,41105,1,8,0:0:0:0:
256,192,41220,1,8,0:0:0:0:
256,192,41335,5,0,0:0:0:0:
256,192,41797,5,8,0:0:0:0:
256,192,42028,1,0,0:0:0:0:
256,192,42143,1,0,0:0:0:0:
256,192,42258,5,8,0:0:0:0:
256,192,42489,5,0,0:0:0:0:
256,192,42720,1,0,0:0:0:0:
256,192,42951,5,8,0:0:0:0:
256,192,43412,1,12,0:0:0:0:
256,192,43874,1,8,0:0:0:0:
256,192,43989,5,0,0:0:0:0:
256,192,44105,5,8,0:0:0:0:
256,192,44220,1,8,0:0:0:0:
256,192,44335,5,0,0:0:0:0:
256,192,44566,5,8,0:0:0:0:
256,192,44797,5,0,0:0:0:0:
256,192,45028,5,8,0:0:0:0:
256,192,45258,5,0,0:0:0:0:
256,192,45489,5,12,0:0:0:0:
256,192,45951,5,4,0:0:0:0:
256,192,46412,5,8,0:0:0:0:
256,192,46643,5,0,0:0:0:0:
256,192,46758,1,0,0:0:0:0:
256,192,46874,5,8,0:0:0:0:
256,192,47105,5,0,0:0:0:0:
256,192,47566,1,0,0:0:0:0:
256,192,47797,5,8,0:0:0:0:
256,192,48028,5,0,0:0:0:0:
256,192,48258,5,8,0:0:0:0:
256,192,48489,1,8,0:0:0:0:
256,192,48605,1,8,0:0:0:0:
256,192,48720,5,0,0:0:0:0:
256,192,48951,5,8,0:0:0:0:
256,192,49182,1,8,0:0:0:0:
256,192,49643,5,0,0:0:0:0:
256,192,50105,5,8,0:0:0:0:
256,192,50335,5,0,0:0:0:0:
256,192,50451,1,0,0:0:0:0:
256,192,50566,5,8,0:0:0:0:
256,192,50797,1,8,0:0:0:0:
256,192,51258,5,0,0:0:0:0:
256,192,51489,5,8,0:0:0:0:
256,192,51720,1,8,0:0:0:0:
256,192,52182,1,8,0:0:0:0:
256,192,52412,5,0,0:0:0:0:
256,192,52643,1,0,0:0:0:0:
256,192,52874,5,8,0:0:0:0:
256,192,53105,5,0,0:0:0:0:
256,192,53335,5,8,0:0:0:0:
256,192,53451,5,0,0:0:0:0:
256,192,53566,1,0,0:0:0:0:
256,192,53797,5,8,0:0:0:0:
256,192,54028,5,0,0:0:0:0:
256,192,54258,5,8,0:0:0:0:
256,192,54374,1,8,0:0:0:0:
256,192,54489,5,0,0:0:0:0:
256,192,54720,5,12,0:0:0:0:
256,192,55182,1,12,0:0:0:0:
256,192,55643,5,4,0:0:0:0:
256,192,56105,1,0,0:0:0:0:
256,192,56335,5,8,0:0:0:0:
256,192,56566,1,8,0:0:0:0:
256,192,56797,5,0,0:0:0:0:
256,192,56912,1,0,0:0:0:0:
256,192,57028,5,8,0:0:0:0:
256,192,57258,5,0,0:0:0:0:
256,192,57489,1,0,0:0:0:0:
256,192,57720,5,8,0:0:0:0:
256,192,57951,5,0,0:0:0:0:
256,192,58182,5,8,0:0:0:0:
256,192,58412,1,8,0:0:0:0:
256,192,58528,5,0,0:0:0:0:
256,192,58758,1,0,0:0:0:0:
256,192,58874,5,8,0:0:0:0:
256,192,59105,5,0,0:0:0:0:
256,192,59335,5,8,0:0:0:0:
256,192,59566,5,0,0:0:0:0:
256,192,59797,5,8,0:0:0:0:
256,192,60028,5,0,0:0:0:0:
256,192,60258,5,12,0:0:0:0:
256,192,60720,5,4,0:0:0:0:
256,192,61182,5,8,0:0:0:0:
256,192,61412,5,0,0:0:0:0:
256,192,61528,1,0,0:0:0:0:
256,192,61643,5,8,0:0:0:0:
256,192,61874,5,0,0:0:0:0:
256,192,62335,1,0,0:0:0:0:
256,192,62566,5,8,0:0:0:0:
256,192,62797,5,0,0:0:0:0:
256,192,63028,5,8,0:0:0:0:
256,192,63258,1,8,0:0:0:0:
256,192,63374,1,8,0:0:0:0:
256,192,63489,5,0,0:0:0:0:
256,192,63720,5,8,0:0:0:0:
256,192,63951,1,8,0:0:0:0:
256,192,64297,5,0,0:0:0:0:
256,192,64412,1,0,0:0:0:0:
256,192,64643,5,8,0:0:0:0:
256,192,64874,1,8,0:0:0:0:
256,192,65105,1,8,0:0:0:0:
256,192,65220,1,8,0:0:0:0:
256,192,65335,5,0,0:0:0:0:
256,192,65566,1,0,0:0:0:0:
256,192,65797,5,8,0:0:0:0:
256,192,66028,5,0,0:0:0:0:
256,192,66143,1,0,0:0:0:0:
256,192,66258,5,8,0:0:0:0:
256,192,66489,1,8,0:0:0:0:
256,192,66951,1,8,0:0:0:0:
256,192,67182,5,0,0:0:0:0:
256,192,67412,1,0,0:0:0:0:
256,192,67643,1,0,0:0:0:0:
256,192,67989,1,0,0:0:0:0:
256,192,68105,1,0,0:0:0:0:
256,192,68335,1,0,0:0:0:0:
256,192,68566,5,8,0:0:0:0:
256,192,68912,1,8,0:0:0:0:
256,192,69028,1,8,0:0:0:0:
256,192,69258,5,0,0:0:0:0:
256,192,69489,5,8,0:0:0:0:
256,192,69720,1,8,0:0:0:0:
256,192,69835,1,8,0:0:0:0:
256,192,69951,5,0,0:0:0:0:
256,192,70182,1,0,0:0:0:0:
256,192,70412,1,0,0:0:0:0:
256,192,70528,1,0,0:0:0:0:
256,192,70643,1,0,0:0:0:0:
256,192,70758,1,0,0:0:0:0:
256,192,70874,5,8,0:0:0:0:
256,192,71335,1,8,0:0:0:0:
256,192,71682,5,0,0:0:0:0:
256,192,71797,5,8,0:0:0:0:
256,192,72028,1,8,0:0:0:0:
256,192,72258,1,8,0:0:0:0:
256,192,72605,5,0,0:0:0:0:
256,192,72720,5,8,0:0:0:0:
256,192,72951,1,8,0:0:0:0:
256,192,73182,1,8,0:0:0:0:
256,192,73412,5,0,0:0:0:0:
256,192,73528,5,8,0:0:0:0:
256,192,73643,5,0,0:0:0:0:
256,192,73874,1,0,0:0:0:0:
256,192,74105,12,0,74797,0:0:0:0:
256,192,75028,5,4,0:0:0:0:
256,192,75258,1,0,0:0:0:0:
256,192,75489,5,8,0:0:0:0:
256,192,75951,1,8,0:0:0:0:
256,192,76412,5,0,0:0:0:0:
256,192,76874,1,0,0:0:0:0:
256,192,77220,1,0,0:0:0:0:
256,192,77335,1,0,0:0:0:0:
256,192,77566,5,8,0:0:0:0:
256,192,77797,1,8,0:0:0:0:
256,192,78028,5,0,0:0:0:0:
256,192,78143,1,0,0:0:0:0:
256,192,78258,5,8,0:0:0:0:
256,192,78489,5,0,0:0:0:0:
256,192,78720,1,0,0:0:0:0:
256,192,78951,1,0,0:0:0:0:
256,192,79182,5,8,0:0:0:0:
256,192,79643,1,8,0:0:0:0:
256,192,80105,5,0,0:0:0:0:
256,192,80566,1,0,0:0:0:0:
256,192,80797,1,0,0:0:0:0:
256,192,80912,5,8,0:0:0:0:
256,192,81028,1,8,0:0:0:0:
256,192,81258,5,0,0:0:0:0:
256,192,81489,5,8,0:0:0:0:
256,192,81720,5,0,0:0:0:0:
256,192,81951,5,8,0:0:0:0:
256,192,82182,5,0,0:0:0:0:
256,192,82412,1,0,0:0:0:0:
256,192,82643,1,0,0:0:0:0:
256,192,82874,5,8,0:0:0:0:
256,192,83335,1,8,0:0:0:0:
256,192,83797,5,0,0:0:0:0:
256,192,84258,1,0,0:0:0:0:
256,192,84605,1,0,0:0:0:0:
256,192,84720,1,0,0:0:0:0:
256,192,84951,5,8,0:0:0:0:
256,192,85182,1,8,0:0:0:0:
256,192,85412,5,0,0:0:0:0:
256,192,85528,1,0,0:0:0:0:
256,192,85643,5,8,0:0:0:0:
256,192,85874,5,0,0:0:0:0:
256,192,86105,1,0,0:0:0:0:
256,192,86451,1,0,0:0:0:0:
256,192,86566,5,8,0:0:0:0:
256,192,86797,5,0,0:0:0:0:
256,192,87028,5,8,0:0:0:0:
256,192,87258,5,0,0:0:0:0:
256,192,87374,5,8,0:0:0:0:
256,192,87489,5,0,0:0:0:0:
256,192,87720,5,8,0:0:0:0:
256,192,87951,1,12,0:0:0:0:
256,192,88182,12,0,89335,0:0:0:0:
