osu file format v14

[General]
AudioFilename: audio.mp3
AudioLeadIn: 0
PreviewTime: 44370
Countdown: 0
SampleSet: Soft
StackLeniency: 0.7
Mode: 0
LetterboxInBreaks: 0
WidescreenStoryboard: 0

[Editor]
DistanceSpacing: 0.3
BeatDivisor: 4
GridSize: 16
TimelineZoom: 2.2

[Metadata]
Title:Precious You*
TitleUnicode:Precious You☆
Artist:Fujita Akane, Miyamoto Yume, Ozawa Ari
ArtistUnicode:藤田 茜、宮本侑芽、小澤亜李
Creator:a q p w
Version:Insane
Source:ロクでなし魔術講師と禁忌教典
Tags:Kibbleru Underforest Rizen aqpw of bastard magic instructor rokudenashi majutsu koushi to akashic records tv size ed ending sistine fibel rumia tingel re=l rayford システィーナ=フィーベル ルミア=ティンジェル リィエル=レイフォード
BeatmapID:1295746
BeatmapSetID:614195

[Difficulty]
HPDrainRate:6
CircleSize:4
OverallDifficulty:7
ApproachRate:8
SliderMultiplier:1.4
SliderTickRate:1

[Events]
//Background and Video events
Video,0,"edd.avi"
0,0,"821059.jpg",0,0
//Break Periods
//Storyboard Layer 0 (Background)
//Storyboard Layer 1 (Fail)
//Storyboard Layer 2 (Pass)
//Storyboard Layer 3 (Foreground)
//Storyboard Sound Samples

[TimingPoints]
986,461.538461538462,4,2,1,30,1,0
15755,-100,4,2,1,50,0,0
30524,-125,4,2,1,30,0,0
37909,-100,4,2,1,50,0,0
45293,-83.3333333333333,4,2,1,60,0,1
53139,-62.5,4,2,1,60,0,1
53601,-83.3333333333333,4,2,1,60,0,1
54062,-62.5,4,2,1,60,0,1
54524,-55.5555555555556,4,2,1,60,0,1
54986,-62.5,4,2,1,60,0,1
55447,-71.4285714285714,4,2,1,60,0,1
55909,-83.3333333333333,4,2,1,60,0,1
73678,-125,4,2,1,40,0,0
74832,-100,4,2,1,50,0,0
87755,-100,4,2,1,30,0,0
89601,-100,4,2,1,5,0,0

[Colours]
Combo1 : 20,216,128
Combo2 : 55,135,255
Combo3 : 113,226,255
Combo4 : 230,203,79

[HitObjects]
111,237,524,5,8,0:0:0:0:
111,237,755,1,8,0:0:0:0:
260,177,986,6,0,P|226:168|191:169,1,70,2|0,0:0|0:0,0:0:0:0:
320,265,1447,2,0,P|329:298|348:328,1,70,0|2,0:0|0:0,0:0:0:0:
365,164,1909,2,0,P|389:138|405:108,1,70
260,177,2370,1,2,0:0:0:0:
260,177,2832,6,0,B|226:164|188:172|188:172|151:181|122:168,1,140,2|0,0:0|0:0,0:0:0:0:
84,315,3524,1,2,0:0:0:0:
216,283,3755,1,0,0:0:0:0:
318,372,3986,1,0,0:0:0:0:
318,372,4101,1,0,0:0:0:0:
318,372,4216,2,0,P|352:374|386:366,1,70,2|0,0:0|0:0,0:0:0:0:
474,261,4678,6,0,P|473:226|462:192,1,70,2|0,0:0|0:0,0:0:0:0:
300,139,5139,2,0,P|330:155|364:163,1,70,2|2,0:0|0:0,0:0:0:0:
490,42,5601,2,0,P|460:59|436:85,1,70
474,261,6062,1,2,0:0:0:0:
474,261,6524,6,0,P|473:226|462:192,1,70,2|0,0:0|0:0,0:0:0:0:
360,84,6986,1,0,0:0:0:0:
330,226,7216,1,2,0:0:0:0:
462,192,7447,1,2,0:0:0:0:
316,149,7678,1,0,0:0:0:0:
316,149,7793,1,0,0:0:0:0:
316,149,7909,2,0,L|246:157,1,70,2|0,0:0|0:0,0:0:0:0:
86,218,8370,6,0,L|155:226,1,70,2|0,0:0|0:0,0:0:0:0:
45,365,8832,2,0,L|18:300,1,70,0|2,0:0|0:0,0:0:0:0:
197,326,9293,2,0,L|154:381,1,70
86,218,9755,1,2,0:0:0:0:
86,218,10216,6,0,B|73:184|81:146|81:146|90:109|77:80,1,140,2|0,0:0|0:0,0:0:0:0:
205,46,10909,1,2,0:0:0:0:
169,173,11139,1,0,0:0:0:0:
273,271,11370,1,0,0:0:0:0:
273,271,11486,1,0,0:0:0:0:
273,271,11601,1,0,0:0:0:0:
379,173,11832,1,0,0:0:0:0:
343,46,12062,5,2,0:0:0:0:
343,46,12524,1,0,0:0:0:0:
379,173,12755,1,0,0:0:0:0:
273,271,12986,1,0,0:0:0:0:
169,173,13216,1,0,0:0:0:0:
169,173,13332,1,0,0:0:0:0:
169,173,13447,1,8,0:0:0:0:
205,46,13678,1,0,0:0:0:0:
278,201,13909,6,0,L|272:270,1,70,2|2,0:0|0:0,0:0:0:0:
265,278,14255,1,0,0:0:0:0:
260,286,14370,2,0,L|254:355,1,70,10|2,0:0|0:0,0:0:0:0:
122,315,14832,2,0,P|139:285|163:259,1,70,2|2,0:0|0:0,0:0:0:0:
169,250,15178,1,0,0:0:0:0:
175,241,15293,2,0,P|175:207|168:172,1,70,10|2,0:0|0:0,0:0:0:0:
0,89,15755,6,0,L|69:83,1,70,2|0,0:0|0:0,0:0:0:0:
194,44,16216,1,8,0:0:0:0:
168,172,16447,1,0,0:0:0:0:
291,130,16678,2,0,P|324:123|359:124,1,70,2|0,0:0|0:0,0:0:0:0:
371,130,17024,1,0,0:0:0:0:
381,137,17139,2,0,P|415:138|449:130,1,70,8|0,0:0|0:0,0:0:0:0:
334,211,17601,6,0,L|340:280,1,70,2|0,0:0|0:0,0:0:0:0:
439,381,18062,1,8,0:0:0:0:
464,245,18293,1,0,0:0:0:0:
364,356,18524,2,0,P|330:356|296:348,1,70,2|0,0:0|0:0,0:0:0:0:
284,340,18870,1,0,0:0:0:0:
276,331,18985,2,0,P|242:323|207:324,1,70,8|0,0:0|0:0,0:0:0:0:
102,184,19447,6,0,L|109:253,1,70,2|0,0:0|0:0,0:0:0:0:
226,206,19909,2,0,L|233:136,1,70,8|0,0:0|0:0,0:0:0:0:
127,37,20370,1,2,0:0:0:0:
233,136,20601,1,0,0:0:0:0:
267,134,20716,1,0,0:0:0:0:
298,129,20832,1,8,0:0:0:0:
368,9,21062,1,0,0:0:0:0:
477,101,21293,6,0,P|482:135|497:166,1,70,2|0,0:0|0:0,0:0:0:0:
374,219,21755,2,0,P|402:239|435:250,1,70,8|0,0:0|0:0,0:0:0:0:
462,354,22216,1,2,0:0:0:0:
311,363,22447,2,0,L|293:364,4,17.5,2|2|2|2|10,0:3|0:3|0:3|0:3|0:2,0:3:0:0:
374,219,22909,1,0,0:0:0:0:
229,227,23139,6,0,P|195:224|162:212,1,70,2|0,0:0|0:0,0:0:0:0:
47,245,23601,2,0,P|19:266|0:296,1,70,8|0,0:0|0:0,0:0:0:0:
75,122,24062,2,0,P|69:87|53:56,1,70,2|0,0:0|0:0,0:0:0:0:
44,49,24409,1,0,0:0:0:0:
33,44,24524,1,8,0:0:0:0:
18,173,24755,1,0,0:0:0:0:
154,125,24986,6,0,L|222:122,1,70,2|0,0:0|0:0,0:0:0:0:
334,88,25447,2,0,P|339:53|334:19,1,70,8|0,0:0|0:0,0:0:0:0:
223,121,25909,2,0,P|217:155|222:189,1,70,2|2,0:0|0:0,0:0:0:0:
229,198,26255,1,0,0:0:0:0:
235,204,26370,1,10,0:0:0:0:
334,88,26601,1,2,0:0:0:0:
387,230,26832,6,0,L|394:299,1,70,2|0,0:0|0:0,0:0:0:0:
504,152,27293,1,8,0:0:0:0:
512,294,27524,1,0,0:0:0:0:
423,156,27755,2,0,L|430:86,1,70,2|0,0:0|0:0,0:0:0:0:
436,77,28101,1,0,0:0:0:0:
442,69,28216,1,8,0:0:0:0:
469,226,28447,1,0,0:0:0:0:
318,169,28678,6,0,L|295:102,1,70,2|0,0:0|0:0,0:0:0:0:
146,138,29139,1,8,0:0:0:0:
254,253,29370,1,0,0:0:0:0:
214,70,29601,1,8,3:0:0:0:
185,50,29716,1,0,3:0:0:0:
150,43,29832,1,8,3:0:0:0:
115,48,29947,1,0,3:0:0:0:
84,64,30062,2,0,L|14:57,1,70,12|0,3:0|0:0,0:0:0:0:
35,181,30524,6,0,P|86:160|141:166,1,112,6|2,0:0|0:0,0:0:0:0:
226,226,31216,1,2,0:0:0:0:
327,252,31447,2,0,P|368:253|409:244,1,84,2|0,0:0|0:0,0:0:0:0:
421,239,31909,2,0,L|426:294,1,56,8|2,0:0|0:0,0:0:0:0:
361,161,32370,6,0,P|413:143|467:153,1,112,2|0,0:0|0:0,0:0:0:0:
426,294,33062,1,2,0:0:0:0:
327,252,33293,2,0,P|293:227|271:192,1,84,2|0,0:0|0:0,0:0:0:0:
269,180,33755,2,0,L|213:185,1,56,8|2,0:0|0:0,0:0:0:0:
40,252,34216,6,0,P|91:274|147:269,1,112,2|2,0:0|0:0,0:0:0:0:
213,184,34909,1,2,0:0:0:0:
120,108,35139,2,0,L|111:164,1,56,2|0,0:0|0:0,0:0:0:0:
227,66,35601,2,0,L|217:10,1,56,8|2,0:0|0:0,0:0:0:0:
22,43,36062,5,8,3:0:0:0:
227,66,36293,1,0,3:0:0:0:
111,164,36524,1,8,3:0:0:0:
333,143,36755,1,8,3:0:0:0:
333,143,37216,1,0,0:0:0:0:
283,234,37447,2,0,P|286:261|297:287,1,56,8|0,0:0|0:0,0:0:0:0:
480,227,37909,6,0,L|410:223,1,70,6|0,0:0|0:0,0:0:0:0:
398,227,38255,1,0,0:0:0:0:
387,232,38370,2,0,P|400:264|401:299,1,70,8|0,0:0|0:0,0:0:0:0:
333,143,38832,2,0,P|365:129|400:128,1,70,2|0,0:0|0:0,0:0:0:0:
241,192,39293,2,0,P|227:159|226:124,1,70,8|0,0:0|0:0,0:0:0:0:
295,287,39755,6,0,P|262:300|227:301,1,70,2|0,0:0|0:0,0:0:0:0:
216,297,40101,1,0,0:0:0:0:
207,293,40216,1,8,0:0:0:0:
100,225,40447,1,0,0:0:0:0:
7,315,40678,2,0,L|12:384,1,70,2|0,0:0|0:0,0:0:0:0:
100,225,41139,2,0,L|105:155,1,70,8|0,0:0|0:0,0:0:0:0:
46,23,41601,5,4,0:0:0:0:
161,74,41832,1,0,0:0:0:0:
276,24,42062,1,0,0:0:0:0:
333,138,42293,1,8,0:3:0:0:
447,99,42524,5,0,3:0:0:0:
462,130,42639,1,0,3:0:0:0:
463,165,42755,1,8,3:0:0:0:
453,198,42870,1,0,3:0:0:0:
433,227,42986,1,8,3:0:0:0:
402,244,43101,1,0,3:0:0:0:
367,247,43216,2,0,L|332:243,1,35,8|0,3:0|0:0,0:0:0:0:
229,287,43447,6,0,L|263:283,1,35,4|0,3:0|0:0,0:0:0:0:
163,235,43678,2,0,L|159:200,1,35,8|0,3:0|0:0,0:0:0:0:
113,297,43909,2,0,L|78:300,1,35,4|0,3:0|0:0,0:0:0:0:
173,348,44139,2,0,L|176:382,1,35,4|0,3:0|0:0,0:0:0:0:
243,199,44832,1,8,0:0:0:0:
243,199,45293,6,0,P|284:200|325:190,1,83.9999974365235,6|0,0:0|0:0,0:0:0:0:
364,173,45639,1,0,0:0:0:0:
400,151,45755,2,0,P|440:140|482:142,1,83.9999974365235,8|0,0:0|0:0,0:0:0:0:
458,276,46216,1,2,0:0:0:0:
458,276,46332,1,0,0:0:0:0:
458,276,46447,1,0,0:0:0:0:
331,307,46678,1,8,0:0:0:0:
243,199,46909,1,0,0:0:0:0:
31,221,47139,6,0,L|114:233,1,83.9999974365235,2|0,0:0|0:0,0:0:0:0:
132,271,47486,1,0,0:0:0:0:
151,307,47601,2,0,L|234:319,1,83.9999974365235,8|0,0:0|0:0,0:0:0:0:
325,189,48062,1,2,0:0:0:0:
315,230,48178,1,0,0:0:0:0:
326,270,48293,1,2,0:0:0:0:
483,348,48524,1,10,0:0:0:0:
417,227,48755,1,0,0:0:0:0:
234,319,48986,6,0,L|151:307,1,83.9999974365235,2|0,0:0|0:0,0:0:0:0:
132,271,49332,1,0,0:0:0:0:
113,232,49447,2,0,P|115:191|132:153,1,83.9999974365235,8|0,0:0|0:0,0:0:0:0:
275,36,49909,1,2,0:0:0:0:
275,36,50024,1,0,0:0:0:0:
275,36,50139,1,0,0:0:0:0:
229,177,50370,1,10,0:0:0:0:
126,62,50601,1,2,0:0:0:0:
309,120,50832,6,0,L|392:113,1,83.9999974365235,2|0,0:0|0:0,0:0:0:0:
435,113,51178,1,0,0:0:0:0:
435,113,51293,1,10,0:0:0:0:
498,232,51524,1,0,0:0:0:0:
263,252,51755,1,2,0:0:0:0:
385,327,51986,1,0,0:0:0:0:
385,327,52101,1,0,0:0:0:0:
385,327,52216,1,10,0:0:0:0:
498,232,52447,1,0,0:0:0:0:
262,252,52678,6,0,P|245:289|242:331,1,83.9999974365235,2|0,0:0|0:0,0:0:0:0:
275,363,53024,1,0,0:0:0:0:
275,363,53139,2,0,L|261:251,1,112,8|0,0:0|0:0,0:0:0:0:
96,208,53601,2,0,P|113:245|116:287,1,83.9999974365235,2|0,0:0|0:0,0:0:0:0:
98,101,54062,2,0,P|84:155|97:209,1,112,10|0,0:0|0:0,0:0:0:0:
318,60,54524,6,0,L|192:45,1,125.999996154785,2|0,0:0|0:0,0:0:0:0:
177,125,54870,1,0,0:0:0:0:
193,154,54986,2,0,P|206:100|193:46,1,112,8|0,0:0|0:0,0:0:0:0:
258,230,55447,2,0,L|354:213,1,97.9999970092774,2|0,0:0|0:0,0:0:0:0:
217,321,55909,1,10,0:0:0:0:
91,253,56139,1,2,0:0:0:0:
91,253,56255,1,0,0:0:0:0:
91,253,56370,6,0,P|74:290|71:332,1,83.9999974365235,2|0,0:0|0:0,0:0:0:0:
105,356,56716,1,0,0:0:0:0:
105,356,56832,2,0,L|188:347,1,83.9999974365235,8|0,0:0|0:0,0:0:0:0:
342,224,57293,1,2,0:0:0:0:
298,218,57409,1,0,0:0:0:0:
257,214,57524,1,0,0:0:0:0:
381,365,57755,1,10,0:0:0:0:
473,259,57986,1,2,0:0:0:0:
333,300,58216,6,0,L|249:291,1,83.9999974365235,2|0,0:0|0:0,0:0:0:0:
207,289,58562,1,0,0:0:0:0:
207,289,58678,1,8,0:0:0:0:
74,207,58909,1,0,0:0:0:0:
160,0,59139,5,8,3:0:0:0:
170,200,59370,1,8,3:0:0:0:
419,103,59601,1,8,3:2:0:0:
219,93,59832,1,0,0:0:0:0:
460,217,60062,6,0,L|450:133,1,83.9999974365235,6|0,0:0|0:0,0:0:0:0:
419,103,60409,1,0,0:0:0:0:
387,74,60524,2,0,P|345:69|305:82,1,83.9999974365235,8|0,0:0|0:0,0:0:0:0:
204,213,60986,1,2,0:0:0:0:
204,213,61101,1,0,0:0:0:0:
204,213,61216,1,0,0:0:0:0:
363,240,61447,1,8,0:0:0:0:
305,81,61678,1,0,0:0:0:0:
276,268,61909,6,0,L|266:352,1,83.9999974365235,2|0,0:0|0:0,0:0:0:0:
225,364,62255,1,0,0:0:0:0:
185,376,62370,2,0,P|143:381|103:368,1,83.9999974365235,8|0,0:0|0:0,0:0:0:0:
163,242,62832,1,2,0:0:0:0:
163,242,62947,1,0,0:0:0:0:
163,242,63062,1,0,0:0:0:0:
40,137,63293,1,10,0:0:0:0:
65,275,63524,1,0,0:0:0:0:
257,210,63755,6,0,L|247:126,1,83.9999974365235,2|0,0:0|0:0,0:0:0:0:
243,84,64101,1,0,0:0:0:0:
243,84,64216,1,8,0:0:0:0:
355,177,64447,1,2,0:0:0:0:
509,6,64678,1,2,0:0:0:0:
485,142,64909,1,0,0:0:0:0:
485,142,65024,1,0,0:0:0:0:
485,142,65139,1,10,0:0:0:0:
355,177,65370,1,0,0:0:0:0:
237,84,65601,6,0,P|265:54|304:38,1,83.9999974365235,2|0,0:0|0:0,0:0:0:0:
337,65,65947,1,0,0:0:0:0:
367,93,66062,2,0,L|355:177,1,83.9999974365235,10|2,0:0|0:0,0:0:0:0:
301,322,66524,1,2,0:0:0:0:
441,301,66755,1,0,0:0:0:0:
441,301,66870,1,0,0:0:0:0:
441,301,66986,1,8,0:0:0:0:
298,239,67216,1,0,0:0:0:0:
166,307,67447,6,0,L|82:299,1,83.9999974365235,2|0,0:0|0:0,0:0:0:0:
56,265,67793,1,0,0:0:0:0:
32,230,67909,2,0,L|115:222,1,83.9999974365235,8|0,0:0|0:0,0:0:0:0:
231,176,68370,1,2,0:0:0:0:
231,176,68486,1,0,0:0:0:0:
231,176,68601,1,0,0:0:0:0:
109,141,68832,2,0,P|102:182|114:221,1,83.9999974365235,8|0,0:0|0:0,0:0:0:0:
345,209,69293,6,0,P|351:167|339:128,1,83.9999974365235,2|0,0:0|0:0,0:0:0:0:
314,93,69639,1,0,0:0:0:0:
314,93,69755,1,8,0:0:0:0:
234,268,69986,1,0,0:0:0:0:
132,104,70216,1,2,0:0:0:0:
132,104,70332,1,0,0:0:0:0:
132,104,70447,1,2,0:0:0:0:
345,209,70678,1,8,0:0:0:0:
114,221,70909,1,2,0:0:0:0:
314,92,71139,6,0,P|355:90|395:102,1,83.9999974365235,2|0,0:0|0:0,0:0:0:0:
477,112,71486,1,0,0:0:0:0:
477,112,71601,2,0,P|436:114|396:102,1,83.9999974365235,10|0,0:0|0:0,0:0:0:0:
345,209,72062,2,0,P|304:207|264:219,1,83.9999974365235,2|0,0:0|0:0,0:0:0:0:
182,229,72409,1,0,0:0:0:0:
182,229,72524,2,0,P|223:231|263:219,1,83.9999974365235,10|0,0:0|0:0,0:0:0:0:
109,345,72986,6,0,L|98:261,1,83.9999974365235,2|2,0:0|0:0,0:0:0:0:
96,219,73332,1,2,0:0:0:0:
96,219,73447,1,10,0:0:0:0:
242,104,73678,6,0,B|255:82|255:82|277:134|255:192|255:192|234:246|255:303,1,252,2|0,0:0|0:0,0:0:0:0:
255,303,74832,6,0,P|221:295|187:296,1,70,6|0,0:0|0:0,0:0:0:0:
153,306,75178,1,0,0:0:0:0:
120,318,75293,2,0,P|85:318|51:310,1,70,8|0,0:0|0:0,0:0:0:0:
114,105,75755,1,2,0:0:0:0:
104,213,75986,1,0,0:0:0:0:
104,213,76101,1,0,0:0:0:0:
104,213,76216,2,0,P|69:206|40:187,1,70,10|0,0:0|0:0,0:0:0:0:
215,100,76678,6,0,P|211:134|195:165,1,70,2|0,0:0|0:0,0:0:0:0:
208,198,77024,1,0,0:0:0:0:
223,229,77139,2,0,L|292:221,1,70,8|0,0:0|0:0,0:0:0:0:
435,175,77601,1,2,0:0:0:0:
401,320,77832,1,0,0:0:0:0:
394,286,77947,1,0,0:0:0:0:
401,252,78062,1,8,0:0:0:0:
507,281,78293,1,0,0:0:0:0:
296,357,78524,6,0,P|261:351|226:351,1,70,2|0,0:0|0:0,0:0:0:0:
193,362,78870,1,0,0:0:0:0:
159,373,78986,2,0,P|124:373|89:367,1,70,8|0,0:0|0:0,0:0:0:0:
49,164,79447,1,2,0:0:0:0:
163,112,79678,1,0,0:0:0:0:
163,112,79793,1,0,0:0:0:0:
163,112,79909,2,0,P|174:144|172:179,1,70,8|0,0:0|0:0,0:0:0:0:
0,274,80370,5,2,0:0:0:0:
140,296,80601,1,0,0:0:0:0:
140,296,80716,1,0,0:0:0:0:
140,296,80832,2,0,P|175:296|210:290,1,70,8|0,0:0|0:0,0:0:0:0:
350,337,81293,1,2,0:0:0:0:
391,197,81524,1,0,0:0:0:0:
356,191,81639,1,0,0:0:0:0:
320,194,81755,1,8,0:0:0:0:
209,290,81986,1,0,0:0:0:0:
47,243,82216,6,0,P|52:209|50:174,1,70,2|0,0:0|0:0,0:0:0:0:
35,143,82562,1,0,0:0:0:0:
18,111,82678,2,0,P|12:76|14:41,1,70,8|0,0:0|0:0,0:0:0:0:
257,53,83139,1,2,0:0:0:0:
138,70,83370,1,0,0:0:0:0:
138,70,83486,1,0,0:0:0:0:
137,69,83601,2,0,P|138:34|148:0,1,70,8|0,0:0|0:0,0:0:0:0:
273,179,84062,6,0,P|238:178|204:168,1,70,2|0,0:0|0:0,0:0:0:0:
170,178,84409,1,0,0:0:0:0:
136,187,84524,2,0,L|139:256,1,70,8|0,0:0|0:0,0:0:0:0:
278,340,84986,1,2,0:0:0:0:
413,259,85216,1,0,0:0:0:0:
413,259,85332,1,0,0:0:0:0:
413,259,85447,1,8,0:0:0:0:
273,179,85678,1,0,0:0:0:0:
138,256,85909,6,0,P|104:262|70:259,1,70,2|0,0:0|0:0,0:0:0:0:
37,246,86255,1,0,0:0:0:0:
37,246,86370,1,8,0:0:0:0:
99,77,86601,1,0,0:0:0:0:
204,218,86832,1,2,0:0:0:0:
26,144,87062,1,8,3:0:0:0:
7,114,87178,1,0,3:0:0:0:
0,79,87293,1,8,3:2:0:0:
6,44,87409,1,0,3:0:0:0:
26,15,87524,1,8,3:0:0:0:
114,175,87755,1,4,0:0:0:0:
256,192,87986,12,0,89601,0:0:0:0:
