osu file format v14

[General]
AudioFilename: audio.mp3
AudioLeadIn: 0
PreviewTime: 45158
Countdown: 0
SampleSet: Soft
StackLeniency: 0.7
Mode: 3
LetterboxInBreaks: 0
SpecialStyle: 0
WidescreenStoryboard: 1

[Editor]
DistanceSpacing: 1.2
BeatDivisor: 4
GridSize: 32
TimelineZoom: 1

[Metadata]
Title:Precious You* (TV Size)
TitleUnicode:Precious You☆ (TV Size)
Artist:Fujita Akane, Miyamoto Yume, Ozawa Ari
ArtistUnicode:藤田茜、宮本侑芽、小澤亜李
Creator:Sun
Version:Easy
Source:ロクでなし魔術講師と禁忌教典
Tags:Fresh Chicken _FrEsH_ChICkEn_ FAMoss ending ed anime japanese pop jpop j-pop アカシックレコード akashic records of bastard magic instructor rokudenashi majutsu koushi to kinki kyouten ロクアカ rokuaka システィーナ=フィーベル Sistine Fibel ルミア=ティンジェル Rumia Tingel リィエル=レイフォード Riel Reyford
BeatmapID:2508565
BeatmapSetID:1204733

[Difficulty]
HPDrainRate:7
CircleSize:4
OverallDifficulty:7
ApproachRate:5
SliderMultiplier:1.4
SliderTickRate:1

[Events]
//Background and Video events
0,0,"bg1.jpg",0,0
Video,0,"video.mp4"
//Break Periods
//Storyboard Layer 0 (Background)
//Storyboard Layer 1 (Fail)
//Storyboard Layer 2 (Pass)
//Storyboard Layer 3 (Foreground)
//Storyboard Layer 4 (Overlay)
//Storyboard Sound Samples

[TimingPoints]
-1918,461.538461538462,4,2,1,50,1,0
14697,-100,4,2,1,60,0,0
16543,-100,4,2,1,70,0,0
46082,-100,4,2,1,70,0,1
59928,-100,4,2,1,70,0,0
60851,-100,4,2,1,70,0,1
75620,-100,4,2,1,70,0,0

[HitObjects]
192,192,1312,5,0,0:0:0:70:LR_Snare Hit.wav
320,192,1312,1,0,0:0:0:0:
64,192,1543,1,0,0:0:0:70:LR_Snare Hit.wav
448,192,1774,128,0,2697:0:0:0:0:
192,192,2697,128,0,3158:0:0:0:0:
320,192,3158,128,0,3620:0:0:0:0:
64,192,3620,128,0,4312:0:0:0:0:
448,192,4312,128,0,5466:0:0:0:0:
192,192,5466,128,0,6389:0:0:0:0:
320,192,6389,128,0,6851:0:0:0:0:
64,192,6851,128,0,7312:0:0:0:0:
448,192,7312,128,0,8005:0:0:0:0:
192,192,8005,128,0,9158:0:0:0:0:
448,192,9158,128,0,10082:0:0:0:0:
64,192,10082,128,0,10543:0:0:0:0:
320,192,10543,128,0,11005:0:0:0:0:
192,192,11005,128,0,11697:0:0:0:0:
448,192,11697,128,0,12389:0:0:0:0:
64,192,12389,1,0,0:0:0:0:
192,192,12620,1,0,0:0:0:0:
320,192,12851,128,0,13312:0:0:0:0:
448,192,13312,1,0,0:0:0:0:
64,192,13543,1,0,0:0:0:0:
192,192,13774,128,0,14235:0:0:0:0:
320,192,14235,1,0,0:0:0:0:
448,192,14466,1,0,0:0:0:0:
64,192,14697,128,0,15158:0:0:0:0:
448,192,15158,128,0,15620:0:0:0:0:
192,192,15620,128,0,16082:0:0:0:0:
64,192,16082,1,0,0:0:0:70:LR_Snare Hit.wav
320,192,16312,1,2,0:0:0:0:
192,192,16543,1,2,0:0:0:0:
448,192,16543,1,4,0:0:0:0:
64,192,17005,1,10,0:0:0:0:
448,192,17466,1,2,0:0:0:0:
192,192,17812,1,0,0:0:0:0:
320,192,18158,1,0,0:0:0:0:
64,192,18389,1,2,0:0:0:0:
192,192,18851,1,10,0:0:0:0:
320,192,19312,1,2,0:0:0:0:
448,192,19658,1,0,0:0:0:0:
64,192,20005,1,0,0:0:0:0:
320,192,20235,1,2,0:0:0:0:
192,192,20697,1,10,0:0:0:0:
448,192,21158,1,2,0:0:0:0:
64,192,21505,1,0,0:0:0:0:
320,192,21851,1,0,0:0:0:0:
192,192,22082,128,2,22543:0:0:0:0:
448,192,22543,128,10,23005:0:0:0:0:
64,192,23005,128,2,23466:0:0:0:0:
320,192,23466,128,10,23928:0:0:0:0:
192,192,23928,1,2,0:0:0:0:
448,192,24389,1,10,0:0:0:0:
64,192,24851,1,2,0:0:0:0:
320,192,25197,1,0,0:0:0:0:
192,192,25543,1,0,0:0:0:0:
448,192,25774,1,2,0:0:0:0:
320,192,26235,1,10,0:0:0:0:
64,192,26697,1,2,0:0:0:0:
448,192,27043,1,0,0:0:0:0:
192,192,27389,1,0,0:0:0:0:
320,192,27620,1,2,0:0:0:0:
64,192,28082,1,10,0:0:0:0:
448,192,28543,1,2,0:0:0:0:
192,192,28889,1,0,0:0:0:0:
320,192,29235,1,0,0:0:0:0:
64,192,29466,1,2,0:0:0:0:
192,192,29697,1,0,0:0:0:0:
448,192,29928,1,10,0:0:0:0:
320,192,30158,1,0,0:0:0:0:
64,192,30389,128,0,30851:0:0:0:70:LR_Snare Hit.wav
192,192,30851,1,0,0:0:0:70:LR_Clap Loud Long.wav
320,192,30851,1,0,0:0:0:0:
64,192,31312,1,2,0:0:0:0:
448,192,31312,128,4,32005:0:0:0:0:
192,192,32005,1,2,0:0:0:0:
320,192,32235,128,2,32697:0:0:0:0:
64,192,32697,1,0,0:0:0:70:LR_Clap Low 2.wav
192,192,33158,128,2,33851:0:0:0:0:
320,192,33851,1,2,0:0:0:0:
64,192,34082,128,2,34543:0:0:0:0:
448,192,34543,1,0,0:0:0:70:LR_Clap Low 2.wav
320,192,35005,128,2,35697:0:0:0:0:
192,192,35697,1,2,0:0:0:0:
448,192,35928,128,2,36389:0:0:0:0:
64,192,36389,1,0,0:0:0:70:LR_Clap Low 2.wav
320,192,36851,1,0,0:0:0:70:LR_Snare Hit.wav
192,192,37082,1,0,0:0:0:70:LR_Snare Hit.wav
320,192,37312,1,0,0:0:0:70:LR_Snare Hit.wav
64,192,37543,1,0,0:0:0:70:LR_Clap Loud Long.wav
448,192,37543,1,0,0:0:0:0:
192,192,38005,1,0,0:0:0:0:
320,192,38235,1,2,0:0:0:0:
192,192,38466,1,2,0:0:0:0:
64,192,38697,1,2,0:0:0:0:
448,192,38697,1,4,0:0:0:0:
192,192,39158,1,8,0:0:0:0:
320,192,39158,1,2,0:0:0:0:
64,192,39620,1,2,0:0:0:0:
320,192,40082,1,8,0:0:0:0:
448,192,40082,1,2,0:0:0:0:
192,192,40543,1,2,0:0:0:0:
64,192,41005,1,2,0:0:0:0:
448,192,41005,1,8,0:0:0:0:
320,192,41235,1,0,0:0:0:0:
192,192,41466,128,2,41928:0:0:0:0:
64,192,41928,1,2,0:0:0:0:
448,192,41928,1,8,0:0:0:0:
192,192,42389,1,2,0:0:0:0:
320,192,42389,1,4,0:0:0:0:
448,192,42851,1,0,0:0:0:0:
64,192,43082,1,2,0:0:0:0:
192,192,43312,1,0,0:0:0:50:LR_Snare Hit.wav
320,192,43543,128,0,44005:0:0:0:50:LR_Snare Hit.wav
64,192,44005,128,2,44697:0:0:0:0:
192,192,44005,1,4,0:0:0:0:
448,192,44697,128,0,45158:0:0:0:70:LR_Snare Hit.wav
64,192,45620,1,0,0:0:0:70:LR_Clap Loud Long.wav
448,192,45620,1,0,0:0:0:0:
192,192,46082,128,2,46543:0:0:0:0:
320,192,46082,1,4,0:0:0:0:
448,192,46543,128,10,47005:0:0:0:0:
320,192,47005,1,2,0:0:0:0:
64,192,47235,1,0,0:0:0:0:
448,192,47466,1,10,0:0:0:0:
192,192,47697,128,0,48158:0:0:0:0:
448,192,48158,1,0,0:0:0:0:
64,192,48389,1,10,0:0:0:0:
320,192,48620,128,0,49082:0:0:0:0:
192,192,49082,1,0,0:0:0:0:
64,192,49312,1,10,0:0:0:0:
320,192,49543,1,0,0:0:0:0:
448,192,49774,128,2,50235:0:0:0:0:
64,192,50235,128,10,50697:0:0:0:0:
320,192,50697,1,2,0:0:0:0:
448,192,50928,1,0,0:0:0:0:
64,192,51158,1,10,0:0:0:0:
192,192,51389,128,0,51851:0:0:0:0:
448,192,51851,1,0,0:0:0:0:
64,192,52082,1,10,0:0:0:0:
320,192,52312,128,0,52774:0:0:0:0:
448,192,52774,1,0,0:0:0:0:
64,192,53005,1,10,0:0:0:0:
320,192,53235,1,0,0:0:0:0:
192,192,53466,1,2,0:0:0:0:
192,192,53697,128,0,54158:0:0:0:0:
320,192,54389,1,2,0:0:0:0:
320,192,54620,128,0,55082:0:0:0:0:
64,192,55312,128,2,55774:0:0:0:0:
448,192,55774,128,10,56235:0:0:0:0:
192,192,56235,128,2,56697:0:0:0:0:
320,192,56697,1,10,0:0:0:0:
64,192,56928,128,0,57389:0:0:0:0:
448,192,57389,1,0,0:0:0:0:
320,192,57620,128,10,58082:0:0:0:0:
192,192,58082,128,2,58543:0:0:0:0:
448,192,58543,1,10,0:0:0:0:
320,192,58774,1,0,0:0:0:0:
64,192,59005,1,2,0:0:0:0:
320,192,59351,1,0,0:0:0:0:
192,192,59697,1,0,0:0:0:0:
448,192,59928,1,0,0:0:0:70:LR_Snare Hit.wav
320,192,60158,1,0,0:0:0:70:LR_Snare Hit.wav
64,192,60389,1,0,0:0:0:70:LR_Clap Loud Long.wav
192,192,60389,1,0,0:0:0:0:
64,192,60851,1,2,0:0:0:0:
448,192,60851,128,4,61312:0:0:0:0:
192,192,61312,128,10,61774:0:0:0:0:
64,192,61774,1,2,0:0:0:0:
320,192,62005,1,0,0:0:0:0:
192,192,62235,1,10,0:0:0:0:
448,192,62466,128,0,62928:0:0:0:0:
320,192,62928,1,0,0:0:0:0:
64,192,63158,1,10,0:0:0:0:
192,192,63389,128,0,63851:0:0:0:0:
448,192,63851,1,0,0:0:0:0:
320,192,64082,1,10,0:0:0:0:
192,192,64312,1,0,0:0:0:0:
64,192,64543,1,2,0:0:0:0:
320,192,64889,1,0,0:0:0:0:
192,192,65235,1,0,0:0:0:0:
448,192,65466,1,2,0:0:0:0:
64,192,65697,1,0,0:0:0:0:
320,192,65928,1,10,0:0:0:0:
192,192,66158,128,0,66620:0:0:0:0:
448,192,66620,1,0,0:0:0:0:
64,192,66851,1,10,0:0:0:0:
320,192,67082,128,0,67543:0:0:0:0:
192,192,67543,1,0,0:0:0:0:
64,192,67774,1,10,0:0:0:0:
320,192,68005,1,0,0:0:0:0:
448,192,68235,128,2,68697:0:0:0:0:
192,192,68697,1,10,0:0:0:0:
64,192,68928,1,0,0:0:0:0:
320,192,69158,128,2,69620:0:0:0:0:
448,192,69620,1,10,0:0:0:0:
64,192,69851,1,0,0:0:0:0:
192,192,70082,1,2,0:0:0:0:
320,192,70428,1,0,0:0:0:0:
64,192,70774,1,0,0:0:0:0:
448,192,71005,128,2,71466:0:0:0:0:
192,192,71466,128,10,71928:0:0:0:0:
320,192,71928,1,2,0:0:0:0:
448,192,72274,1,0,0:0:0:0:
64,192,72620,1,0,0:0:0:0:
320,192,72851,1,2,0:0:0:0:
192,192,73197,1,0,0:0:0:0:
448,192,73543,1,0,0:0:0:0:
64,192,73774,1,2,0:0:0:0:
320,192,74120,1,0,0:0:0:70:LR_Snare Hit.wav
448,192,74120,1,0,0:0:0:0:
64,192,74466,1,0,0:0:0:70:LR_Snare Hit.wav
192,192,74466,128,0,75620:0:0:0:0:
64,192,75620,1,2,0:0:0:0:
448,192,75620,1,4,0:0:0:0:
320,192,76082,128,10,76543:0:0:0:0:
64,192,76543,128,2,77005:0:0:0:0:
448,192,77005,128,10,77466:0:0:0:0:
192,192,77466,1,2,0:0:0:0:
320,192,77812,1,0,0:0:0:0:
448,192,78158,1,0,0:0:0:0:
64,192,78389,1,2,0:0:0:0:
192,192,78735,1,0,0:0:0:0:
320,192,79082,1,0,0:0:0:0:
64,192,79312,1,2,0:0:0:0:
192,192,79774,128,10,80235:0:0:0:0:
448,192,80235,128,2,80697:0:0:0:0:
64,192,80697,128,10,81158:0:0:0:0:
320,192,81158,1,2,0:0:0:0:
192,192,81505,1,0,0:0:0:0:
64,192,81851,1,0,0:0:0:0:
448,192,82082,1,2,0:0:0:0:
320,192,82428,1,0,0:0:0:0:
192,192,82774,1,0,0:0:0:0:
448,192,83005,1,2,0:0:0:0:
64,192,83466,128,10,83928:0:0:0:0:
320,192,83928,128,2,84389:0:0:0:0:
192,192,84389,128,10,84851:0:0:0:0:
448,192,84851,1,2,0:0:0:0:
64,192,85197,1,0,0:0:0:0:
320,192,85543,1,0,0:0:0:0:
192,192,85774,1,2,0:0:0:0:
448,192,86120,1,0,0:0:0:0:
64,192,86466,1,0,0:0:0:0:
320,192,86697,1,2,0:0:0:0:
192,192,87158,1,10,0:0:0:0:
448,192,87389,1,0,0:0:0:0:
64,192,87620,1,2,0:0:0:0:
320,192,88082,1,0,0:0:0:70:LR_Snare Hit.wav
64,192,88312,1,0,0:0:0:70:LR_Snare Hit.wav
192,192,88543,1,0,0:0:0:50:LR_Clap Loud Long.wav
448,192,88543,128,0,89928:0:0:0:0:
