osu file format v14

[General]
AudioFilename: audio.mp3
AudioLeadIn: 0
PreviewTime: 45158
Countdown: 0
SampleSet: Soft
StackLeniency: 0.7
Mode: 3
LetterboxInBreaks: 0
SpecialStyle: 0
WidescreenStoryboard: 1

[Editor]
DistanceSpacing: 1.2
BeatDivisor: 8
GridSize: 32
TimelineZoom: 1.6

[Metadata]
Title:Precious You* (TV Size)
TitleUnicode:Precious You☆ (TV Size)
Artist:Fujita Akane, Miyamoto Yume, Ozawa Ari
ArtistUnicode:藤田茜、宮本侑芽、小澤亜李
Creator:Sun
Version:Chicken In My Tiny Heart
Source:ロクでなし魔術講師と禁忌教典
Tags:Fresh Chicken _FrEsH_ChICkEn_ FAMoss ending ed anime japanese pop jpop j-pop アカシックレコード akashic records of bastard magic instructor rokudenashi majutsu koushi to kinki kyouten ロクアカ rokuaka システィーナ=フィーベル Sistine Fibel ルミア=ティンジェル Rumia Tingel リィエル=レイフォード Riel Reyford
BeatmapID:2508564
BeatmapSetID:1204733

[Difficulty]
HPDrainRate:8.5
CircleSize:4
OverallDifficulty:7.8
ApproachRate:5
SliderMultiplier:1.4
SliderTickRate:1

[Events]
//Background and Video events
0,0,"bg4.jpg",0,0
Video,0,"video.mp4"
//Break Periods
//Storyboard Layer 0 (Background)
//Storyboard Layer 1 (Fail)
//Storyboard Layer 2 (Pass)
//Storyboard Layer 3 (Foreground)
//Storyboard Layer 4 (Overlay)
//Storyboard Sound Samples

[TimingPoints]
-1918,461.538461538462,4,2,1,50,1,0
14697,-100,4,2,1,60,0,0
16543,-100,4,2,1,70,0,0
46082,-100,4,2,1,70,0,1
59928,-100,4,2,1,70,0,0
60851,-100,4,2,1,70,0,1
75620,-100,4,2,1,70,0,0

[HitObjects]
64,192,1312,5,0,0:0:0:70:LR_Snare Hit.wav
320,192,1312,1,0,0:0:0:0:
448,192,1312,1,0,0:0:0:0:
64,192,1543,1,0,0:0:0:70:LR_Snare Hit.wav
320,192,1543,1,0,0:0:0:0:
448,192,1543,1,0,0:0:0:0:
64,192,1774,1,0,0:0:0:0:
192,192,1774,128,0,3620:0:0:0:0:
448,192,2005,1,0,0:0:0:0:
320,192,2120,1,0,0:0:0:0:
64,192,2235,1,0,0:0:0:0:
320,192,2466,1,0,0:0:0:0:
448,192,2697,1,0,0:0:0:0:
320,192,2928,1,0,0:0:0:0:
64,192,3043,1,0,0:0:0:0:
448,192,3158,1,0,0:0:0:0:
64,192,3389,1,0,0:0:0:0:
320,192,3620,128,0,5466:0:0:0:0:
448,192,3620,1,0,0:0:0:0:
192,192,3966,1,0,0:0:0:0:
64,192,4082,1,0,0:0:0:0:
448,192,4312,1,0,0:0:0:0:
192,192,4543,1,0,0:0:0:0:
64,192,4889,1,0,0:0:0:0:
192,192,5005,1,0,0:0:0:0:
448,192,5235,1,0,0:0:0:0:
64,192,5466,128,0,7312:0:0:0:0:
192,192,5466,1,0,0:0:0:0:
448,192,5697,1,0,0:0:0:0:
320,192,5812,1,0,0:0:0:0:
192,192,5928,1,0,0:0:0:0:
320,192,6158,1,0,0:0:0:0:
448,192,6389,1,0,0:0:0:0:
192,192,6620,1,0,0:0:0:0:
320,192,6735,1,0,0:0:0:0:
448,192,6851,1,0,0:0:0:0:
320,192,7082,1,0,0:0:0:0:
192,192,7312,1,0,0:0:0:0:
448,192,7312,128,0,9158:0:0:0:0:
192,192,7658,1,0,0:0:0:0:
64,192,7774,1,0,0:0:0:0:
192,192,8005,1,0,0:0:0:0:
320,192,8235,1,0,0:0:0:0:
64,192,8582,1,0,0:0:0:0:
192,192,8697,1,0,0:0:0:0:
64,192,8928,1,0,0:0:0:0:
192,192,9158,128,0,11005:0:0:0:0:
320,192,9158,1,0,0:0:0:0:
448,192,9389,1,0,0:0:0:0:
320,192,9505,1,0,0:0:0:0:
64,192,9620,1,0,0:0:0:0:
320,192,9851,1,0,0:0:0:0:
448,192,10082,1,0,0:0:0:0:
320,192,10312,1,0,0:0:0:0:
64,192,10428,1,0,0:0:0:0:
448,192,10543,1,0,0:0:0:0:
64,192,10774,1,0,0:0:0:0:
320,192,11005,128,0,12851:0:0:0:0:
448,192,11005,1,0,0:0:0:0:
192,192,11351,1,0,0:0:0:0:
64,192,11466,1,0,0:0:0:0:
448,192,11697,1,0,0:0:0:0:
192,192,11928,1,0,0:0:0:0:
64,192,12274,1,0,0:0:0:0:
192,192,12389,1,0,0:0:0:0:
448,192,12620,1,0,0:0:0:0:
64,192,12851,128,0,14697:0:0:0:0:
192,192,12851,1,0,0:0:0:0:
448,192,13082,1,0,0:0:0:0:
320,192,13197,1,0,0:0:0:0:
192,192,13312,1,0,0:0:0:0:
320,192,13543,1,0,0:0:0:0:
448,192,13774,1,0,0:0:0:0:
192,192,14005,1,0,0:0:0:0:
320,192,14120,1,0,0:0:0:0:
448,192,14235,1,0,0:0:0:0:
320,192,14466,1,0,0:0:0:0:
192,192,14697,1,0,0:0:0:0:
448,192,14697,1,0,0:0:0:0:
64,192,14928,1,0,0:0:0:0:
320,192,14928,1,0,0:0:0:0:
192,192,15043,1,0,0:0:0:0:
64,192,15158,1,0,0:0:0:0:
448,192,15158,1,0,0:0:0:0:
320,192,15389,1,0,0:0:0:0:
448,192,15389,1,0,0:0:0:0:
192,192,15620,1,0,0:0:0:0:
320,192,15620,1,0,0:0:0:0:
64,192,15851,1,0,0:0:0:0:
192,192,15908,1,0,0:0:0:0:
320,192,15966,1,0,0:0:0:0:
448,192,16024,1,0,0:0:0:0:
64,192,16082,1,0,0:0:0:70:LR_Snare Hit.wav
192,192,16082,1,0,0:0:0:0:
64,192,16312,1,2,0:0:0:0:
320,192,16312,1,0,0:0:0:0:
192,192,16543,1,2,0:0:0:0:
320,192,16543,1,4,0:0:0:0:
448,192,16543,1,0,0:0:0:0:
192,192,16774,1,0,0:0:0:0:
64,192,17005,1,8,0:0:0:0:
320,192,17005,1,2,0:0:0:0:
448,192,17005,1,0,0:0:0:0:
448,192,17235,1,0,0:0:0:0:
64,192,17466,1,2,0:0:0:0:
192,192,17466,1,0,0:0:0:0:
320,192,17466,1,0,0:0:0:0:
64,192,17697,1,0,0:0:0:0:
192,192,17812,1,0,0:0:0:0:
64,192,17928,1,8,0:0:0:0:
320,192,17928,1,2,0:0:0:0:
448,192,17928,1,0,0:0:0:0:
448,192,18158,1,0,0:0:0:0:
320,192,18274,1,0,0:0:0:0:
64,192,18389,1,2,0:0:0:0:
192,192,18389,1,0,0:0:0:0:
448,192,18389,1,0,0:0:0:0:
64,192,18620,1,0,0:0:0:0:
192,192,18851,1,2,0:0:0:0:
320,192,18851,1,8,0:0:0:0:
448,192,18851,1,0,0:0:0:0:
320,192,19082,1,0,0:0:0:0:
64,192,19312,1,2,0:0:0:0:
192,192,19312,1,0,0:0:0:0:
448,192,19312,1,0,0:0:0:0:
64,192,19543,1,0,0:0:0:0:
448,192,19658,1,0,0:0:0:0:
64,192,19774,1,2,0:0:0:0:
192,192,19774,1,8,0:0:0:0:
320,192,19774,1,0,0:0:0:0:
448,192,20005,1,0,0:0:0:0:
64,192,20120,1,0,0:0:0:0:
192,192,20235,1,2,0:0:0:0:
320,192,20235,1,0,0:0:0:0:
448,192,20235,1,0,0:0:0:0:
320,192,20466,1,0,0:0:0:0:
64,192,20697,1,8,0:0:0:0:
192,192,20697,1,2,0:0:0:0:
448,192,20697,1,0,0:0:0:0:
64,192,20928,1,0,0:0:0:0:
192,192,21158,1,2,0:0:0:0:
320,192,21158,1,0,0:0:0:0:
448,192,21158,1,0,0:0:0:0:
448,192,21389,1,0,0:0:0:0:
192,192,21505,1,0,0:0:0:0:
64,192,21620,1,8,0:0:0:0:
320,192,21620,1,2,0:0:0:0:
448,192,21620,1,0,0:0:0:0:
64,192,21851,1,0,0:0:0:0:
320,192,21966,1,0,0:0:0:0:
64,192,22082,1,2,0:0:0:0:
192,192,22082,128,0,22312:0:0:0:0:
448,192,22082,1,0,0:0:0:0:
320,192,22312,1,0,0:0:0:0:
64,192,22543,128,2,22774:0:0:0:0:
192,192,22543,1,8,0:0:0:0:
448,192,22543,1,0,0:0:0:0:
320,192,22774,1,0,0:0:0:0:
64,192,23005,1,2,0:0:0:0:
192,192,23005,1,0,0:0:0:0:
448,192,23005,128,0,23235:0:0:0:0:
64,192,23235,1,0,0:0:0:0:
192,192,23293,1,0,0:0:0:0:
320,192,23351,1,0,0:0:0:0:
448,192,23408,1,0,0:0:0:0:
64,192,23466,1,2,0:0:0:0:
192,192,23466,1,8,0:0:0:0:
320,192,23697,1,0,0:0:0:0:
192,192,23812,1,0,0:0:0:0:
64,192,23928,1,2,0:0:0:0:
320,192,23928,1,0,0:0:0:0:
448,192,23928,1,0,0:0:0:0:
192,192,24158,1,0,0:0:0:0:
320,192,24274,1,0,0:0:0:0:
64,192,24389,1,2,0:0:0:0:
192,192,24389,1,8,0:0:0:0:
448,192,24389,1,0,0:0:0:0:
64,192,24620,1,0,0:0:0:0:
192,192,24851,1,2,0:0:0:0:
320,192,24851,1,0,0:0:0:0:
448,192,24851,1,0,0:0:0:0:
192,192,25082,1,0,0:0:0:0:
320,192,25197,1,0,0:0:0:0:
64,192,25312,1,2,0:0:0:0:
192,192,25312,1,8,0:0:0:0:
448,192,25312,1,0,0:0:0:0:
320,192,25543,1,0,0:0:0:0:
192,192,25658,1,0,0:0:0:0:
64,192,25774,1,2,0:0:0:0:
320,192,25774,1,0,0:0:0:0:
448,192,25774,1,0,0:0:0:0:
192,192,26005,1,0,0:0:0:0:
448,192,26120,1,0,0:0:0:0:
64,192,26235,1,8,0:0:0:0:
192,192,26235,1,2,0:0:0:0:
320,192,26235,1,0,0:0:0:0:
192,192,26466,1,0,0:0:0:0:
64,192,26697,1,2,0:0:0:0:
320,192,26697,1,0,0:0:0:0:
448,192,26697,1,0,0:0:0:0:
320,192,26928,1,0,0:0:0:0:
64,192,27043,1,0,0:0:0:0:
192,192,27158,1,8,0:0:0:0:
320,192,27158,1,2,0:0:0:0:
448,192,27158,1,0,0:0:0:0:
192,192,27389,1,0,0:0:0:0:
448,192,27505,1,0,0:0:0:0:
64,192,27620,1,2,0:0:0:0:
192,192,27620,1,0,0:0:0:0:
320,192,27620,1,0,0:0:0:0:
64,192,27851,1,0,0:0:0:0:
192,192,27966,1,0,0:0:0:0:
64,192,28082,1,2,0:0:0:0:
320,192,28082,1,8,0:0:0:0:
448,192,28082,1,0,0:0:0:0:
448,192,28312,1,0,0:0:0:0:
64,192,28543,1,2,0:0:0:0:
192,192,28543,1,0,0:0:0:0:
320,192,28543,1,0,0:0:0:0:
64,192,28774,1,0,0:0:0:0:
320,192,28889,1,0,0:0:0:0:
64,192,29005,1,2,0:0:0:0:
192,192,29005,1,8,0:0:0:0:
448,192,29005,1,0,0:0:0:0:
448,192,29235,1,0,0:0:0:0:
192,192,29351,1,0,0:0:0:0:
64,192,29466,1,2,0:0:0:0:
320,192,29466,128,0,29697:0:0:0:0:
448,192,29466,1,0,0:0:0:0:
192,192,29697,1,0,0:0:0:0:
64,192,29928,1,8,0:0:0:0:
320,192,29928,1,2,0:0:0:0:
448,192,29928,128,0,30158:0:0:0:0:
192,192,30158,1,0,0:0:0:0:
320,192,30389,1,0,0:0:0:70:LR_Snare Hit.wav
448,192,30389,1,0,0:0:0:0:
320,192,30505,1,0,0:0:0:70:LR_Snare Hit.wav
448,192,30505,1,0,0:0:0:0:
64,192,30620,1,0,0:0:0:70:LR_Snare Hit.wav
192,192,30678,1,0,0:0:0:0:
320,192,30735,1,0,0:0:0:0:
448,192,30793,1,0,0:0:0:0:
64,192,30851,128,0,31082:0:0:0:70:LR_Clap Loud Long.wav
192,192,30851,1,0,0:0:0:0:
192,192,31082,128,0,31312:0:0:0:0:
64,192,31312,1,2,0:0:0:0:
320,192,31312,128,4,32005:0:0:0:0:
448,192,31312,128,0,32235:0:0:0:0:
192,192,32005,1,2,0:0:0:0:
64,192,32235,128,2,33620:0:0:0:0:
320,192,32235,128,0,33158:0:0:0:0:
192,192,32697,1,0,0:0:0:70:LR_Clap Low 2.wav
448,192,32697,1,0,0:0:0:0:
192,192,33158,128,2,34082:0:0:0:0:
448,192,33851,1,2,0:0:0:0:
64,192,34082,128,2,35005:0:0:0:0:
320,192,34082,128,0,34543:0:0:0:0:
192,192,34543,1,0,0:0:0:70:LR_Clap Low 2.wav
448,192,34543,128,0,35005:0:0:0:0:
320,192,34774,1,2,0:0:0:0:
192,192,35005,128,2,35928:0:0:0:0:
320,192,35005,128,0,35697:0:0:0:0:
448,192,35697,1,2,0:0:0:0:
64,192,35928,128,2,36389:0:0:0:0:
320,192,35928,128,0,36851:0:0:0:0:
192,192,36389,128,0,36851:0:0:0:70:LR_Clap Low 2.wav
448,192,36389,1,0,0:0:0:0:
64,192,36851,1,0,0:0:0:70:LR_Snare Hit.wav
448,192,36851,1,0,0:0:0:0:
64,192,37082,1,0,0:0:0:70:LR_Snare Hit.wav
192,192,37082,1,0,0:0:0:0:
320,192,37082,1,0,0:0:0:0:
64,192,37312,1,0,0:0:0:70:LR_Snare Hit.wav
192,192,37312,1,0,0:0:0:0:
448,192,37312,1,0,0:0:0:0:
64,192,37543,1,0,0:0:0:70:LR_Clap Loud Long.wav
192,192,37543,1,0,0:0:0:0:
320,192,37543,1,0,0:0:0:0:
448,192,37543,1,0,0:0:0:0:
64,192,38005,1,0,0:0:0:0:
192,192,38005,1,0,0:0:0:0:
192,192,38235,1,2,0:0:0:0:
320,192,38235,1,0,0:0:0:0:
320,192,38466,1,2,0:0:0:0:
448,192,38466,1,0,0:0:0:0:
64,192,38697,128,2,39389:0:0:0:0:
192,192,38697,1,4,0:0:0:0:
448,192,38697,1,0,0:0:0:0:
320,192,38928,1,0,0:0:0:0:
448,192,39043,1,0,0:0:0:0:
192,192,39158,1,8,0:0:0:0:
320,192,39158,1,2,0:0:0:0:
320,192,39389,128,0,40082:0:0:0:0:
448,192,39389,1,0,0:0:0:0:
64,192,39620,1,2,0:0:0:0:
192,192,39620,1,0,0:0:0:0:
64,192,39851,1,0,0:0:0:0:
64,192,40082,1,8,0:0:0:0:
192,192,40082,1,2,0:0:0:0:
448,192,40082,128,0,40543:0:0:0:0:
320,192,40312,1,0,0:0:0:0:
64,192,40543,1,2,0:0:0:0:
192,192,40543,128,0,40889:0:0:0:0:
448,192,40774,1,0,0:0:0:0:
64,192,40889,128,0,41235:0:0:0:0:
320,192,40889,1,0,0:0:0:0:
192,192,41005,1,2,0:0:0:0:
448,192,41005,1,8,0:0:0:0:
320,192,41235,128,0,41466:0:0:0:0:
448,192,41235,1,0,0:0:0:0:
64,192,41466,1,2,0:0:0:0:
192,192,41466,128,0,41928:0:0:0:0:
320,192,41697,1,0,0:0:0:0:
64,192,41928,1,2,0:0:0:0:
320,192,41928,128,8,42389:0:0:0:0:
448,192,41928,1,0,0:0:0:0:
192,192,42158,1,0,0:0:0:0:
64,192,42389,1,2,0:0:0:0:
448,192,42389,1,4,0:0:0:0:
64,192,42620,1,0,0:0:0:0:
320,192,42620,1,0,0:0:0:0:
192,192,42851,1,0,0:0:0:0:
320,192,42851,1,0,0:0:0:0:
192,192,43082,1,2,0:0:0:0:
448,192,43082,1,0,0:0:0:0:
64,192,43312,1,0,0:0:0:50:LR_Snare Hit.wav
320,192,43312,1,0,0:0:0:0:
192,192,43428,1,0,0:0:0:50:LR_Snare Hit.wav
64,192,43543,1,0,0:0:0:50:LR_Snare Hit.wav
448,192,43543,1,0,0:0:0:0:
320,192,43658,1,0,0:0:0:50:LR_Snare Hit.wav
192,192,43774,1,2,0:0:0:0:
448,192,43774,1,0,0:0:0:0:
320,192,43889,1,0,0:0:0:60:LR_Snare Hit.wav
64,192,44005,1,2,0:0:0:0:
192,192,44005,1,4,0:0:0:0:
320,192,44120,1,0,0:0:0:60:LR_Snare Hit.wav
64,192,44235,1,0,0:0:0:70:LR_Snare Hit.wav
448,192,44235,1,0,0:0:0:0:
192,192,44351,1,0,0:0:0:70:LR_Snare Hit.wav
320,192,44351,1,0,0:0:0:0:
64,192,44466,1,0,0:0:0:70:LR_Snare Hit.wav
448,192,44466,1,0,0:0:0:0:
192,192,44582,1,0,0:0:0:70:LR_Snare Hit.wav
320,192,44582,1,0,0:0:0:0:
64,192,44697,1,0,0:0:0:70:LR_Snare Hit.wav
448,192,44697,1,0,0:0:0:0:
192,192,44812,1,0,0:0:0:70:LR_Snare Hit.wav
320,192,44812,1,0,0:0:0:0:
64,192,44928,1,0,0:0:0:70:LR_Snare Hit.wav
448,192,44928,1,0,0:0:0:0:
192,192,45043,1,0,0:0:0:70:LR_Snare Hit.wav
320,192,45043,1,0,0:0:0:0:
64,192,45158,128,0,45389:0:0:0:0:
448,192,45158,1,0,0:0:0:0:
192,192,45389,128,0,45620:0:0:0:0:
64,192,45620,1,0,0:0:0:70:LR_Clap Loud Long.wav
320,192,45620,128,0,45851:0:0:0:0:
448,192,45620,1,0,0:0:0:0:
448,192,45851,128,0,46082:0:0:0:0:
64,192,46082,128,2,46543:0:0:0:0:
192,192,46082,1,4,0:0:0:0:
320,192,46082,1,0,0:0:0:0:
192,192,46312,1,0,0:0:0:0:
448,192,46312,1,0,0:0:0:0:
320,192,46428,1,0,0:0:0:0:
192,192,46543,1,8,0:0:0:0:
448,192,46543,128,2,47005:0:0:0:0:
64,192,46774,1,0,0:0:0:0:
320,192,46774,1,0,0:0:0:0:
192,192,46889,1,0,0:0:0:0:
64,192,47005,1,2,0:0:0:0:
320,192,47005,1,0,0:0:0:0:
192,192,47235,1,0,0:0:0:0:
448,192,47235,1,0,0:0:0:0:
64,192,47466,1,8,0:0:0:0:
320,192,47466,1,2,0:0:0:0:
448,192,47466,1,0,0:0:0:0:
192,192,47697,128,0,48158:0:0:0:0:
320,192,47697,1,0,0:0:0:0:
320,192,47928,1,2,0:0:0:0:
448,192,47928,1,0,0:0:0:0:
64,192,48158,1,0,0:0:0:0:
448,192,48158,1,0,0:0:0:0:
320,192,48274,1,0,0:0:0:0:
64,192,48389,1,2,0:0:0:0:
192,192,48389,1,8,0:0:0:0:
448,192,48389,1,0,0:0:0:0:
192,192,48620,1,0,0:0:0:0:
320,192,48620,1,0,0:0:0:0:
64,192,48851,1,2,0:0:0:0:
320,192,48851,1,0,0:0:0:0:
448,192,48851,1,0,0:0:0:0:
192,192,48966,1,0,0:0:0:0:
64,192,49082,1,0,0:0:0:0:
448,192,49082,1,0,0:0:0:0:
320,192,49197,1,0,0:0:0:0:
64,192,49312,1,2,0:0:0:0:
192,192,49312,1,8,0:0:0:0:
448,192,49312,1,0,0:0:0:0:
320,192,49543,1,0,0:0:0:0:
448,192,49543,1,0,0:0:0:0:
64,192,49774,1,2,0:0:0:0:
192,192,49774,128,0,50235:0:0:0:0:
448,192,49774,1,0,0:0:0:0:
64,192,50005,1,0,0:0:0:0:
320,192,50005,1,0,0:0:0:0:
448,192,50120,1,0,0:0:0:0:
64,192,50235,1,8,0:0:0:0:
320,192,50235,128,2,50697:0:0:0:0:
192,192,50466,1,0,0:0:0:0:
448,192,50466,1,0,0:0:0:0:
64,192,50582,1,0,0:0:0:0:
192,192,50697,1,2,0:0:0:0:
448,192,50697,1,0,0:0:0:0:
64,192,50928,1,0,0:0:0:0:
320,192,50928,1,0,0:0:0:0:
64,192,51158,1,8,0:0:0:0:
192,192,51158,1,2,0:0:0:0:
448,192,51158,1,0,0:0:0:0:
64,192,51389,128,0,51851:0:0:0:0:
320,192,51389,1,0,0:0:0:0:
192,192,51620,1,2,0:0:0:0:
448,192,51620,1,0,0:0:0:0:
320,192,51851,1,0,0:0:0:0:
448,192,51851,1,0,0:0:0:0:
192,192,51966,1,0,0:0:0:0:
64,192,52082,1,2,0:0:0:0:
320,192,52082,1,8,0:0:0:0:
448,192,52082,1,0,0:0:0:0:
64,192,52312,1,0,0:0:0:0:
320,192,52312,1,0,0:0:0:0:
64,192,52543,1,2,0:0:0:0:
192,192,52543,1,0,0:0:0:0:
448,192,52543,1,0,0:0:0:0:
320,192,52658,1,0,0:0:0:0:
192,192,52774,1,0,0:0:0:0:
448,192,52774,1,0,0:0:0:0:
64,192,52889,1,0,0:0:0:0:
192,192,53005,1,2,0:0:0:0:
320,192,53005,1,8,0:0:0:0:
448,192,53005,1,0,0:0:0:0:
64,192,53235,1,0,0:0:0:0:
192,192,53235,1,0,0:0:0:0:
64,192,53466,128,2,53697:0:0:0:0:
320,192,53466,1,0,0:0:0:0:
448,192,53466,1,0,0:0:0:0:
448,192,53697,1,0,0:0:0:0:
64,192,53928,1,2,0:0:0:0:
192,192,53928,1,8,0:0:0:0:
448,192,53928,128,0,54158:0:0:0:0:
64,192,54158,1,0,0:0:0:0:
192,192,54389,128,2,54620:0:0:0:0:
320,192,54389,1,0,0:0:0:0:
448,192,54389,1,0,0:0:0:0:
320,192,54620,1,0,0:0:0:0:
64,192,54851,1,2,0:0:0:0:
192,192,54851,1,8,0:0:0:0:
320,192,54851,128,0,55082:0:0:0:0:
192,192,55082,1,0,0:0:0:0:
64,192,55312,128,2,56697:0:0:0:0:
320,192,55312,128,0,55774:0:0:0:0:
448,192,55312,128,0,56235:0:0:0:0:
192,192,55543,1,0,0:0:0:0:
192,192,55774,128,10,56697:0:0:0:0:
320,192,56005,1,0,0:0:0:0:
320,192,56235,128,2,56697:0:0:0:0:
448,192,56466,1,0,0:0:0:0:
448,192,56697,1,10,0:0:0:0:
192,192,56928,1,0,0:0:0:0:
320,192,56928,128,0,57389:0:0:0:0:
64,192,57158,1,2,0:0:0:0:
192,192,57158,1,0,0:0:0:0:
448,192,57158,1,0,0:0:0:0:
64,192,57389,1,0,0:0:0:0:
448,192,57389,1,0,0:0:0:0:
192,192,57505,1,0,0:0:0:0:
64,192,57620,1,2,0:0:0:0:
320,192,57620,1,8,0:0:0:0:
448,192,57620,1,0,0:0:0:0:
192,192,57851,1,0,0:0:0:0:
448,192,57851,1,0,0:0:0:0:
64,192,58082,1,2,0:0:0:0:
192,192,58082,1,0,0:0:0:0:
320,192,58082,1,0,0:0:0:0:
320,192,58312,1,0,0:0:0:0:
448,192,58312,1,0,0:0:0:0:
64,192,58543,1,2,0:0:0:0:
192,192,58543,1,8,0:0:0:0:
448,192,58543,1,0,0:0:0:0:
64,192,58774,128,0,59466:0:0:0:0:
320,192,58774,1,0,0:0:0:0:
192,192,59005,1,2,0:0:0:0:
448,192,59005,1,0,0:0:0:0:
320,192,59235,1,0,0:0:0:0:
448,192,59351,1,0,0:0:0:0:
192,192,59466,1,8,0:0:0:0:
320,192,59466,1,2,0:0:0:0:
192,192,59697,1,0,0:0:0:0:
448,192,59697,1,0,0:0:0:0:
64,192,59928,1,0,0:0:0:70:LR_Snare Hit.wav
192,192,59928,1,0,0:0:0:0:
320,192,59928,1,0,0:0:0:0:
64,192,60158,1,0,0:0:0:70:LR_Snare Hit.wav
192,192,60158,1,0,0:0:0:0:
448,192,60158,1,0,0:0:0:0:
64,192,60389,1,0,0:0:0:70:LR_Clap Loud Long.wav
320,192,60389,1,0,0:0:0:0:
448,192,60389,1,0,0:0:0:0:
192,192,60620,1,0,0:0:0:0:
320,192,60620,1,0,0:0:0:0:
448,192,60620,1,0,0:0:0:0:
64,192,60851,128,2,61312:0:0:0:0:
192,192,60851,1,4,0:0:0:0:
448,192,60851,1,0,0:0:0:0:
320,192,61082,1,0,0:0:0:0:
448,192,61082,1,0,0:0:0:0:
192,192,61197,1,0,0:0:0:0:
320,192,61312,1,8,0:0:0:0:
448,192,61312,128,2,61774:0:0:0:0:
64,192,61543,1,0,0:0:0:0:
192,192,61543,1,0,0:0:0:0:
320,192,61658,1,0,0:0:0:0:
64,192,61774,1,2,0:0:0:0:
192,192,61774,1,0,0:0:0:0:
320,192,62005,1,0,0:0:0:0:
448,192,62005,1,0,0:0:0:0:
64,192,62235,1,8,0:0:0:0:
192,192,62235,1,2,0:0:0:0:
448,192,62235,1,0,0:0:0:0:
64,192,62466,1,0,0:0:0:0:
320,192,62466,128,0,62928:0:0:0:0:
192,192,62697,1,2,0:0:0:0:
448,192,62697,1,0,0:0:0:0:
64,192,62928,1,0,0:0:0:0:
192,192,62928,1,0,0:0:0:0:
448,192,63043,1,0,0:0:0:0:
64,192,63158,1,2,0:0:0:0:
192,192,63158,1,8,0:0:0:0:
320,192,63158,1,0,0:0:0:0:
320,192,63389,1,0,0:0:0:0:
448,192,63389,1,0,0:0:0:0:
64,192,63620,1,2,0:0:0:0:
192,192,63620,1,0,0:0:0:0:
448,192,63620,1,0,0:0:0:0:
320,192,63735,1,0,0:0:0:0:
64,192,63851,1,0,0:0:0:0:
192,192,63851,1,0,0:0:0:0:
320,192,63966,1,0,0:0:0:0:
64,192,64082,1,2,0:0:0:0:
192,192,64082,1,8,0:0:0:0:
448,192,64082,1,0,0:0:0:0:
64,192,64312,1,0,0:0:0:0:
320,192,64312,1,0,0:0:0:0:
192,192,64543,1,2,0:0:0:0:
320,192,64543,1,0,0:0:0:0:
448,192,64543,128,0,64889:0:0:0:0:
64,192,64774,1,0,0:0:0:0:
320,192,64889,128,0,65235:0:0:0:0:
64,192,65005,1,8,0:0:0:0:
192,192,65005,1,2,0:0:0:0:
192,192,65235,1,0,0:0:0:0:
448,192,65235,1,0,0:0:0:0:
64,192,65466,1,2,0:0:0:0:
320,192,65466,1,0,0:0:0:0:
448,192,65466,1,0,0:0:0:0:
192,192,65582,1,0,0:0:0:0:
64,192,65697,1,0,0:0:0:0:
320,192,65697,1,0,0:0:0:0:
448,192,65812,1,0,0:0:0:0:
64,192,65928,1,8,0:0:0:0:
192,192,65928,1,2,0:0:0:0:
320,192,65928,1,0,0:0:0:0:
64,192,66158,128,0,66620:0:0:0:0:
192,192,66158,1,0,0:0:0:0:
320,192,66389,1,2,0:0:0:0:
448,192,66389,1,0,0:0:0:0:
448,192,66620,1,0,0:0:0:0:
320,192,66735,1,0,0:0:0:0:
64,192,66851,1,2,0:0:0:0:
192,192,66851,1,8,0:0:0:0:
448,192,66851,1,0,0:0:0:0:
64,192,67082,1,0,0:0:0:0:
320,192,67082,1,0,0:0:0:0:
192,192,67312,1,2,0:0:0:0:
320,192,67312,1,0,0:0:0:0:
448,192,67312,1,0,0:0:0:0:
64,192,67428,1,0,0:0:0:0:
320,192,67543,1,0,0:0:0:0:
448,192,67543,1,0,0:0:0:0:
192,192,67658,1,0,0:0:0:0:
64,192,67774,1,2,0:0:0:0:
320,192,67774,1,8,0:0:0:0:
448,192,67774,1,0,0:0:0:0:
192,192,68005,1,0,0:0:0:0:
320,192,68005,1,0,0:0:0:0:
64,192,68235,128,2,70082:0:0:0:0:
192,192,68235,1,0,0:0:0:0:
448,192,68235,1,0,0:0:0:0:
320,192,68466,1,0,0:0:0:0:
192,192,68582,1,0,0:0:0:0:
320,192,68697,1,2,0:0:0:0:
448,192,68697,1,8,0:0:0:0:
448,192,68928,1,0,0:0:0:0:
192,192,69158,128,2,70082:0:0:0:0:
320,192,69158,1,0,0:0:0:0:
448,192,69274,1,0,0:0:0:0:
320,192,69389,1,0,0:0:0:0:
448,192,69505,1,0,0:0:0:0:
320,192,69620,1,10,0:0:0:0:
448,192,69851,1,0,0:0:0:0:
320,192,70082,1,2,0:0:0:0:
448,192,70082,1,0,0:0:0:0:
64,192,70312,1,0,0:0:0:0:
192,192,70312,1,0,0:0:0:0:
320,192,70428,1,0,0:0:0:0:
64,192,70543,1,8,0:0:0:0:
192,192,70543,1,2,0:0:0:0:
448,192,70543,1,0,0:0:0:0:
64,192,70774,1,0,0:0:0:0:
320,192,70774,1,0,0:0:0:0:
192,192,71005,1,2,0:0:0:0:
320,192,71005,1,0,0:0:0:0:
448,192,71005,1,0,0:0:0:0:
64,192,71120,1,0,0:0:0:0:
192,192,71235,1,0,0:0:0:0:
448,192,71235,1,0,0:0:0:0:
320,192,71351,1,0,0:0:0:0:
64,192,71466,1,8,0:0:0:0:
192,192,71466,1,2,0:0:0:0:
448,192,71466,1,0,0:0:0:0:
64,192,71697,1,0,0:0:0:0:
320,192,71697,1,0,0:0:0:0:
192,192,71928,1,2,0:0:0:0:
320,192,71928,1,0,0:0:0:0:
448,192,71928,128,0,72620:0:0:0:0:
64,192,72158,1,0,0:0:0:0:
320,192,72274,128,0,72620:0:0:0:0:
64,192,72389,1,2,0:0:0:0:
192,192,72389,1,8,0:0:0:0:
64,192,72620,1,0,0:0:0:0:
192,192,72620,1,0,0:0:0:0:
64,192,72851,128,2,73543:0:0:0:0:
320,192,72851,1,0,0:0:0:0:
448,192,72851,1,0,0:0:0:0:
448,192,73082,1,0,0:0:0:0:
192,192,73197,128,0,73543:0:0:0:0:
320,192,73312,1,2,0:0:0:0:
448,192,73312,1,8,0:0:0:0:
320,192,73543,1,0,0:0:0:0:
448,192,73543,1,0,0:0:0:0:
64,192,73774,1,2,0:0:0:0:
192,192,73774,1,0,0:0:0:0:
320,192,73774,1,0,0:0:0:0:
64,192,74120,1,0,0:0:0:70:LR_Snare Hit.wav
320,192,74120,1,0,0:0:0:0:
448,192,74120,1,0,0:0:0:0:
64,192,74235,1,8,0:0:0:0:
320,192,74235,1,2,0:0:0:0:
448,192,74235,1,0,0:0:0:0:
64,192,74466,128,0,75505:0:0:0:70:LR_Snare Hit.wav
192,192,74466,128,0,75505:0:0:0:0:
320,192,74466,128,0,75505:0:0:0:0:
448,192,74466,128,0,75505:0:0:0:0:
64,192,75620,1,2,0:0:0:0:
192,192,75620,1,4,0:0:0:0:
320,192,75620,1,0,0:0:0:0:
448,192,75620,1,0,0:0:0:0:
64,192,75851,1,0,0:0:0:0:
448,192,75851,1,0,0:0:0:0:
192,192,75966,1,0,0:0:0:0:
64,192,76082,1,8,0:0:0:0:
320,192,76082,1,2,0:0:0:0:
448,192,76082,128,0,77005:0:0:0:0:
192,192,76312,1,0,0:0:0:0:
64,192,76543,1,2,0:0:0:0:
192,192,76543,128,0,77466:0:0:0:0:
320,192,76543,1,0,0:0:0:0:
320,192,76774,1,0,0:0:0:0:
64,192,76889,1,0,0:0:0:0:
320,192,77005,128,10,78158:0:0:0:0:
448,192,77235,1,0,0:0:0:0:
64,192,77466,128,2,78851:0:0:0:0:
448,192,77466,1,0,0:0:0:0:
192,192,77697,1,0,0:0:0:0:
448,192,77812,1,0,0:0:0:0:
192,192,77928,1,10,0:0:0:0:
192,192,78158,128,0,78851:0:0:0:0:
448,192,78158,1,0,0:0:0:0:
320,192,78389,1,2,0:0:0:0:
448,192,78389,1,0,0:0:0:0:
320,192,78620,1,0,0:0:0:0:
448,192,78735,1,0,0:0:0:0:
320,192,78851,1,10,0:0:0:0:
192,192,79082,1,0,0:0:0:0:
448,192,79082,1,0,0:0:0:0:
64,192,79312,1,2,0:0:0:0:
320,192,79312,1,0,0:0:0:0:
448,192,79312,1,0,0:0:0:0:
192,192,79543,1,0,0:0:0:0:
320,192,79543,1,0,0:0:0:0:
448,192,79658,1,0,0:0:0:0:
64,192,79774,128,8,80697:0:0:0:0:
192,192,79774,1,2,0:0:0:0:
320,192,79774,1,0,0:0:0:0:
448,192,80005,1,0,0:0:0:0:
192,192,80235,1,2,0:0:0:0:
320,192,80235,1,0,0:0:0:0:
448,192,80235,128,0,81158:0:0:0:0:
192,192,80466,1,0,0:0:0:0:
320,192,80582,1,0,0:0:0:0:
192,192,80697,128,10,81158:0:0:0:0:
64,192,80928,1,0,0:0:0:0:
64,192,81158,1,2,0:0:0:0:
320,192,81158,1,0,0:0:0:0:
448,192,81274,1,0,0:0:0:0:
192,192,81389,1,0,0:0:0:0:
320,192,81389,1,0,0:0:0:0:
64,192,81505,1,0,0:0:0:0:
192,192,81620,1,2,0:0:0:0:
320,192,81620,1,8,0:0:0:0:
448,192,81620,1,0,0:0:0:0:
64,192,81851,1,0,0:0:0:0:
320,192,81851,128,0,83005:0:0:0:0:
64,192,82082,1,2,0:0:0:0:
192,192,82082,1,0,0:0:0:0:
448,192,82312,1,0,0:0:0:0:
192,192,82428,1,0,0:0:0:0:
64,192,82543,1,2,0:0:0:0:
448,192,82543,1,8,0:0:0:0:
192,192,82774,1,0,0:0:0:0:
64,192,83005,1,2,0:0:0:0:
192,192,83005,1,0,0:0:0:0:
448,192,83005,1,0,0:0:0:0:
64,192,83235,1,0,0:0:0:0:
448,192,83235,1,0,0:0:0:0:
320,192,83351,1,0,0:0:0:0:
64,192,83466,128,2,84389:0:0:0:0:
192,192,83466,1,8,0:0:0:0:
448,192,83466,1,0,0:0:0:0:
320,192,83697,1,0,0:0:0:0:
192,192,83928,1,2,0:0:0:0:
320,192,83928,128,0,84851:0:0:0:0:
448,192,83928,1,0,0:0:0:0:
192,192,84158,1,0,0:0:0:0:
448,192,84274,1,0,0:0:0:0:
192,192,84389,128,10,85543:0:0:0:0:
64,192,84620,1,0,0:0:0:0:
64,192,84851,1,2,0:0:0:0:
448,192,84851,128,0,86235:0:0:0:0:
320,192,85082,1,0,0:0:0:0:
64,192,85197,1,0,0:0:0:0:
320,192,85312,1,10,0:0:0:0:
64,192,85543,1,0,0:0:0:0:
320,192,85543,128,0,86235:0:0:0:0:
64,192,85774,1,2,0:0:0:0:
192,192,85774,1,0,0:0:0:0:
192,192,86005,1,0,0:0:0:0:
64,192,86120,1,0,0:0:0:0:
192,192,86235,1,10,0:0:0:0:
64,192,86466,128,0,86928:0:0:0:0:
192,192,86466,128,0,86928:0:0:0:0:
320,192,86697,1,2,0:0:0:0:
448,192,86697,1,0,0:0:0:0:
320,192,86928,1,0,0:0:0:0:
448,192,86928,1,0,0:0:0:0:
192,192,87043,1,0,0:0:0:0:
64,192,87158,1,2,0:0:0:0:
320,192,87158,1,8,0:0:0:0:
448,192,87158,1,0,0:0:0:0:
320,192,87389,128,0,87851:0:0:0:0:
448,192,87389,128,0,87851:0:0:0:0:
64,192,87620,1,2,0:0:0:0:
192,192,87620,1,0,0:0:0:0:
64,192,87851,1,0,0:0:0:70:LR_Snare Hit.wav
192,192,87851,1,0,0:0:0:0:
320,192,87966,1,0,0:0:0:0:
64,192,88082,1,0,0:0:0:70:LR_Snare Hit.wav
192,192,88082,1,0,0:0:0:0:
448,192,88082,1,0,0:0:0:0:
320,192,88197,1,0,0:0:0:70:LR_Snare Hit.wav
64,192,88312,128,0,89928:0:0:0:70:LR_Snare Hit.wav
192,192,88312,1,0,0:0:0:0:
448,192,88312,1,0,0:0:0:0:
192,192,88543,128,0,89928:0:0:0:50:LR_Clap Loud Long.wav
320,192,88543,128,0,89928:0:0:0:0:
448,192,88543,128,0,89928:0:0:0:0:
