osu file format v14

[General]
AudioFilename: audio.mp3
AudioLeadIn: 0
PreviewTime: 45050
Countdown: 0
SampleSet: Normal
StackLeniency: 0.7
Mode: 1
LetterboxInBreaks: 0
WidescreenStoryboard: 0

[Editor]
Bookmarks: 1781,16550,31319,38704,46088,60857,75627,90396
DistanceSpacing: 1.2
BeatDivisor: 2
GridSize: 32
TimelineZoom: 0.9999999

[Metadata]
Title:Precious You* (TV Size)
TitleUnicode:Precious You☆ (TV Size)
Artist:Fujita Akane, Miyamoto Yume, Ozawa Ari
ArtistUnicode:藤田茜、宮本侑芽、小澤亜李
Creator:Roger
Version:Kantan
Source:ロクでなし魔術講師と禁忌教典
Tags:ending ed anime japanese pop jpop j-pop Creamy Candy ][ -GH- ][ アカシックレコード akashic records of bastard magic instructor rokudenashi majutsu koushi to kinki kyouten ロクアカ rokuaka システィーナ=フィーベル Sistine Fibel ルミア=ティンジェル Rumia Tingel リィエル=レイフォード Riel Re=L Rayford
BeatmapID:2367470
BeatmapSetID:674701

[Difficulty]
HPDrainRate:9
CircleSize:2
OverallDifficulty:2.5
ApproachRate:0
SliderMultiplier:1.4
SliderTickRate:1

[Events]
//Background and Video events
0,0,"bg.jpg",0,30
Video,30,"video.mp4",0,180
//Break Periods
//Storyboard Layer 0 (Background)
//Storyboard Layer 1 (Fail)
//Storyboard Layer 2 (Pass)
//Storyboard Layer 3 (Foreground)
//Storyboard Layer 4 (Overlay)
//Storyboard Sound Samples

[TimingPoints]
1781,461.538461538462,4,1,0,80,1,0
46088,-100,4,1,0,90,0,1
59934,-100,4,1,0,90,0,0
60857,-100,4,1,0,90,0,1
74704,-100,4,1,0,20,0,0
75511,-100,4,1,0,80,0,0
75627,-100,4,1,0,85,0,0
88434,-100,4,1,0,45,0,0
88550,-100,4,1,0,35,0,0
89011,-100,4,1,0,25,0,0
89473,-100,4,1,0,15,0,0
89934,-100,4,1,0,5,0,0

[HitObjects]
384,32,1781,5,0,0:0:0:0:
384,32,2704,1,8,0:0:0:0:
384,32,3627,1,0,0:0:0:0:
384,32,4319,1,0,0:0:0:0:
384,32,5473,1,0,0:0:0:0:
384,32,6396,1,8,0:0:0:0:
384,32,7319,1,0,0:0:0:0:
384,32,8011,1,8,0:0:0:0:
384,32,9165,1,0,0:0:0:0:
384,32,10088,1,8,0:0:0:0:
384,32,11011,1,0,0:0:0:0:
384,32,11704,1,0,0:0:0:0:
384,32,12857,1,8,0:0:0:0:
384,32,13781,1,8,0:0:0:0:
384,32,14704,1,0,0:0:0:0:
384,32,16088,1,8,0:0:0:0:
384,32,16550,1,4,0:0:0:0:
384,32,17473,1,8,0:0:0:0:
384,32,18396,1,0,0:0:0:0:
384,32,18857,1,0,0:0:0:0:
384,32,19319,1,8,0:0:0:0:
384,32,20242,1,0,0:0:0:0:
384,32,21165,1,8,0:0:0:0:
384,32,21627,1,8,0:0:0:0:
384,32,22088,1,0,0:0:0:0:
384,32,23934,1,0,0:0:0:0:
384,32,24857,1,8,0:0:0:0:
384,32,25781,1,0,0:0:0:0:
384,32,26242,1,8,0:0:0:0:
384,32,26704,1,0,0:0:0:0:
384,32,27627,1,0,0:0:0:0:
384,32,28550,1,8,0:0:0:0:
384,32,29473,1,0,0:0:0:0:
384,32,30165,1,8,0:0:0:0:
384,32,30857,1,8,0:0:0:0:
384,32,31319,1,4,0:0:0:0:
384,32,32704,1,8,0:0:0:0:
384,32,33165,1,0,0:0:0:0:
384,32,34088,1,8,0:0:0:0:
384,32,35011,1,0,0:0:0:0:
384,32,35934,1,0,0:0:0:0:
384,32,36396,1,8,0:0:0:0:
384,32,36857,1,12,0:0:0:0:
384,32,37550,1,12,0:0:0:0:
384,32,38704,1,4,0:0:0:0:
384,32,39627,1,8,0:0:0:0:
384,32,40088,1,8,0:0:0:0:
384,32,40550,1,0,0:0:0:0:
384,32,41473,1,0,0:0:0:0:
384,32,42396,1,8,0:0:0:0:
384,32,43088,1,0,0:0:0:0:
384,32,43550,1,0,0:0:0:0:
384,32,44242,2,0,L|288:32,4,70
384,32,45627,1,8,0:0:0:0:
384,32,46088,1,12,0:0:0:0:
384,32,47011,1,0,0:0:0:0:
384,32,47934,1,0,0:0:0:0:
384,32,48396,1,8,0:0:0:0:
384,32,49319,1,8,0:0:0:0:
384,32,49781,1,0,0:0:0:0:
384,32,50704,1,8,0:0:0:0:
384,32,51627,1,0,0:0:0:0:
384,32,52319,1,8,0:0:0:0:
384,32,53473,1,0,0:0:0:0:
384,32,54396,1,0,0:0:0:0:
384,32,55319,1,8,0:0:0:0:
384,32,55781,1,8,0:0:0:0:
384,32,56242,1,8,0:0:0:0:
384,32,56934,1,0,0:0:0:0:
384,32,57627,1,0,0:0:0:0:
384,32,58088,1,8,0:0:0:0:
384,32,58781,1,0,0:0:0:0:
384,32,59934,1,0,0:0:0:0:
384,32,60396,1,8,0:0:0:0:
384,32,60857,1,12,0:0:0:0:
384,32,61781,1,0,0:0:0:0:
384,32,62704,1,0,0:0:0:0:
384,32,63165,1,8,0:0:0:0:
384,32,64088,1,8,0:0:0:0:
384,32,64550,1,0,0:0:0:0:
384,32,65473,1,8,0:0:0:0:
384,32,66396,1,0,0:0:0:0:
384,32,67088,1,8,0:0:0:0:
384,32,68242,1,0,0:0:0:0:
384,32,69165,1,8,0:0:0:0:
384,32,70088,1,0,0:0:0:0:
384,32,70550,1,0,0:0:0:0:
384,32,71011,1,8,0:0:0:0:
384,32,71473,1,8,0:0:0:0:
384,32,71934,1,0,0:0:0:0:
384,32,72857,1,8,0:0:0:0:
384,32,73781,1,4,0:0:0:0:
384,32,74473,1,12,0:0:0:0:
384,32,75627,1,4,0:0:0:0:
384,32,76550,1,8,0:0:0:0:
384,32,77011,1,0,0:0:0:0:
384,32,77473,1,8,0:0:0:0:
384,32,78165,1,0,0:0:0:0:
384,32,79319,1,0,0:0:0:0:
384,32,80242,1,8,0:0:0:0:
384,32,80704,1,8,0:0:0:0:
384,32,81165,1,0,0:0:0:0:
384,32,81857,1,8,0:0:0:0:
384,32,83011,1,0,0:0:0:0:
384,32,83934,1,8,0:0:0:0:
384,32,84396,1,0,0:0:0:0:
384,32,84857,1,8,0:0:0:0:
384,32,85550,1,0,0:0:0:0:
384,32,86704,1,8,0:0:0:0:
384,32,87627,1,8,0:0:0:0:
384,32,88088,1,0,0:0:0:0:
256,192,88550,8,0,90396,0:0:0:0:
