osu file format v14

[General]
AudioFilename: audio.mp3
AudioLeadIn: 0
PreviewTime: 45050
Countdown: 0
SampleSet: Soft
StackLeniency: 0.7
Mode: 0
LetterboxInBreaks: 0
WidescreenStoryboard: 0

[Editor]
Bookmarks: 16550,31319,38704,46088,60857,75627,88550
DistanceSpacing: 1
BeatDivisor: 4
GridSize: 32
TimelineZoom: 2.599999

[Metadata]
Title:Precious You* (TV Size)
TitleUnicode:Precious You☆ (TV Size)
Artist:Fujita Akane, Miyamoto Yume, Ozawa Ari
ArtistUnicode:藤田茜、宮本侑芽、小澤亜李
Creator:Roger
Version:Creamy's Normal
Source:ロクでなし魔術講師と禁忌教典
Tags:ending ed anime japanese pop jpop j-pop Creamy Candy ][ -GH- ][ アカシックレコード akashic records of bastard magic instructor rokudenashi majutsu koushi to kinki kyouten ロクアカ rokuaka システィーナ=フィーベル Sistine Fibel ルミア=ティンジェル Rumia Tingel リィエル=レイフォード Riel Re=L Rayford
BeatmapID:2376194
BeatmapSetID:674701

[Difficulty]
HPDrainRate:3
CircleSize:3.5
OverallDifficulty:4.5
ApproachRate:4.5
SliderMultiplier:1
SliderTickRate:1

[Events]
//Background and Video events
0,0,"bg2.jpg",0,0
Video,30,"video.mp4"
//Break Periods
//Storyboard Layer 0 (Background)
//Storyboard Layer 1 (Fail)
//Storyboard Layer 2 (Pass)
//Storyboard Layer 3 (Foreground)
//Storyboard Layer 4 (Overlay)
//Storyboard Sound Samples

[TimingPoints]
1781,461.538461538462,4,2,1,72,1,0
2011,-100,4,2,1,85,0,0
2242,-100,4,2,2,85,0,0
2703,-100,4,2,3,85,0,0
3165,-100,4,2,4,85,0,0
3626,-100,4,2,5,85,0,0
4319,-100,4,2,6,85,0,0
5011,-100,4,2,7,72,0,0
5703,-100,4,2,1,85,0,0
5934,-100,4,2,8,85,0,0
6396,-100,4,2,9,85,0,0
6857,-100,4,2,6,85,0,0
7319,-100,4,2,3,85,0,0
7549,-100,4,2,2,85,0,0
7780,-100,4,2,10,85,0,0
8011,-100,4,2,6,85,0,0
9165,-100,4,2,1,72,0,0
9396,-100,4,2,1,85,0,0
9626,-100,4,2,8,85,0,0
10088,-100,4,2,9,85,0,0
10549,-100,4,2,6,85,0,0
11011,-100,4,2,5,85,0,0
11703,-100,4,2,6,85,0,0
12396,-100,4,2,2,85,0,0
12626,-100,4,2,6,85,0,0
12857,-100,4,2,1,72,0,0
13319,-100,4,2,2,85,0,0
13549,-100,4,2,6,85,0,0
13781,-100,4,2,1,72,0,0
14242,-100,4,2,11,85,0,0
14472,-100,4,2,6,85,0,0
14704,-100,4,2,1,72,0,0
14934,-100,4,2,7,72,0,0
15165,-100,4,2,1,72,0,0
15396,-100,4,2,7,72,0,0
15627,-100,4,2,1,72,0,0
15857,-100,4,2,7,72,0,0
16088,-100,4,2,1,72,0,0
16781,-100,4,2,7,72,0,0
22319,-100,4,2,1,72,0,0
24165,-100,4,2,7,72,0,0
30857,-100,4,2,1,72,0,0
31088,-100,4,2,7,72,0,0
31319,-100,4,2,1,72,0,0
32011,-100,4,2,7,42,0,0
32704,-100,4,2,1,72,0,0
32934,-100,4,2,1,42,0,0
34088,-100,4,2,7,42,0,0
34550,-100,4,2,1,72,0,0
34781,-100,4,2,1,42,0,0
35011,-100,4,2,7,42,0,0
36396,-100,4,2,1,72,0,0
36857,-100,4,2,7,72,0,0
37550,-100,4,2,1,72,0,0
38011,-100,4,2,7,72,0,0
38704,-100,4,2,2,72,0,0
42627,-100,4,2,12,72,0,0
43088,-100,4,2,7,72,0,0
43319,-100,4,2,1,72,0,0
44242,-100,4,2,1,42,0,0
44357,-100,4,2,1,49,0,0
44473,-100,4,2,1,56,0,0
44588,-100,4,2,1,64,0,0
44704,-100,4,2,1,72,0,0
45165,-100,4,2,10,85,0,0
45395,-100,4,2,2,85,0,0
45626,-100,4,2,13,85,0,0
45857,-100,4,2,4,85,0,0
46088,-100,4,2,14,85,0,1
46319,-100,4,2,2,72,0,1
46549,-100,4,2,15,85,0,1
46781,-100,4,2,2,72,0,1
47011,-100,4,2,16,85,0,1
47242,-100,4,2,17,85,0,1
47357,-100,4,2,2,72,0,1
47472,-100,4,2,18,85,0,1
47703,-100,4,2,19,85,0,1
47819,-100,4,2,2,72,0,1
48165,-100,4,2,20,85,0,1
48281,-100,4,2,2,72,0,1
48395,-100,4,2,21,85,0,1
48626,-100,4,2,22,85,0,1
48742,-100,4,2,2,72,0,1
49088,-100,4,2,23,85,0,1
49204,-100,4,2,2,72,0,1
49319,-100,4,2,24,85,0,1
49549,-100,4,2,23,85,0,1
49665,-100,4,2,2,72,0,1
49780,-100,4,2,25,85,0,1
50011,-100,4,2,2,72,0,1
50242,-100,4,2,26,85,0,1
50473,-100,4,2,2,72,0,1
50703,-100,4,2,24,85,0,1
50934,-100,4,2,27,85,0,1
51050,-100,4,2,2,72,0,1
51165,-100,4,2,24,85,0,1
51395,-100,4,2,19,85,0,1
51511,-100,4,2,2,72,0,1
51857,-100,4,2,28,85,0,1
51973,-100,4,2,2,72,0,1
52088,-100,4,2,29,85,0,1
52319,-100,4,2,30,85,0,1
52434,-100,4,2,2,72,0,1
52780,-100,4,2,23,85,0,1
52896,-100,4,2,2,72,0,1
53011,-100,4,2,24,85,0,1
53242,-100,4,2,31,85,0,1
53357,-100,4,2,2,72,0,1
53472,-100,4,2,26,85,0,1
53703,-100,4,2,32,85,0,1
53819,-100,4,2,2,72,0,1
53934,-100,4,2,26,85,0,1
54165,-100,4,2,32,85,0,1
54281,-100,4,2,2,72,0,1
54395,-100,4,2,26,85,0,1
54626,-100,4,2,32,85,0,1
54742,-100,4,2,2,72,0,1
54857,-100,4,2,26,85,0,1
55088,-100,4,2,32,85,0,1
55204,-100,4,2,2,72,0,1
55319,-100,4,2,25,85,0,1
55549,-100,4,2,31,85,0,1
55665,-100,4,2,2,72,0,1
55780,-100,4,2,33,85,0,1
56011,-100,4,2,32,85,0,1
56127,-100,4,2,2,72,0,1
56242,-100,4,2,34,85,0,1
56473,-100,4,2,2,72,0,1
56703,-100,4,2,24,85,0,1
56934,-100,4,2,22,85,0,1
57050,-100,4,2,2,72,0,1
57395,-100,4,2,23,85,0,1
57511,-100,4,2,2,72,0,1
57626,-100,4,2,25,85,0,1
57857,-100,4,2,23,85,0,1
57973,-100,4,2,2,72,0,1
58088,-100,4,2,25,85,0,1
58319,-100,4,2,23,85,0,1
58434,-100,4,2,2,72,0,1
58549,-100,4,2,25,85,0,1
58780,-100,4,2,35,85,0,1
58896,-100,4,2,2,72,0,1
59011,-100,4,2,2,72,0,0
59934,-100,4,2,21,85,0,1
59992,-100,4,2,21,85,0,0
60165,-100,4,2,18,85,0,1
60223,-100,4,2,18,85,0,0
60396,-100,4,2,13,85,0,1
60454,-100,4,2,13,85,0,0
60627,-100,4,2,26,85,0,1
60684,-100,4,2,26,85,0,0
60857,-100,4,2,14,85,0,1
61088,-100,4,2,2,72,0,1
61319,-100,4,2,15,85,0,1
61550,-100,4,2,2,72,0,1
61780,-100,4,2,16,85,0,1
62011,-100,4,2,17,85,0,1
62127,-100,4,2,2,72,0,1
62242,-100,4,2,18,85,0,1
62472,-100,4,2,19,85,0,1
62588,-100,4,2,2,72,0,1
62934,-100,4,2,20,85,0,1
63050,-100,4,2,2,72,0,1
63165,-100,4,2,21,85,0,1
63395,-100,4,2,22,85,0,1
63511,-100,4,2,2,72,0,1
63857,-100,4,2,23,85,0,1
63973,-100,4,2,2,72,0,1
64088,-100,4,2,24,85,0,1
64319,-100,4,2,23,85,0,1
64434,-100,4,2,2,72,0,1
64549,-100,4,2,25,85,0,1
64781,-100,4,2,2,72,0,1
64895,-100,4,2,16,85,0,1
65011,-100,4,2,2,72,0,1
65242,-100,4,2,36,85,0,1
65357,-100,4,2,2,72,0,1
65472,-100,4,2,37,85,0,1
65703,-100,4,2,38,85,0,1
65819,-100,4,2,2,72,0,1
65934,-100,4,2,39,85,0,1
66165,-100,4,2,19,85,0,1
66281,-100,4,2,2,72,0,1
66626,-100,4,2,40,85,0,1
66742,-100,4,2,2,72,0,1
66857,-100,4,2,25,85,0,1
67088,-100,4,2,30,85,0,1
67204,-100,4,2,2,72,0,1
67549,-100,4,2,19,85,0,1
67665,-100,4,2,2,72,0,1
67780,-100,4,2,14,85,0,1
68011,-100,4,2,31,85,0,1
68127,-100,4,2,2,72,0,1
68242,-100,4,2,41,85,0,1
68473,-100,4,2,2,72,0,1
69165,-100,4,2,42,85,0,1
69396,-100,4,2,2,72,0,1
70088,-100,4,2,37,85,0,1
70319,-100,4,2,2,72,0,1
70434,-100,4,2,39,85,0,1
70550,-100,4,2,2,72,0,1
70780,-100,4,2,22,85,0,1
70896,-100,4,2,2,72,0,1
71011,-100,4,2,14,85,0,1
71242,-100,4,2,2,72,0,1
71472,-100,4,2,25,85,0,1
71704,-100,4,2,2,72,0,1
71934,-100,4,2,18,85,0,1
72165,-100,4,2,2,72,0,1
72280,-100,4,2,18,85,0,1
72396,-100,4,2,2,72,0,1
72626,-100,4,2,20,85,0,1
72742,-100,4,2,2,72,0,1
72857,-100,4,2,18,85,0,1
73088,-100,4,2,2,72,0,1
73203,-100,4,2,18,85,0,1
73319,-100,4,2,2,72,0,1
73549,-100,4,2,20,85,0,1
73665,-100,4,2,2,72,0,1
73780,-100,4,2,18,85,0,1
74126,-100,4,2,29,85,0,1
74472,-100,4,2,43,85,0,1
75627,-100,4,2,2,72,0,0
75857,-100,4,2,31,85,0,0
76088,-100,4,2,18,85,0,0
76319,-100,4,2,2,72,0,0
76549,-100,4,2,13,85,0,0
76781,-100,4,2,2,72,0,0
77011,-100,4,2,26,85,0,0
77242,-100,4,2,2,72,0,0
77472,-100,4,2,44,85,0,0
77704,-100,4,2,2,72,0,0
78165,-100,4,2,45,85,0,0
78396,-100,4,2,2,72,0,0
79549,-100,4,2,31,85,0,0
79780,-100,4,2,46,85,0,0
80011,-100,4,2,2,72,0,0
80242,-100,4,2,47,85,0,0
80473,-100,4,2,2,72,0,0
80703,-100,4,2,48,85,0,0
80934,-100,4,2,2,72,0,0
81165,-100,4,2,13,85,0,0
81395,-100,4,2,20,85,0,0
81626,-100,4,2,21,85,0,0
81857,-100,4,2,45,85,0,0
82088,-100,4,2,2,72,0,0
83242,-100,4,2,31,85,0,0
83472,-100,4,2,46,85,0,0
83704,-100,4,2,2,72,0,0
83934,-100,4,2,47,85,0,0
84165,-100,4,2,2,72,0,0
84395,-100,4,2,48,85,0,0
84627,-100,4,2,2,72,0,0
84857,-100,4,2,44,85,0,0
85088,-100,4,2,2,72,0,0
85549,-100,4,2,45,85,0,0
85781,-100,4,2,2,72,0,0
86242,-100,4,2,18,85,0,0
86472,-100,4,2,45,85,0,0
86704,-100,4,2,2,72,0,0
87165,-100,4,2,18,85,0,0
87395,-100,4,2,45,85,0,0
87627,-100,4,2,2,72,0,0
88088,-100,4,2,24,85,0,0
88204,-100,4,2,2,72,0,0
88319,-100,4,2,48,85,0,0
88550,-100,4,2,2,72,0,0
90165,-100,4,2,2,5,0,0

[Colours]
Combo1 : 128,128,255
Combo2 : 248,220,107

[HitObjects]
287,89,1319,5,8,2:2:0:0:
287,89,1550,1,8,2:2:0:0:
286,89,1781,2,0,P|319:52|367:41,2,100,4|2|2,1:2|2:2|2:2,0:0:0:0:
192,124,3165,1,2,2:2:0:0:
269,187,3627,2,0,P|349:176|453:160,2,150,2|2|2,1:2|2:2|2:2,0:0:0:0:
172,216,5473,6,0,P|154:233|141:255,1,50,0|2,1:0|2:2,0:0:0:0:
148,304,5934,1,2,2:2:0:0:
241,340,6396,1,2,2:2:0:0:
329,294,6857,1,2,2:2:0:0:
426,316,7319,2,0,P|487:268|482:232,1,100,2|2,1:2|2:2,0:0:0:0:
467,207,8011,1,2,2:2:0:0:
467,207,8242,1,0,0:0:0:0:
425,115,8704,1,0,0:0:0:0:
328,138,9165,6,0,P|318:218|314:256,2,100,0|2|2,1:0|2:2|2:2,0:0:0:0:
279,50,10550,1,2,2:2:0:0:
180,67,11011,2,0,P|106:84|35:106,1,150,2|2,1:2|2:2,0:0:0:0:
13,151,11934,1,0,0:0:0:0:
73,233,12396,6,0,P|120:256|136:267,1,50,2|2,2:2|2:2,0:0:0:0:
145,296,12857,1,0,1:0:0:0:
242,275,13319,2,0,P|238:222|239:203,1,50,2|2,2:2|2:2,0:0:0:0:
260,181,13781,1,0,1:0:0:0:
191,107,14242,2,0,P|147:136|130:144,1,50,2|2,2:2|2:2,0:0:0:0:
101,138,14704,5,2,1:3:0:0:
7,101,15165,1,2,1:3:0:0:
31,3,15627,1,2,1:3:0:0:
123,41,16088,1,8,2:1:0:0:
123,41,16319,1,4,2:3:0:0:
123,41,16550,6,0,P|171:29|220:17,1,100,4|10,1:2|2:2,0:0:0:0:
306,67,17473,2,0,P|333:99|335:135,1,50,2|0,1:2|0:0,0:0:0:0:
337,156,17934,1,8,2:2:0:0:
259,219,18396,2,0,P|240:287|227:340,1,100,0|10,1:0|2:2,0:0:0:0:
317,369,19319,2,0,P|373:350|382:323,1,50,2|0,1:2|0:0,0:0:0:0:
396,321,19781,1,8,2:2:0:0:
466,250,20242,6,0,P|417:238|368:226,1,100,0|10,1:0|2:2,0:0:0:0:
289,165,21165,2,0,P|271:114|291:81,1,50,2|0,1:2|0:0,0:0:0:0:
295,77,21627,1,8,2:2:0:0:
380,26,22088,2,0,P|428:14|477:2,2,100,0|8|0,1:0|2:2|1:0,0:0:0:0:
295,77,23473,1,8,2:2:0:0:
209,25,23934,6,0,P|149:43|132:90,1,100,0|10,1:0|2:2,0:0:0:0:
100,167,24857,2,0,P|107:190|114:214,1,50,2|0,1:2|0:0,0:0:0:0:
117,265,25319,1,8,2:2:0:0:
42,332,25781,2,0,P|108:364|166:342,1,100,0|10,1:0|2:2,0:0:0:0:
213,303,26704,2,0,P|219:278|227:255,1,50,2|0,1:2|0:0,0:0:0:0:
256,214,27165,1,8,2:2:0:0:
346,171,27627,6,0,P|399:185|427:243,1,100,0|10,1:0|2:2,0:0:0:0:
478,303,28550,2,0,P|430:313|384:334,1,100,2|8,1:2|2:2,0:0:0:0:
344,304,29242,2,0,P|294:295|246:281,1,100,2|2,2:2|2:2,0:0:0:0:
205,309,29934,1,10,2:2:0:0:
115,292,30396,1,0,1:0:0:0:
115,292,30627,1,0,1:0:0:0:
115,292,30857,1,8,2:1:0:0:
111,192,31319,6,0,B|200:173|141:122|241:109,1,150,4|2,1:2|1:2,0:0:0:0:
275,129,32242,1,2,1:2:0:0:
367,90,32704,2,0,P|371:54|376:23,1,50,8|0,2:1|1:0,0:0:0:0:
342,0,33165,1,0,1:0:0:0:
275,136,33857,1,0,1:0:0:0:
275,136,34088,2,0,P|279:172|284:203,1,50,2|0,1:2|0:0,0:0:0:0:
250,226,34550,1,8,2:1:0:0:
162,276,35011,6,0,P|113:268|64:261,1,100,2|0,1:2|0:0,0:0:0:0:
17,280,35704,1,2,1:2:0:0:
17,280,35934,1,2,1:2:0:0:
78,359,36396,1,8,2:1:0:0:
168,316,36857,5,10,2:2:0:0:
168,316,37088,1,2,1:2:0:0:
168,316,37319,1,10,2:2:0:0:
168,316,37550,1,8,1:1:0:0:
247,255,38011,2,0,P|241:230|231:207,2,50,2|10|2,1:2|2:2|1:2,0:0:0:0:
278,294,38704,6,0,P|332:333|396:306,1,100,4|8,1:2|2:2,0:0:0:0:
408,310,39396,2,0,P|421:267|435:245,1,50,2|0,2:3|1:0,0:0:0:0:
473,176,40088,2,0,P|467:151|457:128,1,50,8|2,2:2|2:3,0:0:0:0:
474,81,40550,2,0,P|424:72|374:67,1,100,0|8,1:0|2:2,0:0:0:0:
332,31,41242,1,2,2:3:0:0:
336,35,41473,1,0,1:0:0:0:
250,86,41934,1,8,2:2:0:0:
157,46,42396,6,0,P|148:69|143:93,1,50,4|2,1:2|2:2,0:0:0:0:
108,129,42857,2,0,P|116:152|121:176,1,50,2|2,2:2|1:2,0:0:0:0:
157,219,43319,1,4,2:3:0:0:
157,219,43550,1,8,2:3:0:0:
210,304,44011,6,0,B|299:285|240:234|340:221,1,150,4|8,2:3|2:2,0:0:0:0:
358,133,45165,1,2,2:2:0:0:
358,133,45396,1,2,2:2:0:0:
358,133,45627,2,0,P|381:140|402:153,1,50,10|2,2:2|2:2,0:0:0:0:
443,183,46088,6,0,P|433:232|426:281,1,100,6|10,1:2|2:2,0:0:0:0:
361,357,47011,2,0,P|337:364|316:377,1,50,2|2,1:2|2:2,0:0:0:0:
279,352,47473,1,10,2:2:0:0:
279,352,47704,2,0,P|229:343|180:335,1,100,2|2,2:2|2:2,0:0:0:0:
145,299,48396,1,10,2:2:0:0:
145,299,48627,1,2,2:2:0:0:
87,217,49088,1,2,2:2:0:0:
87,217,49319,2,0,P|104:170|107:145,1,50,10|2,2:2|2:2,0:0:0:0:
138,134,49781,1,2,1:2:0:0:
94,44,50242,6,0,P|118:40|143:34,1,50,10|2,2:2|2:3,0:0:0:0:
189,52,50704,2,0,P|213:55|238:61,1,50,2|2,1:2|2:2,0:0:0:0:
282,37,51165,1,10,2:2:0:0:
282,37,51396,1,2,2:2:0:0:
383,9,51857,1,2,2:2:0:0:
383,9,52088,1,10,2:2:0:0:
383,9,52319,1,2,2:2:0:0:
466,63,52781,2,0,P|475:39|488:18,2,50,2|10|2,2:2|2:2|2:2,0:0:0:0:
424,90,53473,6,0,P|431:113|436:138,1,50,2|2,1:2|2:2,0:0:0:0:
479,164,53934,2,0,P|471:187|466:212,1,50,10|2,2:2|2:2,0:0:0:0:
425,241,54396,6,0,P|401:233|376:228,1,50,2|2,1:2|2:2,0:0:0:0:
333,203,54857,2,0,P|309:210|284:215,1,50,10|2,2:2|2:2,0:0:0:0:
244,246,55319,5,2,1:2:0:0:
148,215,55781,1,10,2:2:0:0:
52,184,56242,1,2,1:2:0:0:
74,286,56704,1,10,2:2:0:0:
74,286,56934,1,2,2:2:0:0:
163,330,57396,5,2,2:2:0:0:
162,330,57627,2,0,P|186:321|210:314,1,50,10|2,2:2|2:2,0:0:0:0:
254,290,58088,2,0,P|277:298|301:305,1,50,2|2,1:2|2:2,0:0:0:0:
344,330,58550,1,10,2:2:0:0:
344,330,58781,1,2,2:2:0:0:
497,193,59934,5,10,2:2:0:0:
497,193,60165,1,10,2:2:0:0:
497,193,60396,2,0,P|472:187|447:183,1,50,10|2,2:2|1:2,0:0:0:0:
422,139,60857,6,0,P|375:158|327:170,1,100,6|10,1:2|2:2,0:0:0:0:
232,136,61781,2,0,P|211:97|214:71,1,50,2|2,1:2|2:2,0:0:0:0:
209,42,62242,1,10,2:2:0:0:
209,42,62473,2,0,P|255:23|303:11,1,100,2|2,2:2|2:2,0:0:0:0:
347,35,63165,1,10,2:2:0:0:
347,35,63396,1,2,2:2:0:0:
437,77,63857,1,2,2:2:0:0:
437,77,64088,2,0,P|452:96|458:120,1,50,10|2,2:2|2:2,0:0:0:0:
452,170,64550,6,0,P|489:179|524:192,2,75,2|2|2,1:2|3:2|2:2,0:0:0:0:
406,188,65473,2,0,P|369:205|353:221,1,50,2|2,1:2|2:2,0:0:0:0:
334,253,65934,1,10,2:2:0:0:
334,253,66165,1,2,2:2:0:0:
310,356,66627,1,2,2:2:0:0:
310,356,66857,1,10,2:2:0:0:
310,356,67088,1,2,2:2:0:0:
209,351,67550,1,2,2:2:0:0:
208,351,67781,2,0,P|184:344|160:339,1,50,10|2,2:2|2:2,0:0:0:0:
117,313,68242,6,0,P|98:264|135:215,1,100,2|8,1:2|2:2,0:0:0:0:
193,158,69165,2,0,P|212:109|175:60,1,100,2|8,1:2|2:2,0:0:0:0:
105,18,70088,6,0,P|63:31|17:41,2,75,2|2|2,1:2|3:2|2:2,0:0:0:0:
148,42,71011,1,2,1:2:0:0:
237,86,71473,1,10,2:2:0:0:
313,150,71934,6,0,P|362:189|385:213,2,75,2|2|2,1:2|3:2|2:2,0:0:0:0:
264,144,72857,2,0,P|229:158|193:170,2,75,2|2|2,1:2|3:2|2:2,0:0:0:0:
289,101,73781,2,0,P|293:63|301:27,2,75,10|10|10,2:2|2:2|2:2,0:0:0:0:
422,310,75627,6,0,P|398:304|374:299,1,50,4|2,1:2|2:2,0:0:0:0:
326,312,76088,2,0,P|243:330|195:341,1,100,10|2,2:2|1:2,0:0:0:0:
158,261,77011,1,10,2:2:0:0:
225,188,77473,2,0,P|274:198|323:209,1,100,2|8,1:2|2:2,0:0:0:0:
372,196,78165,2,0,P|417:156|378:81,1,150,2|8,2:2|2:2,0:0:0:0:
300,28,79319,6,0,P|265:36|241:40,1,50,0|2,1:0|2:2,0:0:0:0:
211,69,79781,2,0,P|141:54|98:49,1,100,10|2,2:2|1:2,0:0:0:0:
29,105,80704,1,10,2:2:0:0:
94,179,81165,2,0,P|138:170|153:167,1,50,2|2,1:2|2:2,0:0:0:0:
187,191,81627,1,10,2:2:0:0:
187,191,81857,2,0,P|260:205|332:226,1,150,2|8,2:2|2:2,0:0:0:0:
413,167,83011,6,0,P|432:205|432:219,1,50,0|2,1:0|2:2,0:0:0:0:
468,245,83473,2,0,P|455:294|444:343,1,100,10|2,2:2|1:2,0:0:0:0:
351,379,84396,1,10,2:2:0:0:
330,281,84857,2,0,P|319:232|306:183,1,100,2|8,1:2|2:2,0:0:0:0:
326,137,85550,1,2,2:2:0:0:
429,28,86242,1,10,2:2:0:0:
428,28,86473,6,0,P|405:36|331:51,1,100,2|2,2:2|2:3,0:0:0:0:
305,94,87165,1,10,2:2:0:0:
305,94,87396,2,0,P|281:85|207:71,1,100,2|8,2:2|2:2,0:0:0:0:
161,89,88088,1,10,2:2:0:0:
161,89,88319,1,10,2:2:0:0:
161,89,88550,1,4,1:2:0:0:
256,192,88665,12,0,90165,0:0:0:0:
