osu file format v14

[General]
AudioFilename: audio.mp3
AudioLeadIn: 0
PreviewTime: 45050
Countdown: 0
SampleSet: Soft
StackLeniency: 0.7
Mode: 0
LetterboxInBreaks: 0
WidescreenStoryboard: 0

[Editor]
Bookmarks: 16550,31319,38704,46088,60857,75627,88550
DistanceSpacing: 1.2
BeatDivisor: 4
GridSize: 32
TimelineZoom: 1.4

[Metadata]
Title:Precious You* (TV Size)
TitleUnicode:Precious You☆ (TV Size)
Artist:Fujita Akane, Miyamoto Yume, Ozawa Ari
ArtistUnicode:藤田茜、宮本侑芽、小澤亜李
Creator:Roger
Version:Creamy's Hard
Source:ロクでなし魔術講師と禁忌教典
Tags:ending ed anime japanese pop jpop j-pop Creamy Candy ][ -GH- ][ アカシックレコード akashic records of bastard magic instructor rokudenashi majutsu koushi to kinki kyouten ロクアカ rokuaka システィーナ=フィーベル Sistine Fibel ルミア=ティンジェル Rumia Tingel リィエル=レイフォード Riel Re=L Rayford
BeatmapID:2376192
BeatmapSetID:674701

[Difficulty]
HPDrainRate:4
CircleSize:3.8
OverallDifficulty:6
ApproachRate:6
SliderMultiplier:1.4
SliderTickRate:1

[Events]
//Background and Video events
0,0,"bg2.jpg",0,0
Video,30,"video.mp4"
//Break Periods
//Storyboard Layer 0 (Background)
//Storyboard Layer 1 (Fail)
//Storyboard Layer 2 (Pass)
//Storyboard Layer 3 (Foreground)
//Storyboard Layer 4 (Overlay)
//Storyboard Sound Samples

[TimingPoints]
1781,461.538461538462,4,2,1,72,1,0
2011,-100,4,2,1,85,0,0
2242,-100,4,2,2,85,0,0
2703,-100,4,2,3,85,0,0
3165,-100,4,2,4,85,0,0
3626,-100,4,2,5,85,0,0
4319,-100,4,2,6,85,0,0
5011,-100,4,2,7,72,0,0
5703,-100,4,2,1,85,0,0
5934,-100,4,2,8,85,0,0
6396,-100,4,2,9,85,0,0
6857,-100,4,2,6,85,0,0
7319,-100,4,2,3,85,0,0
7549,-100,4,2,2,85,0,0
7780,-100,4,2,10,85,0,0
8011,-100,4,2,6,85,0,0
9165,-100,4,2,1,72,0,0
9396,-100,4,2,1,85,0,0
9626,-100,4,2,8,85,0,0
10088,-100,4,2,9,85,0,0
10549,-100,4,2,6,85,0,0
11011,-100,4,2,5,85,0,0
11703,-100,4,2,6,85,0,0
12396,-100,4,2,2,85,0,0
12626,-100,4,2,6,85,0,0
12857,-100,4,2,1,72,0,0
13319,-100,4,2,2,85,0,0
13549,-100,4,2,6,85,0,0
13781,-100,4,2,1,72,0,0
14242,-100,4,2,11,85,0,0
14472,-100,4,2,6,85,0,0
14704,-100,4,2,1,72,0,0
14934,-100,4,2,7,72,0,0
15165,-100,4,2,1,72,0,0
15396,-100,4,2,7,72,0,0
15627,-100,4,2,1,72,0,0
15857,-100,4,2,7,72,0,0
16088,-100,4,2,1,72,0,0
16781,-100,4,2,7,72,0,0
22319,-100,4,2,1,72,0,0
24165,-100,4,2,7,72,0,0
30857,-100,4,2,1,72,0,0
31088,-100,4,2,7,72,0,0
31319,-100,4,2,1,72,0,0
32011,-100,4,2,7,42,0,0
32704,-100,4,2,1,72,0,0
32934,-100,4,2,1,42,0,0
34088,-100,4,2,7,42,0,0
34550,-100,4,2,1,72,0,0
34781,-100,4,2,1,42,0,0
35011,-100,4,2,7,42,0,0
36396,-100,4,2,1,72,0,0
36857,-100,4,2,7,72,0,0
37550,-100,4,2,1,72,0,0
38011,-100,4,2,7,72,0,0
38704,-100,4,2,2,72,0,0
42627,-100,4,2,12,72,0,0
43088,-100,4,2,7,72,0,0
43319,-100,4,2,1,72,0,0
44242,-100,4,2,1,42,0,0
44357,-100,4,2,1,49,0,0
44473,-100,4,2,1,56,0,0
44588,-100,4,2,1,64,0,0
44704,-100,4,2,1,72,0,0
45165,-100,4,2,10,85,0,0
45395,-100,4,2,2,85,0,0
45626,-100,4,2,13,85,0,0
45857,-100,4,2,4,85,0,0
46088,-100,4,2,14,85,0,1
46319,-100,4,2,2,72,0,1
46549,-100,4,2,15,85,0,1
46781,-100,4,2,2,72,0,1
47011,-100,4,2,16,85,0,1
47242,-100,4,2,17,85,0,1
47357,-100,4,2,2,72,0,1
47472,-100,4,2,18,85,0,1
47703,-100,4,2,19,85,0,1
47819,-100,4,2,2,72,0,1
48165,-100,4,2,20,85,0,1
48281,-100,4,2,2,72,0,1
48395,-100,4,2,21,85,0,1
48626,-100,4,2,22,85,0,1
48742,-100,4,2,2,72,0,1
49088,-100,4,2,23,85,0,1
49204,-100,4,2,2,72,0,1
49319,-100,4,2,24,85,0,1
49549,-100,4,2,23,85,0,1
49665,-100,4,2,2,72,0,1
49780,-100,4,2,25,85,0,1
50011,-100,4,2,2,72,0,1
50242,-100,4,2,26,85,0,1
50473,-100,4,2,2,72,0,1
50703,-100,4,2,24,85,0,1
50934,-100,4,2,27,85,0,1
51050,-100,4,2,2,72,0,1
51165,-100,4,2,24,85,0,1
51395,-100,4,2,19,85,0,1
51511,-100,4,2,2,72,0,1
51857,-100,4,2,28,85,0,1
51973,-100,4,2,2,72,0,1
52088,-100,4,2,29,85,0,1
52319,-100,4,2,30,85,0,1
52434,-100,4,2,2,72,0,1
52780,-100,4,2,23,85,0,1
52896,-100,4,2,2,72,0,1
53011,-100,4,2,24,85,0,1
53242,-100,4,2,31,85,0,1
53357,-100,4,2,2,72,0,1
53472,-100,4,2,26,85,0,1
53703,-100,4,2,32,85,0,1
53819,-100,4,2,2,72,0,1
53934,-100,4,2,26,85,0,1
54165,-100,4,2,32,85,0,1
54281,-100,4,2,2,72,0,1
54395,-100,4,2,26,85,0,1
54626,-100,4,2,32,85,0,1
54742,-100,4,2,2,72,0,1
54857,-100,4,2,26,85,0,1
55088,-100,4,2,32,85,0,1
55204,-100,4,2,2,72,0,1
55319,-100,4,2,25,85,0,1
55549,-100,4,2,31,85,0,1
55665,-100,4,2,2,72,0,1
55780,-100,4,2,33,85,0,1
56011,-100,4,2,32,85,0,1
56127,-100,4,2,2,72,0,1
56242,-100,4,2,34,85,0,1
56473,-100,4,2,2,72,0,1
56703,-100,4,2,24,85,0,1
56934,-100,4,2,22,85,0,1
57050,-100,4,2,2,72,0,1
57395,-100,4,2,23,85,0,1
57511,-100,4,2,2,72,0,1
57626,-100,4,2,25,85,0,1
57857,-100,4,2,23,85,0,1
57973,-100,4,2,2,72,0,1
58088,-100,4,2,25,85,0,1
58319,-100,4,2,23,85,0,1
58434,-100,4,2,2,72,0,1
58549,-100,4,2,25,85,0,1
58780,-100,4,2,35,85,0,1
58896,-100,4,2,2,72,0,1
59011,-100,4,2,2,72,0,0
59934,-100,4,2,21,85,0,1
59992,-100,4,2,21,85,0,0
60165,-100,4,2,18,85,0,1
60223,-100,4,2,18,85,0,0
60396,-100,4,2,13,85,0,1
60454,-100,4,2,13,85,0,0
60627,-100,4,2,26,85,0,1
60684,-100,4,2,26,85,0,0
60857,-100,4,2,14,85,0,1
61088,-100,4,2,2,72,0,1
61319,-100,4,2,15,85,0,1
61550,-100,4,2,2,72,0,1
61780,-100,4,2,16,85,0,1
62011,-100,4,2,17,85,0,1
62127,-100,4,2,2,72,0,1
62242,-100,4,2,18,85,0,1
62472,-100,4,2,19,85,0,1
62588,-100,4,2,2,72,0,1
62934,-100,4,2,20,85,0,1
63050,-100,4,2,2,72,0,1
63165,-100,4,2,21,85,0,1
63395,-100,4,2,22,85,0,1
63511,-100,4,2,2,72,0,1
63857,-100,4,2,23,85,0,1
63973,-100,4,2,2,72,0,1
64088,-100,4,2,24,85,0,1
64319,-100,4,2,23,85,0,1
64434,-100,4,2,2,72,0,1
64549,-100,4,2,25,85,0,1
64781,-100,4,2,2,72,0,1
64895,-100,4,2,16,85,0,1
65011,-100,4,2,2,72,0,1
65242,-100,4,2,36,85,0,1
65357,-100,4,2,2,72,0,1
65472,-100,4,2,37,85,0,1
65703,-100,4,2,38,85,0,1
65819,-100,4,2,2,72,0,1
65934,-100,4,2,39,85,0,1
66165,-100,4,2,19,85,0,1
66281,-100,4,2,2,72,0,1
66626,-100,4,2,40,85,0,1
66742,-100,4,2,2,72,0,1
66857,-100,4,2,25,85,0,1
67088,-100,4,2,30,85,0,1
67204,-100,4,2,2,72,0,1
67549,-100,4,2,19,85,0,1
67665,-100,4,2,2,72,0,1
67780,-100,4,2,14,85,0,1
68011,-100,4,2,31,85,0,1
68127,-100,4,2,2,72,0,1
68242,-100,4,2,41,85,0,1
68473,-100,4,2,2,72,0,1
69165,-100,4,2,42,85,0,1
69396,-100,4,2,2,72,0,1
70088,-100,4,2,37,85,0,1
70319,-100,4,2,2,72,0,1
70434,-100,4,2,39,85,0,1
70550,-100,4,2,2,72,0,1
70780,-100,4,2,22,85,0,1
70896,-100,4,2,2,72,0,1
71011,-100,4,2,14,85,0,1
71242,-100,4,2,2,72,0,1
71472,-100,4,2,25,85,0,1
71704,-100,4,2,2,72,0,1
71934,-100,4,2,18,85,0,1
72165,-100,4,2,2,72,0,1
72280,-100,4,2,18,85,0,1
72396,-100,4,2,2,72,0,1
72626,-100,4,2,20,85,0,1
72742,-100,4,2,2,72,0,1
72857,-100,4,2,18,85,0,1
73088,-100,4,2,2,72,0,1
73203,-100,4,2,18,85,0,1
73319,-100,4,2,2,72,0,1
73549,-100,4,2,20,85,0,1
73665,-100,4,2,2,72,0,1
73780,-100,4,2,18,85,0,1
74126,-100,4,2,29,85,0,1
74472,-100,4,2,43,85,0,1
75627,-100,4,2,2,72,0,0
75857,-100,4,2,31,85,0,0
76088,-100,4,2,18,85,0,0
76319,-100,4,2,2,72,0,0
76549,-100,4,2,13,85,0,0
76781,-100,4,2,2,72,0,0
77011,-100,4,2,26,85,0,0
77242,-100,4,2,2,72,0,0
77357,-100,4,2,2,5,0,0
77473,-100,4,2,44,85,0,0
77704,-100,4,2,2,72,0,0
78165,-100,4,2,45,85,0,0
78396,-100,4,2,2,72,0,0
79549,-100,4,2,31,85,0,0
79780,-100,4,2,46,85,0,0
80011,-100,4,2,2,72,0,0
80242,-100,4,2,47,85,0,0
80473,-100,4,2,2,72,0,0
80703,-100,4,2,48,85,0,0
80934,-100,4,2,2,72,0,0
81165,-100,4,2,13,85,0,0
81395,-100,4,2,20,85,0,0
81626,-100,4,2,21,85,0,0
81857,-100,4,2,45,85,0,0
82088,-100,4,2,2,72,0,0
83242,-100,4,2,31,85,0,0
83472,-100,4,2,46,85,0,0
83704,-100,4,2,2,72,0,0
83934,-100,4,2,47,85,0,0
84165,-100,4,2,2,72,0,0
84395,-100,4,2,48,85,0,0
84627,-100,4,2,2,72,0,0
84857,-100,4,2,44,85,0,0
85088,-100,4,2,2,72,0,0
85549,-100,4,2,45,85,0,0
85781,-100,4,2,2,72,0,0
86242,-100,4,2,18,85,0,0
86472,-100,4,2,45,85,0,0
86704,-100,4,2,2,72,0,0
87165,-100,4,2,18,85,0,0
87395,-100,4,2,45,85,0,0
87627,-100,4,2,2,72,0,0
88088,-100,4,2,24,85,0,0
88204,-100,4,2,2,72,0,0
88319,-100,4,2,48,85,0,0
88550,-100,4,2,2,72,0,0
90165,-100,4,2,2,5,0,0

[Colours]
Combo1 : 128,128,255
Combo2 : 248,220,107

[HitObjects]
67,374,1319,5,8,2:2:0:0:
67,374,1550,1,8,2:2:0:0:
28,248,1781,5,4,1:2:0:0:
91,193,2011,1,2,2:2:0:0:
91,193,2242,2,0,P|157:214|226:224,2,140,2|2|2,2:2|2:2|2:2,0:0:0:0:
10,45,3627,6,0,P|57:18|149:129,1,210,2|2,1:2|2:2,0:0:0:0:
345,272,5011,5,2,2:2:0:0:
303,344,5242,1,2,2:2:0:0:
324,262,5473,1,0,1:0:0:0:
271,195,5704,5,2,2:2:0:0:
271,195,5934,2,0,P|255:126|236:59,2,140,2|2|2,2:2|2:2|2:2,0:0:0:0:
156,319,7319,2,0,P|193:310|227:291,1,70,2|2,1:2|2:2,0:0:0:0:
303,324,7781,1,2,2:2:0:0:
303,324,8011,2,0,P|406:337|500:383,1,210,2|0,2:2|0:0,0:0:0:0:
439,234,9165,5,0,1:0:0:0:
378,175,9396,1,2,2:2:0:0:
378,175,9627,2,0,P|393:106|412:39,2,140,2|2|2,2:2|2:2|2:2,0:0:0:0:
226,246,11011,6,0,P|129:211|151:107,1,210,2|2,1:2|2:2,0:0:0:0:
306,20,12396,5,2,2:2:0:0:
289,102,12627,1,2,2:2:0:0:
324,32,12857,1,0,1:0:0:0:
334,244,13319,5,2,2:2:0:0:
271,188,13550,1,2,2:2:0:0:
314,253,13781,1,0,1:0:0:0:
121,159,14242,5,2,2:2:0:0:
201,132,14473,1,2,2:2:0:0:
123,137,14704,2,0,P|78:125|53:105,1,70,2|2,1:3|2:2,0:0:0:0:
89,33,15165,2,0,P|133:44|159:65,1,70,2|2,1:3|2:2,0:0:0:0:
240,2,15627,2,0,P|248:35|256:68,1,70,2|2,1:3|2:2,0:0:0:0:
331,143,16088,2,0,P|338:109|346:75,1,70,8|4,2:1|2:3,0:0:0:0:
419,33,16550,1,4,1:2:0:0:
497,135,16781,5,2,2:2:0:0:
497,135,17011,2,0,P|462:127|428:119,1,70,10|2,2:2|2:2,0:0:0:0:
414,247,17473,2,0,P|465:234|516:223,2,105,2|2|2,1:2|2:2|2:2,0:0:0:0:
360,311,18396,1,0,1:0:0:0:
245,186,18627,5,2,2:2:0:0:
245,186,18857,2,0,P|261:243|266:268,1,70,10|2,2:2|2:2,0:0:0:0:
360,311,19319,2,0,P|372:259|387:209,2,105,2|2|2,1:2|2:2|2:2,0:0:0:0:
281,341,20242,1,0,1:0:0:0:
176,253,20473,5,2,2:2:0:0:
176,253,20704,2,0,P|122:270|88:282,1,70,10|2,2:2|2:2,0:0:0:0:
3,244,21165,2,0,P|23:317|36:377,2,105,2|2|2,1:2|2:2|2:2,0:0:0:0:
45,171,22088,6,0,P|55:138|93:128,1,70,0|0,1:0|3:0,0:0:0:0:
164,171,22550,2,0,P|218:181|247:187,1,70,8|0,2:2|3:0,0:0:0:0:
304,140,23011,1,0,1:0:0:0:
296,64,23242,1,0,3:0:0:0:
296,64,23357,1,0,3:0:0:0:
296,64,23473,2,0,P|242:54|213:48,1,70,8|0,2:2|3:0,0:0:0:0:
154,8,23934,1,0,1:0:0:0:
43,90,24165,5,2,2:2:0:0:
43,90,24396,2,0,P|55:124|63:160,1,70,10|2,2:2|2:2,0:0:0:0:
148,252,24857,2,0,P|161:196|181:144,2,105,2|2|2,1:2|2:2|2:2,0:0:0:0:
94,317,25781,1,0,1:0:0:0:
244,372,26011,5,2,2:2:0:0:
244,372,26242,2,0,P|277:363|311:353,1,70,10|2,2:2|2:2,0:0:0:0:
395,268,26704,2,0,P|408:318|426:377,2,105,2|2|2,1:2|2:2|2:2,0:0:0:0:
433,193,27627,1,0,1:0:0:0:
507,76,27857,5,2,2:2:0:0:
507,76,28088,2,0,P|464:86|425:91,1,70,10|2,2:2|2:2,0:0:0:0:
354,153,28550,2,0,P|345:101|333:50,2,105,2|2|2,1:2|2:2|2:2,0:0:0:0:
315,228,29473,1,0,1:0:0:0:
191,190,29704,5,2,2:2:0:0:
116,228,29934,1,10,2:2:0:0:
181,174,30165,1,2,2:2:0:0:
73,44,30627,5,0,1:0:0:0:
137,97,30857,2,0,P|202:85|271:67,1,105,8|0,2:1|0:0,0:0:0:0:
266,43,31319,1,4,1:2:0:0:
450,214,32011,5,2,1:2:0:0:
450,214,32242,2,0,P|390:192|384:129,1,105,2|0,1:2|0:0,0:0:0:0:
394,118,32704,2,0,P|401:83|411:50,1,70,8|0,2:1|1:0,0:0:0:0:
289,159,33165,1,0,1:0:0:0:
91,314,33857,5,0,1:0:0:0:
91,314,34088,2,0,P|121:330|151:349,1,70,2|0,1:2|0:0,0:0:0:0:
248,282,34550,2,0,P|217:265|187:246,1,70,8|0,2:1|1:0,0:0:0:0:
188,119,35011,6,0,B|171:204|123:141|103:244,1,140,2|0,1:2|0:0,0:0:0:0:
91,314,35704,1,2,1:2:0:0:
91,314,35934,2,0,P|111:362|118:385,1,70,2|0,1:2|0:0,0:0:0:0:
187,247,36396,1,8,2:1:0:0:
98,104,36857,5,10,2:2:0:0:
173,140,37088,1,2,1:2:0:0:
171,55,37319,5,10,2:2:0:0:
87,214,37550,1,8,1:1:0:0:
300,77,38011,5,2,1:2:0:0:
300,77,38242,1,10,2:2:0:0:
278,158,38473,1,2,1:2:0:0:
350,200,38704,6,0,P|418:185|487:172,1,140,4|8,1:2|2:2,0:0:0:0:
512,320,39396,2,0,P|443:305|374:292,1,140,2|2,2:3|2:3,0:0:0:0:
271,243,40088,2,0,P|258:295|250:326,1,70,8|2,2:2|2:3,0:0:0:0:
188,364,40550,6,0,P|142:377|96:344,2,105,0|0|2,1:0|0:0|2:3,0:0:0:0:
253,310,41473,2,0,P|262:276|271:243,1,70,0|2,1:0|2:3,0:0:0:0:
179,144,41934,2,0,P|170:177|161:211,1,70,8|2,2:2|2:3,0:0:0:0:
94,262,42396,5,4,1:2:0:0:
94,262,42627,1,2,2:2:0:0:
21,219,42857,1,2,2:2:0:0:
21,219,43088,1,2,1:2:0:0:
66,148,43319,1,4,2:3:0:0:
66,148,43550,2,0,P|53:103|39:54,1,70,8|8,2:3|1:3,0:0:0:0:
171,34,44011,2,0,L|156:66,8,35,4|8|8|8|8|8|8|8|8,2:3|2:3|2:2|2:2|2:2|2:2|2:2|2:2|2:2,0:0:0:0:
256,192,45165,5,2,2:2:0:0:
256,192,45396,1,2,2:2:0:0:
310,128,45627,1,10,2:2:0:0:
389,155,45857,1,2,2:2:0:0:
388,239,46088,6,0,P|397:272|403:307,1,70,6|2,1:2|2:3,0:0:0:0:
493,384,46550,2,0,P|499:349|508:315,1,70,10|2,2:2|2:3,0:0:0:0:
481,241,47011,1,2,1:2:0:0:
481,241,47242,1,2,2:2:0:0:
316,301,47473,1,10,2:2:0:0:
316,301,47704,2,0,P|283:287|249:280,1,70,2|0,2:2|1:0,0:0:0:0:
189,162,48165,5,2,2:2:0:0:
157,240,48396,1,10,2:2:0:0:
179,148,48627,1,2,2:2:0:0:
55,32,49088,5,2,2:2:0:0:
130,68,49319,1,10,2:2:0:0:
197,17,49550,1,2,2:2:0:0:
352,91,49781,6,0,P|387:98|421:105,1,70,2|2,1:2|2:3,0:0:0:0:
512,85,50242,2,0,P|504:119|497:153,1,70,10|2,2:2|2:3,0:0:0:0:
416,198,50704,1,2,1:2:0:0:
416,198,50934,1,2,2:2:0:0:
465,274,51165,1,10,2:2:0:0:
465,274,51396,2,0,P|499:266|533:260,1,70,2|0,2:2|1:0,0:0:0:0:
420,354,51857,5,2,2:2:0:0:
336,331,52088,1,10,2:2:0:0:
326,247,52319,1,2,2:2:0:0:
38,265,52781,5,2,2:2:0:0:
38,265,52896,1,0,3:0:0:0:
38,265,53011,2,0,P|14:298|13:335,1,70,10|2,2:2|2:2,0:0:0:0:
111,384,53473,5,2,1:2:0:0:
185,344,53704,1,2,2:2:0:0:
255,265,53934,5,10,2:2:0:0:
255,265,54165,1,2,2:2:0:0:
111,146,54396,5,2,1:2:0:0:
185,186,54627,1,2,2:2:0:0:
295,144,54857,5,10,2:2:0:0:
295,144,55088,1,2,2:2:0:0:
388,335,55319,6,0,P|421:325|455:317,1,70,2|2,1:2|2:2,0:0:0:0:
487,239,55781,2,0,P|461:214|438:189,1,70,10|2,2:2|2:2,0:0:0:0:
352,205,56242,2,0,P|343:238|333:272,1,70,2|2,1:2|2:3,0:0:0:0:
391,340,56704,1,10,2:2:0:0:
391,340,56934,1,2,2:2:0:0:
265,212,57396,5,2,2:2:0:0:
265,212,57511,1,0,3:0:0:0:
265,212,57627,2,0,P|212:230|178:240,1,70,10|2,2:2|2:2,0:0:0:0:
143,297,58088,1,2,1:2:0:0:
143,297,58319,1,2,2:2:0:0:
69,256,58550,1,10,2:2:0:0:
69,256,58781,2,0,B|68:129|160:211|158:62,1,210,2|8,2:2|2:2,0:0:0:0:
8,3,59934,5,10,2:2:0:0:
8,3,60165,1,10,2:2:0:0:
71,77,60396,1,10,2:2:0:0:
168,82,60627,1,2,1:2:0:0:
242,19,60857,6,0,P|280:12|315:-3,1,70,6|2,1:2|2:3,0:0:0:0:
383,122,61319,2,0,P|350:109|316:102,1,70,10|2,2:2|2:3,0:0:0:0:
245,145,61781,1,2,1:2:0:0:
245,145,62011,1,2,2:2:0:0:
120,264,62242,1,10,2:2:0:0:
120,264,62473,2,0,P|131:321|140:366,1,70,2|0,2:2|1:0,0:0:0:0:
257,359,62934,5,2,2:2:0:0:
288,281,63165,1,10,2:2:0:0:
246,363,63396,1,2,2:2:0:0:
400,285,63857,5,2,2:2:0:0:
480,259,64088,1,10,2:2:0:0:
495,176,64319,1,2,2:2:0:0:
372,96,64550,6,0,P|391:144|405:195,2,105,2|2|2,1:2|3:2|2:2,0:0:0:0:
385,16,65473,1,2,1:2:0:0:
385,16,65704,1,2,2:2:0:0:
457,57,65934,1,10,2:2:0:0:
279,117,66165,6,0,P|230:134|150:192,1,140,2|2,2:2|2:2,0:0:0:0:
130,265,66857,1,10,2:2:0:0:
130,265,67088,1,2,2:2:0:0:
7,380,67550,5,2,2:2:0:0:
7,380,67781,2,0,P|60:351|98:354,1,70,10|2,2:2|2:2,0:0:0:0:
151,250,68242,6,0,P|219:264|287:279,1,140,2|8,1:2|2:2,0:0:0:0:
350,335,68934,1,2,2:3:0:0:
481,225,69165,2,0,P|412:210|344:195,1,140,2|8,1:2|2:2,0:0:0:0:
284,135,69857,1,2,2:3:0:0:
361,28,70088,6,0,P|400:61|416:110,2,105,2|2|2,1:2|3:2|2:2,0:0:0:0:
268,11,71011,2,0,P|236:26|203:37,1,70,2|2,1:2|2:3,0:0:0:0:
119,29,71473,1,10,2:2:0:0:
71,189,71934,6,0,P|33:225|1:267,2,105,2|2|2,1:2|3:2|2:2,0:0:0:0:
89,106,72857,2,0,P|75:55|56:6,2,105,2|2|2,1:2|3:2|2:2,0:0:0:0:
148,166,73781,5,10,2:2:0:0:
267,205,74127,1,10,2:2:0:0:
385,244,74473,1,10,2:2:0:0:
502,34,75627,5,4,1:2:0:0:
425,68,75857,1,2,2:2:0:0:
425,68,76088,2,0,P|391:111|387:134,1,70,10|2,2:2|2:3,0:0:0:0:
309,157,76550,2,0,P|258:137|218:140,1,70,2|2,1:2|2:3,0:0:0:0:
135,76,77011,2,0,P|143:127|153:179,1,105,10|0,2:2|0:0,0:0:0:0:
141,220,77473,6,0,P|72:265|80:341,1,140,2|8,1:2|2:2,0:0:0:0:
128,375,78165,1,2,2:2:0:0:
128,375,78396,2,0,P|169:363|200:356,1,70,0|2,1:0|2:3,0:0:0:0:
230,280,78857,2,0,P|271:292|302:299,1,70,8|2,2:2|2:3,0:0:0:0:
397,373,79319,5,0,1:0:0:0:
456,314,79550,1,2,2:2:0:0:
456,314,79781,2,0,P|448:279|439:246,1,70,10|2,2:2|2:3,0:0:0:0:
495,183,80242,2,0,P|502:148|511:115,1,70,2|2,1:2|2:3,0:0:0:0:
431,87,80704,2,0,P|423:52|414:19,1,70,10|2,2:2|2:3,0:0:0:0:
349,149,81165,5,2,1:2:0:0:
349,149,81396,1,2,2:2:0:0:
267,129,81627,1,10,2:2:0:0:
185,109,81857,2,0,P|119:130|98:205,1,140,2|2,2:2|2:3,0:0:0:0:
151,253,82550,2,0,P|155:288|160:323,1,70,8|2,2:2|2:3,0:0:0:0:
63,356,83011,5,0,1:0:0:0:
8,291,83242,1,2,2:2:0:0:
8,291,83473,2,0,P|2:256|0:221,1,70,10|2,2:2|2:3,0:0:0:0:
56,160,83934,2,0,P|88:172|120:187,1,70,2|2,1:2|2:3,0:0:0:0:
142,268,84396,2,0,P|114:290|86:310,1,70,10|2,2:2|2:3,0:0:0:0:
187,352,84857,6,0,P|257:362|323:384,1,140,2|8,1:2|2:2,0:0:0:0:
391,334,85550,2,0,P|412:278|427:256,1,70,2|0,2:2|1:0,0:0:0:0:
474,111,86242,5,10,2:2:0:0:
404,158,86473,1,2,2:2:0:0:
486,122,86704,1,0,1:0:0:0:
438,295,87165,5,10,2:2:0:0:
508,250,87396,1,2,2:2:0:0:
434,274,87627,1,0,1:0:0:0:
294,200,88088,5,10,2:2:0:0:
294,200,88204,1,8,2:2:0:0:
294,200,88319,1,10,2:2:0:0:
365,357,88550,1,4,1:2:0:0:
256,192,88665,12,0,90165,0:0:0:0:
