osu file format v14

[General]
AudioFilename: audio.mp3
AudioLeadIn: 0
PreviewTime: 45050
Countdown: 0
SampleSet: Soft
StackLeniency: 0.7
Mode: 0
LetterboxInBreaks: 0
WidescreenStoryboard: 0

[Editor]
Bookmarks: 16550,31319,38704,46088,60857,75627,88550
DistanceSpacing: 1
BeatDivisor: 4
GridSize: 32
TimelineZoom: 2.799999

[Metadata]
Title:Precious You* (TV Size)
TitleUnicode:Precious You☆ (TV Size)
Artist:Fujita Akane, Miyamoto Yume, Ozawa Ari
ArtistUnicode:藤田茜、宮本侑芽、小澤亜李
Creator:Roger
Version:Creamy's Easy
Source:ロクでなし魔術講師と禁忌教典
Tags:ending ed anime japanese pop jpop j-pop Creamy Candy ][ -GH- ][ アカシックレコード akashic records of bastard magic instructor rokudenashi majutsu koushi to kinki kyouten ロクアカ rokuaka システィーナ=フィーベル Sistine Fibel ルミア=ティンジェル Rumia Tingel リィエル=レイフォード Riel Re=L Rayford
BeatmapID:2376191
BeatmapSetID:674701

[Difficulty]
HPDrainRate:2
CircleSize:3
OverallDifficulty:3
ApproachRate:3
SliderMultiplier:0.8
SliderTickRate:1

[Events]
//Background and Video events
0,0,"bg2.jpg",0,0
Video,30,"video.mp4"
//Break Periods
//Storyboard Layer 0 (Background)
//Storyboard Layer 1 (Fail)
//Storyboard Layer 2 (Pass)
//Storyboard Layer 3 (Foreground)
//Storyboard Layer 4 (Overlay)
//Storyboard Sound Samples

[TimingPoints]
1781,461.538461538462,4,2,99,85,1,0
32011,-100,4,2,99,65,0,0
32704,-100,4,2,99,85,0,0
32934,-100,4,2,99,65,0,0
33165,-100,4,2,99,65,0,0
34550,-100,4,2,99,85,0,0
34781,-100,4,2,99,65,0,0
35011,-100,4,2,99,65,0,0
36396,-100,4,2,99,85,0,0
38704,-100,4,2,100,85,0,0
43088,-100,4,2,99,85,0,0
44242,-100,4,2,99,65,0,0
44357,-100,4,2,99,70,0,0
44473,-100,4,2,99,75,0,0
44588,-100,4,2,99,80,0,0
44704,-100,4,2,99,85,0,0
46088,-100,4,2,100,85,0,1
59011,-100,4,2,100,85,0,0
60396,-100,4,2,99,85,0,0
60627,-100,4,2,100,85,0,0
60857,-100,4,2,100,85,0,1
75627,-100,4,2,100,85,0,0
90165,-100,4,2,100,5,0,0

[Colours]
Combo1 : 128,128,255
Combo2 : 248,220,107

[HitObjects]
56,310,1319,5,8,2:0:0:0:
127,245,1781,2,0,B|166:239|166:239|202:258|202:258|292:245,1,160,4|2,1:2|2:0,0:0:0:0:
351,181,3165,1,2,2:0:0:0:
314,92,3627,1,2,1:2:0:0:
436,16,4319,1,2,2:0:0:0:
489,149,5011,1,2,2:0:0:0:
433,227,5473,6,0,P|423:267|413:316,1,80,0|2,1:0|2:0,0:0:0:0:
330,350,6396,2,0,P|290:340|241:330,1,80,2|2,2:0|2:0,0:0:0:0:
196,253,7319,2,0,B|185:215|185:215|207:182|207:182|196:127|196:127,1,120,2|2,1:2|2:0,0:0:0:0:
78,63,8704,1,0,0:0:0:0:
16,136,9165,6,0,P|7:189|-4:227,1,80,0|2,1:0|2:0,0:0:0:0:
76,274,10088,2,0,P|126:255|164:245,1,80,2|2,2:0|2:0,0:0:0:0:
194,163,11011,2,0,P|152:128|95:68,1,120,2|2,1:2|2:0,0:0:0:0:
234,14,12396,2,0,B|277:6|277:6|312:36,1,80,2|0,2:0|1:0,0:0:0:0:
351,113,13319,2,0,B|336:154|336:154|292:169,1,80,2|0,2:0|1:0,0:0:0:0:
205,159,14242,2,0,B|176:125|176:125|185:80,1,80,2|2,2:0|1:3,0:0:0:0:
460,353,16550,6,0,B|424:334|424:334|381:343,1,80,4|10,1:2|2:0,0:0:0:0:
311,281,17473,2,0,P|260:297|218:312,1,80,2|8,1:2|2:0,0:0:0:0:
146,268,18396,2,0,B|119:240|119:240|126:198,1,80,0|10,1:0|2:0,0:0:0:0:
157,108,19319,1,2,1:2:0:0:
251,92,19781,1,8,2:0:0:0:
291,5,20242,6,0,B|329:17|329:17|346:59,1,80,0|10,1:0|2:0,0:0:0:0:
417,116,21165,2,0,P|399:176|391:215,1,80,2|8,1:2|2:0,0:0:0:0:
449,272,22088,1,0,1:0:0:0:
358,296,22550,1,8,2:0:0:0:
303,218,23011,1,0,1:0:0:0:
207,208,23473,1,8,2:0:0:0:
136,272,23934,6,0,B|129:311|129:311|164:372,1,80,0|10,1:0|2:0,0:0:0:0:
239,378,24857,2,0,P|292:358|343:342,1,80,2|8,1:2|2:0,0:0:0:0:
408,367,25781,2,0,B|414:327|414:327|379:266,1,80,0|10,1:0|2:0,0:0:0:0:
383,197,26704,1,2,1:2:0:0:
290,172,27165,1,8,2:0:0:0:
204,218,27627,6,0,B|174:191|174:191|174:141,1,80,0|10,1:0|2:0,0:0:0:0:
213,63,28550,2,0,P|262:75|301:82,1,80,2|8,1:2|2:0,0:0:0:0:
376,37,29473,1,0,1:0:0:0:
446,102,29934,1,10,2:0:0:0:
381,173,30396,1,0,1:0:0:0:
405,266,30857,1,8,2:1:0:0:
492,305,31319,6,0,B|373:333|373:333|338:379,1,160,4|2,1:2|1:2,0:0:0:0:
255,380,32704,1,8,2:1:0:0:
216,291,33165,1,0,1:0:0:0:
39,214,34088,1,2,1:2:0:0:
107,281,34550,1,8,2:1:0:0:
198,251,35011,2,0,B|317:223|317:223|352:177,1,160,2|2,1:2|1:2,0:0:0:0:
301,105,36396,1,8,2:1:0:0:
255,21,36857,2,0,B|214:13|214:13|181:33|181:33|126:26,1,120,10|8,2:0|1:0,0:0:0:0:
16,100,38242,1,10,2:0:0:0:
46,190,38704,6,0,P|103:201|139:247,2,120,4|2|8,1:2|2:3|2:0,0:0:0:0:
0,275,40550,2,0,P|13:317|22:354,1,80,0|8,1:0|2:0,0:0:0:0:
114,375,41473,2,0,P|155:362|193:353,1,80,0|8,1:0|2:0,0:0:0:0:
247,275,42396,6,0,B|286:279|286:279|311:312|311:312|350:317|350:317|372:349|372:349|440:356,1,200,4|8,1:2|2:3,0:0:0:0:
469,276,44011,2,0,B|447:167|552:221|508:81,1,200,4|2,2:3|0:0,0:0:0:0:
485,1,45627,1,8,2:1:0:0:
389,3,46088,6,0,P|341:40|336:72,1,80,4|8,1:2|2:0,0:0:0:0:
259,114,47011,2,0,B|219:126|219:126|171:109,1,80,0|8,1:0|2:0,0:0:0:0:
96,73,47934,2,0,B|80:110|80:110|91:148|91:148|68:203,1,120,0|2,1:0|2:3,0:0:0:0:
32,270,49088,2,0,B|69:285|69:285|107:274|107:274|162:297,1,120,2|0,2:3|1:0,0:0:0:0:
210,359,50242,1,8,2:0:0:0:
304,339,50704,1,0,1:0:0:0:
342,251,51165,1,8,2:0:0:0:
293,167,51627,6,0,B|253:158|253:158|201:181,1,80,0|8,1:0|2:0,0:0:0:0:
133,126,52550,1,0,1:0:0:0:
149,31,53011,1,8,2:0:0:0:
242,54,53473,2,0,B|277:69|277:69|317:60,1,80,0|8,1:0|2:0,0:0:0:0:
406,96,54396,2,0,B|441:80|441:80|481:89,1,80,0|8,1:0|2:0,0:0:0:0:
450,179,55319,5,0,1:0:0:0:
364,222,55781,1,8,2:0:0:0:
278,266,56242,1,0,1:0:0:0:
193,311,56704,2,0,B|153:312|153:312|111:270,1,80,8|0,2:0|1:0,0:0:0:0:
96,194,57627,6,0,B|135:190|135:190|160:157|160:157|199:152|199:152|221:120|221:120|289:113,1,200,8|2,2:0|2:3,0:0:0:0:
482,20,59934,5,8,2:0:0:0:
411,84,60396,1,8,2:1:0:0:
438,175,60857,2,0,P|451:215|453:268,1,80,4|8,1:2|2:0,0:0:0:0:
385,320,61781,2,0,B|345:332|345:332|297:315,1,80,0|8,1:0|2:0,0:0:0:0:
219,354,62704,2,0,B|203:316|203:316|214:278|214:278|191:223,1,120,0|2,1:0|2:3,0:0:0:0:
152,157,63857,2,0,B|189:141|189:141|227:152|227:152|282:129,1,120,2|0,2:3|1:0,0:0:0:0:
306,50,65011,5,8,2:0:0:0:
395,84,65473,1,0,1:0:0:0:
354,170,65934,1,8,2:0:0:0:
413,245,66396,2,0,B|447:265|447:265|507:256,2,80,0|8|0,1:0|2:0|1:0,0:0:0:0:
317,257,67781,1,8,2:0:0:0:
238,311,68242,6,0,P|191:348|182:379,1,80,0|8,1:0|2:0,0:0:0:0:
88,355,69165,2,0,P|79:295|57:272,1,80,0|8,1:0|2:0,0:0:0:0:
118,199,70088,1,0,1:0:0:0:
203,154,70550,1,8,2:0:0:0:
290,113,71011,2,0,L|392:130,1,80,0|8,1:0|2:0,0:0:0:0:
445,67,71934,6,0,B|466:103|466:103|460:161,1,80,0|8,1:0|2:0,0:0:0:0:
474,236,72857,2,0,B|432:236|432:236|384:201,1,80,0|8,1:0|2:0,0:0:0:0:
305,218,73781,2,0,L|231:233,2,60,8|8|8,2:0|2:0|2:0,0:0:0:0:
94,333,75627,6,0,B|133:339|133:339|169:320|169:320|259:333,1,160,4|2,1:2|1:2,0:0:0:0:
328,383,77011,1,10,0:0:0:0:
409,331,77473,2,0,P|391:276|383:254,1,80,2|8,1:2|2:0,0:0:0:0:
425,169,78396,1,0,1:0:0:0:
349,110,78857,1,8,2:0:0:0:
267,160,79319,6,0,P|229:146|191:134,1,80,0|10,1:0|2:0,0:0:0:0:
185,38,80242,2,0,P|146:50|109:63,1,80,2|10,1:2|2:0,0:0:0:0:
13,53,81165,2,0,B|2:91|2:91|24:124|24:124|13:179|13:179,1,120,2|2,1:2|2:3,0:0:0:0:
8,307,82550,1,8,2:0:0:0:
92,352,83011,6,0,P|138:328|176:316,1,80,0|10,1:0|2:0,0:0:0:0:
227,246,83934,2,0,P|273:270|311:282,1,80,2|10,1:2|2:0,0:0:0:0:
388,243,84857,2,0,P|416:192|462:129,1,120,2|2,1:2|2:3,0:0:0:0:
360,29,86242,6,0,B|317:21|317:21|282:51,1,80,10|0,2:0|1:0,0:0:0:0:
248,131,87165,2,0,B|263:172|263:172|307:187,1,80,8|0,2:0|1:0,0:0:0:0:
392,171,88088,2,0,B|421:137|421:137|412:92,1,80,8|4,2:0|1:2,0:0:0:0:
256,192,88665,12,0,90165,0:0:0:0:
