osu file format v14

[General]
AudioFilename: sisti!.mp3
AudioLeadIn: 0
PreviewTime: 44185
Countdown: 0
SampleSet: Soft
StackLeniency: 0.8
Mode: 0
LetterboxInBreaks: 0
WidescreenStoryboard: 1

[Editor]
Bookmarks: 45108,88954
DistanceSpacing: 0.9
BeatDivisor: 4
GridSize: 16
TimelineZoom: 1.899999

[Metadata]
Title:Precious You* (TV Size)
TitleUnicode:Precious You☆ (TV Size)
Artist:Fujita Akane, Miyamoto Yume, Ozawa Ari
ArtistUnicode:藤田 茜、宮本侑芽、小澤亜李
Creator:-Aqua
Version:Eriqua's Hard
Source:ロクでなし魔術講師と禁忌教典
Tags:Rokudenashi Majutsu Koushi to Akashic Records of Bastard Magic Instructor RokuAka システィーナ=フィーベル Sistine Fibel ルミア=ティンジェル Rumia Tingel リィエル=レイフォード Re=L Rayford Ending ED Anime Japanese Erisu Lanzhu Mayuzumi Fuyuko Pop J-pop Jpop KADOKAWA
BeatmapID:3368048
BeatmapSetID:634588

[Difficulty]
HPDrainRate:5
CircleSize:4
OverallDifficulty:6
ApproachRate:7
SliderMultiplier:1.3
SliderTickRate:1

[Events]
//Background and Video events
0,0,"sistine.jpg",0,0
Video,0,"fujita akane poggers.mp4"
//Break Periods
//Storyboard Layer 0 (Background)
//Storyboard Layer 1 (Fail)
//Storyboard Layer 2 (Pass)
//Storyboard Layer 3 (Foreground)
//Storyboard Layer 4 (Overlay)
//Storyboard Sound Samples

[TimingPoints]
776,461.538461538462,4,2,1,65,1,0
776,-100,4,2,1,65,0,0
15545,-90.9090909090909,4,2,2,55,0,0
29852,-125,4,2,1,60,0,0
30199,-125,4,2,1,5,0,0
30314,-100,4,2,1,50,0,0
35852,-100,4,2,2,50,0,0
37699,-83.3333333333333,4,2,2,65,0,0
43237,-83.3333333333333,4,2,1,65,0,0
44160,-125,4,2,1,60,0,0
44622,-83.3333333333333,4,2,1,75,0,0
44968,-83.3333333333333,4,2,1,5,0,0
45083,-71.4285714285714,4,2,2,85,0,1
58929,-71.4285714285714,4,2,1,85,0,1
59391,-100,4,2,2,85,0,0
59852,-71.4285714285714,4,2,2,85,0,1
72776,-71.4285714285714,4,2,1,85,0,1
73468,-133.333333333333,4,2,1,80,0,0
73583,-133.333333333333,4,2,1,5,0,0
74391,-133.333333333333,4,2,1,60,0,0
74622,-83.3333333333333,4,2,2,70,0,0
86852,-83.3333333333333,4,2,1,70,0,0
87545,-100,4,2,2,70,0,0
88929,-100,4,2,2,20,0,0

[Colours]
Combo1 : 203,170,217
Combo2 : 199,201,201
Combo3 : 219,223,132
Combo4 : 111,175,255

[HitObjects]
46,357,314,6,0,P|46:323|79:280,1,65,8|8,1:2|1:2,0:0:0:0:
108,220,776,5,2,0:0:0:0:
108,220,1006,1,2,0:0:0:0:
176,279,1237,2,0,P|206:265|244:264,1,65,2|0,0:0|0:0,0:0:0:0:
301,328,1699,2,0,P|331:342|369:343,1,65,2|0,0:0|0:0,0:0:0:0:
453,341,2160,1,2,0:0:0:0:
392,169,2622,6,0,P|396:129|460:103,2,97.5,2|2|2,0:0|0:0|0:0,0:0:0:0:
329,235,3545,2,0,P|294:223|250:213,1,65,2|0,0:0|0:0,0:0:0:0:
195,158,4006,2,0,P|159:166|116:182,1,65,2|2,0:0|0:0,0:0:0:0:
44,187,4468,5,2,0:0:0:0:
44,187,4699,1,2,0:0:0:0:
16,100,4929,2,0,P|16:69|92:38,1,97.5,2|0,0:0|0:0,0:0:0:0:
95,44,5391,2,0,P|127:48|178:63,1,65,2|0,0:0|0:0,0:0:0:0:
231,110,5852,2,0,B|291:101|267:75|331:69,1,97.5,2|0,0:0|0:0,0:0:0:0:
354,42,6314,5,2,0:0:0:0:
354,42,6545,1,2,0:0:0:0:
429,93,6776,1,2,0:0:0:0:
500,36,7006,1,2,0:0:0:0:
429,93,7237,2,0,P|421:132|420:184,1,65,2|2,0:0|0:0,0:0:0:0:
354,221,7699,2,0,P|351:255|380:290,1,65,2|2,0:0|0:0,0:0:0:0:
451,313,8160,5,2,0:0:0:0:
280,376,8622,2,0,P|244:366|200:358,1,65,2|0,0:0|0:0,0:0:0:0:
191,272,9084,2,0,P|164:250|171:185,1,97.5,2|0,0:0|0:0,0:0:0:0:
207,169,9545,1,2,0:0:0:0:
99,315,10007,6,0,P|54:304|-14:293,2,97.5,2|2|2,0:0|0:0|0:0,0:0:0:0:
162,380,10929,2,0,P|200:381|237:355,1,65,2|0,0:0|0:0,0:0:0:0:
272,293,11391,1,2,0:0:0:0:
272,293,11622,1,2,0:0:0:0:
173,252,11852,6,0,L|191:175,1,65,2|0,0:0|0:0,0:0:0:0:
254,126,12314,1,2,0:0:0:0:
254,126,12545,1,2,0:0:0:0:
322,185,12775,2,0,L|304:262,1,65,2|0,0:0|0:0,0:0:0:0:
368,323,13237,1,2,0:0:0:0:
368,323,13468,1,2,0:0:0:0:
436,262,13699,6,0,P|446:199|415:153,1,97.5,2|2,0:0|0:0,0:0:0:0:
399,144,14160,2,0,L|416:65,1,65,2|2,0:0|0:0,0:0:0:0:
363,19,14622,1,2,3:2:0:0:
363,19,14852,1,0,3:0:0:0:
304,88,15083,1,10,0:2:0:0:
242,28,15314,1,2,1:2:0:0:
242,28,15429,1,0,3:0:0:0:
242,28,15545,6,0,P|193:48|152:57,2,71.5000021820069,6|2|10,1:2|3:2|0:0,0:0:0:0:
308,92,16237,1,2,3:2:0:0:
240,155,16468,2,0,P|256:190|333:199,1,107.25000327301,2|2,1:2|0:0,0:0:0:0:
354,176,16929,1,8,0:0:0:0:
434,223,17160,2,0,P|420:267|412:349,1,107.25000327301,2|0,3:2|0:0,0:0:0:0:
381,363,17622,5,2,3:2:0:0:
303,312,17852,1,8,0:0:0:0:
226,365,18083,1,2,3:2:0:0:
303,312,18314,2,0,P|300:274|227:236,1,107.25000327301,2|2,1:2|0:2,0:0:0:0:
228,231,18776,1,8,0:0:0:0:
169,303,19006,2,0,B|105:314|134:263|39:279,1,107.25000327301,2|0,3:2|0:0,0:0:0:0:
28,262,19468,5,2,3:2:0:0:
28,262,19699,1,10,0:0:0:0:
63,176,19929,1,2,3:2:0:0:
5,102,20160,2,0,P|55:92|125:82,1,107.25000327301,2|2,1:2|0:2,0:0:0:0:
149,65,20622,2,0,P|184:74|240:85,1,71.5000021820069,8|2,0:2|3:2,0:0:0:0:
302,132,21083,5,2,1:2:0:0:
302,132,21314,1,2,3:2:0:0:
368,66,21545,1,10,0:2:0:0:
428,136,21776,2,0,L|412:228,1,71.5000021820069,2|0,3:2|1:2,0:0:0:0:
376,294,22237,5,0,3:2:0:0:
376,294,22352,1,0,3:2:0:0:
376,294,22468,1,10,0:2:0:0:
303,352,22699,1,2,3:2:0:0:
245,279,22929,6,0,L|159:300,2,71.5000021820069,2|2|10,1:2|3:2|0:2,0:0:0:0:
318,221,23622,1,2,3:2:0:0:
380,290,23853,2,0,P|412:312|486:278,1,107.25000327301,2|2,1:2|0:2,0:0:0:0:
492,266,24314,1,8,0:0:0:0:
431,195,24545,2,0,B|429:146|429:146|439:133|439:133|444:77,1,107.25000327301,2|0,3:2|0:0,0:0:0:0:
434,55,25007,5,2,3:2:0:0:
434,55,25237,1,8,0:2:0:0:
350,12,25468,1,2,3:2:0:0:
298,89,25699,2,0,B|232:95|255:53|185:63,1,107.25000327301,2|2,1:2|0:2,0:0:0:0:
172,47,26161,1,8,0:0:0:0:
83,20,26391,2,0,B|61:51|61:51|79:136,1,107.25000327301,2|0,3:2|0:0,0:0:0:0:
108,151,26853,5,2,3:2:0:0:
147,235,27084,1,10,0:0:0:0:
90,308,27314,1,2,3:2:0:0:
147,235,27545,2,0,B|195:241|195:241|199:246|199:246|267:255,1,107.25000327301,2|2,1:2|0:2,0:0:0:0:
286,271,28006,1,8,0:0:0:0:
321,356,28237,2,0,P|375:358|421:313,1,107.25000327301,2|0,3:2|0:0,0:0:0:0:
434,283,28699,5,2,3:2:0:0:
497,215,28929,1,10,0:0:0:0:
413,173,29160,2,0,P|416:138|430:86,1,71.5000021820069,2|4,3:2|3:0,0:0:0:0:
489,35,29622,1,4,3:0:0:0:
489,35,29737,1,0,1:0:0:0:
489,35,29852,1,4,1:1:0:0:
320,47,30314,6,0,B|228:55|284:85|185:97,1,130,6|2,1:2|0:0,0:0:0:0:
119,75,31006,2,0,L|133:8,1,65,2|2,1:2|1:2,0:0:0:0:
20,174,31699,1,8,0:1:0:0:
20,174,31929,1,0,0:0:0:0:
78,243,32160,6,0,B|111:253|144:242|144:242|165:270|201:273,1,130,2|0,1:2|0:0,0:0:0:0:
273,222,32852,2,0,P|267:189|262:156,1,65,2|2,1:2|1:2,0:0:0:0:
383,21,33545,1,8,0:1:0:0:
383,21,33776,1,0,1:0:0:0:
440,91,34006,6,0,B|450:136|450:136|433:169|433:169|438:227,1,130,2|2,1:2|0:2,0:0:0:0:
490,289,34699,2,0,L|472:364,1,65,2|2,1:2|1:2,0:0:0:0:
314,265,35391,1,8,0:1:0:0:
314,265,35622,1,0,0:0:0:0:
241,319,35852,6,0,P|247:352|254:401,2,65,2|10|2,1:2|0:2|1:2,0:0:0:0:
183,248,36545,1,14,0:2:0:0:
56,378,37006,1,2,0:2:0:0:
15,296,37237,1,10,0:2:0:0:
54,213,37468,1,2,1:2:0:0:
130,134,37699,6,0,B|226:130|195:179|295:176,1,155.999995239258,6|8,1:2|0:2,0:0:0:0:
366,127,38391,1,2,3:2:0:0:
268,98,38622,2,0,P|277:67|288:17,1,77.999997619629,0|0,1:0|3:0,0:0:0:0:
388,13,39083,2,0,P|448:13|472:71,1,116.999996429443,10|0,0:0|0:0,0:0:0:0:
466,87,39545,6,0,P|473:138|480:206,1,116.999996429443,2|2,1:2|0:0,0:0:0:0:
470,227,40006,1,8,0:0:0:0:
500,315,40237,1,2,3:2:0:0:
432,380,40468,2,0,P|393:368|338:360,1,77.999997619629,2|0,1:2|3:0,0:0:0:0:
287,298,40929,1,10,0:0:0:0:
354,233,41160,1,0,3:0:0:0:
287,298,41391,6,0,P|245:302|198:310,1,77.999997619629,6|2,1:2|0:2,0:0:0:0:
118,331,41852,2,0,P|83:307|89:253,1,77.999997619629,2|2,0:2|1:2,0:0:0:0:
141,204,42314,1,2,3:2:0:0:
141,204,42545,1,2,1:2:0:0:
222,250,42776,1,0,1:2:0:0:
301,201,43006,1,2,1:2:0:0:
301,201,43122,1,0,1:0:0:0:
301,201,43237,6,0,L|293:143,3,38.9999988098145,8|8|8|8,0:0|0:0|0:0|0:0,0:0:0:0:
269,139,43699,2,0,L|274:100,3,38.9999988098145,8|8|8|8,0:0|0:0|0:0|0:0,0:0:0:0:
289,67,44160,1,2,0:0:0:0:
289,67,44391,1,2,0:0:0:0:
375,30,44622,1,4,1:1:0:0:
375,30,44852,1,0,0:0:0:0:
455,76,45083,6,0,P|509:117|490:200,1,136.499995834351,6|0,1:2|0:0,0:0:0:0:
479,182,45545,2,0,P|446:225|461:269,1,90.9999972229005,10|0,0:0|3:2,0:0:0:0:
494,355,46006,1,2,1:2:0:0:
494,355,46122,1,0,0:0:0:0:
494,355,46237,2,0,P|430:339|394:335,1,90.9999972229005,2|10,3:2|0:0,0:0:0:0:
333,204,46699,6,0,B|229:230|295:277|176:307,1,181.999994445801,2|2,3:2|3:2,0:0:0:0:
128,384,47391,2,0,P|66:367|32:363,1,90.9999972229005,10|2,0:0|3:2,0:0:0:0:
0,206,47852,5,2,1:2:0:0:
54,136,48083,1,2,3:2:0:0:
138,173,48314,1,10,0:0:0:0:
138,173,48545,1,2,3:2:0:0:
205,76,48776,6,0,P|267:93|342:109,1,136.499995834351,2|0,1:2|0:0,0:0:0:0:
356,140,49237,2,0,P|378:197|333:241,1,90.9999972229005,10|0,0:0|3:2,0:0:0:0:
288,270,49699,1,2,1:2:0:0:
288,270,49814,1,0,0:0:0:0:
288,270,49929,1,2,3:2:0:0:
358,344,50160,1,10,0:0:0:0:
221,384,50391,5,2,3:2:0:0:
221,384,50622,2,0,P|176:374|131:365,1,90.9999972229005,2|2,1:2|3:2,0:0:0:0:
126,356,50968,1,0,0:0:0:0:
121,349,51083,1,10,0:0:0:0:
30,302,51314,2,0,P|99:324|183:251,1,181.999994445801,2|2,3:2|3:2,0:0:0:0:
193,252,51891,1,0,0:0:0:0:
197,234,52006,2,0,L|167:134,1,90.9999972229005,10|2,0:0|3:2,0:0:0:0:
239,33,52468,6,0,L|328:51,1,90.9999972229005,2|2,1:2|3:2,0:0:0:0:
357,143,52929,2,0,L|446:124,1,90.9999972229005,10|2,0:0|3:2,0:0:0:0:
512,227,53391,2,0,L|469:214,3,45.4999986114502,2|0|2|0,1:2|3:0|3:2|3:0,0:0:0:0:
454,233,53852,1,10,0:0:0:0:
454,233,54083,1,2,3:2:0:0:
483,346,54314,6,0,P|416:385|377:359,1,90.9999972229005,2|0,1:2|3:2,0:0:0:0:
339,305,54776,2,0,P|294:301|265:267,1,90.9999972229005,10|2,0:0|3:2,0:0:0:0:
205,344,55237,2,0,P|160:347|131:381,1,90.9999972229005,2|0,1:2|3:2,0:0:0:0:
131,381,55699,1,10,0:0:0:0:
14,313,55929,5,2,3:2:0:0:
14,313,56160,2,0,P|32:261|47:188,1,90.9999972229005,2|2,1:2|3:2,0:0:0:0:
53,219,56506,1,0,0:0:0:0:
62,212,56622,1,10,0:0:0:0:
145,267,56852,1,2,3:2:0:0:
221,189,57083,2,0,P|203:137|188:64,2,90.9999972229005,2|2|10,1:2|3:2|0:0,0:0:0:0:
221,189,57776,1,2,3:2:0:0:
319,280,58006,6,0,P|383:267|430:314,1,136.499995834351,2|0,1:2|0:0,0:0:0:0:
429,333,58468,1,8,0:0:0:0:
512,280,58699,1,0,3:2:0:0:
429,157,58929,5,4,3:0:0:0:
492,93,59160,1,4,3:0:0:0:
384,26,59391,2,0,P|345:37|300:44,1,65,4|2,1:1|0:0,0:0:0:0:
251,112,59852,6,0,L|290:263,1,136.499995834351,6|0,1:2|0:0,0:0:0:0:
312,252,60314,1,10,0:0:0:0:
381,337,60545,1,0,3:2:0:0:
381,337,60660,1,0,0:0:0:0:
381,337,60775,2,0,P|345:371|292:356,1,90.9999972229005,2|2,1:2|3:2,0:0:0:0:
174,332,61237,5,10,0:0:0:0:
93,375,61468,2,0,B|54:291|54:291|126:205,1,181.999994445801,2|2,3:2|3:2,0:0:0:0:
52,142,62160,1,10,0:0:0:0:
52,142,62391,1,2,3:2:0:0:
150,43,62622,6,0,P|194:47|222:82,1,90.9999972229005,2|2,1:2|3:2,0:0:0:0:
268,170,63083,1,10,0:0:0:0:
356,140,63314,1,2,3:2:0:0:
457,203,63545,6,0,P|440:265|424:340,1,136.499995834351,2|2,1:2|0:0,0:0:0:0:
392,347,64006,2,0,P|351:334|304:323,1,90.9999972229005,10|2,0:0|3:2,0:0:0:0:
238,203,64468,2,0,P|197:216|150:227,1,90.9999972229005,2|2,1:2|3:2,0:0:0:0:
149,237,64814,1,0,0:0:0:0:
148,247,64929,1,10,0:0:0:0:
77,326,65160,1,2,3:2:0:0:
0,218,65391,6,0,P|-7:174|24:144,1,90.9999972229005,2|2,1:2|3:2,0:0:0:0:
23,144,65852,1,10,0:0:0:0:
112,48,66083,2,0,P|104:91|136:121,1,90.9999972229005,2|2,3:2|1:2,0:0:0:0:
217,184,66545,1,2,3:2:0:0:
217,184,66660,1,0,0:0:0:0:
217,184,66776,2,0,P|267:170|323:160,1,90.9999972229005,10|2,0:0|3:2,0:0:0:0:
325,36,67237,6,0,B|414:59|360:91|461:109,1,136.499995834351,2|0,1:2|0:0,0:0:0:0:
480,111,67699,2,0,P|442:139|438:196,1,90.9999972229005,10|0,0:0|3:2,0:0:0:0:
512,250,68160,2,0,L|497:307,3,45.4999986114502,2|0|0|0,1:2|3:0|3:2|3:0,0:0:0:0:
486,313,68622,2,0,P|429:324|383:336,1,90.9999972229005,10|0,0:0|3:2,0:0:0:0:
269,384,69083,6,0,P|213:342|231:265,1,136.499995834351,2|2,1:2|0:0,0:0:0:0:
234,267,69545,1,10,0:0:0:0:
305,190,69776,1,2,3:2:0:0:
244,105,70006,2,0,P|184:123|146:132,1,90.9999972229005,2|0,1:2|3:2,0:0:0:0:
118,233,70468,2,0,P|58:214|20:205,1,90.9999972229005,10|0,0:0|3:2,0:0:0:0:
0,76,70929,6,0,P|40:44|85:59,1,90.9999972229005,2|0,1:2|3:2,0:0:0:0:
86,58,71276,1,2,0:0:0:0:
90,68,71391,1,10,0:0:0:0:
159,156,71622,1,2,3:2:0:0:
159,156,71852,2,0,P|199:188|244:173,1,90.9999972229005,2|0,1:2|3:2,0:0:0:0:
260,175,72199,2,0,L|287:83,1,90.9999972229005,2|0,0:0|0:0,0:0:0:0:
274,67,72545,1,2,3:2:0:0:
401,3,72776,6,0,L|428:95,1,90.9999972229005,10|0,0:0|3:2,0:0:0:0:
436,98,73122,1,10,0:0:0:0:
444,103,73237,1,0,1:0:0:0:
503,198,73468,6,0,B|376:214|460:273|324:278,1,195.00000743866,10|0,3:2|0:0,0:0:0:0:
250,356,74622,6,0,P|218:331|220:285,1,77.999997619629,6|0,1:2|3:2,0:0:0:0:
224,282,74968,1,0,0:0:0:0:
230,272,75083,2,0,P|218:217|212:182,1,77.999997619629,10|0,0:0|3:2,0:0:0:0:
294,136,75545,2,0,B|301:59|301:59|215:20,1,155.999995239258,2|10,1:2|0:0,0:0:0:0:
229,26,76237,1,0,3:2:0:0:
167,116,76468,6,0,B|26:150,1,116.999996429443,2|0,1:2|0:0,0:0:0:0:
36,161,76929,2,0,P|28:199|20:237,1,77.999997619629,8|2,0:0|3:2,0:0:0:0:
94,320,77391,2,0,P|37:318|0:361,2,116.999996429443,2|0|0,1:2|0:0|3:2,0:0:0:0:
182,379,78314,5,2,1:2:0:0:
182,379,78545,1,2,3:2:0:0:
259,317,78776,2,0,B|237:227,1,77.999997619629,10|0,0:0|3:2,0:0:0:0:
150,211,79237,2,0,B|172:121,1,77.999997619629,2|0,1:2|3:2,0:0:0:0:
254,97,79699,2,0,B|235:21,1,77.999997619629,10|0,0:0|3:2,0:0:0:0:
384,69,80160,6,0,B|365:144,2,77.999997619629,2|2|10,1:2|3:2|0:0,0:0:0:0:
384,69,80852,1,2,3:2:0:0:
469,19,81083,2,0,P|518:56|487:127,1,116.999996429443,2|0,1:2|0:0,0:0:0:0:
485,135,81545,2,0,B|503:210,1,77.999997619629,8|0,0:0|3:2,0:0:0:0:
412,264,82006,6,0,B|394:339,1,77.999997619629,2|2,1:2|3:2,0:0:0:0:
385,345,82352,1,0,0:0:0:0:
376,350,82468,2,0,P|338:345|315:315,1,77.999997619629,10|0,0:0|3:2,0:0:0:0:
292,212,82929,2,0,B|197:230|260:278|142:288,1,155.999995239258,2|10,1:2|0:0,0:0:0:0:
160,285,83622,1,0,3:2:0:0:
69,347,83852,6,0,P|19:315|40:255,1,116.999996429443,2|0,1:2|0:0,0:0:0:0:
43,249,84314,2,0,P|29:207|16:160,1,77.999997619629,8|2,0:0|3:2,0:0:0:0:
119,142,84776,2,0,P|138:83|156:17,1,116.999996429443,2|0,1:2|0:0,0:0:0:0:
182,27,85237,1,10,0:0:0:0:
182,27,85468,1,0,3:2:0:0:
267,110,85699,6,0,P|282:166|301:221,1,116.999996429443,2|0,1:2|0:0,0:0:0:0:
289,243,86160,1,10,0:0:0:0:
289,243,86391,1,0,3:2:0:0:
220,332,86622,6,0,P|251:357|303:341,1,77.999997619629,2|8,1:2|0:0,0:0:0:0:
368,304,87083,1,10,0:0:0:0:
368,304,87199,1,8,0:0:0:0:
368,304,87314,1,2,1:2:0:0:
485,356,87545,5,6,1:2:0:0:
256,192,87660,12,0,88929,0:0:0:0:
