osu file format v14

[General]
AudioFilename: audio.mp3
AudioLeadIn: 0
PreviewTime: 130798
Countdown: 1
SampleSet: Normal
StackLeniency: 0.7
Mode: 3
LetterboxInBreaks: 0
SpecialStyle: 0
WidescreenStoryboard: 0

[Editor]
Bookmarks: 50050,84336,132091,172499,215356
DistanceSpacing: 0.5
BeatDivisor: 4
GridSize: 32
TimelineZoom: 2.7

[Metadata]
Title:Move That Body -Extended Mix-
TitleUnicode:Move That Body -Extended Mix-
Artist:Fujimori Sota
ArtistUnicode:藤森崇多
Creator:juankristal
Version:Dance
Source:jubeat saucer
Tags:LN _underjoy juanderjoy synthesized5 electronic instrumental bemani
BeatmapID:1609983
BeatmapSetID:765772

[Difficulty]
HPDrainRate:8
CircleSize:4
OverallDifficulty:7.5
ApproachRate:5
SliderMultiplier:1.4
SliderTickRate:1

[Events]
//Background and Video events
0,0,"676286.png",0,0
//Break Periods
//Storyboard Layer 0 (Background)
//Storyboard Layer 1 (Fail)
//Storyboard Layer 2 (Pass)
//Storyboard Layer 3 (Foreground)
//Storyboard Layer 4 (Overlay)
//Storyboard Sound Samples

[TimingPoints]
1071,306.122448979592,4,1,0,100,1,0
84336,-100,4,1,0,100,0,1
103928,-100,4,1,0,100,0,0

[HitObjects]
64,192,1071,128,0,1683:0:0:0:0:
192,192,1071,128,0,1224:0:0:0:0:
448,192,1071,128,0,1377:0:0:0:0:
320,192,1377,128,0,1606:0:0:0:0:
320,192,1683,1,0,0:0:0:0:
192,192,1683,1,0,0:0:0:0:
448,192,1836,128,0,1912:0:0:0:0:
64,192,1836,1,0,0:0:0:0:
320,192,1989,128,0,2065:0:0:0:0:
192,192,1989,1,0,0:0:0:0:
64,192,2142,128,0,2218:0:0:0:0:
320,192,2142,1,0,0:0:0:0:
448,192,2295,128,0,2372:0:0:0:0:
192,192,2295,128,0,2448:0:0:0:0:
448,192,2448,128,0,2601:0:0:0:0:
64,192,2448,128,0,2601:0:0:0:0:
320,192,2601,128,0,2831:0:0:0:0:
192,192,2601,128,0,2678:0:0:0:0:
192,192,2754,128,0,2907:0:0:0:0:
448,192,2754,128,0,2831:0:0:0:0:
64,192,2907,128,0,3213:0:0:0:0:
448,192,2907,128,0,3060:0:0:0:0:
320,192,3060,128,0,3137:0:0:0:0:
192,192,3137,128,0,3213:0:0:0:0:
448,192,3213,128,0,3443:0:0:0:0:
320,192,3213,128,0,3519:0:0:0:0:
64,192,3366,1,0,0:0:0:0:
192,192,3366,128,0,3519:0:0:0:0:
64,192,3519,128,0,4055:0:0:0:0:
448,192,3519,128,0,3673:0:0:0:0:
320,192,3826,128,0,4055:0:0:0:0:
192,192,3826,1,0,0:0:0:0:
320,192,4132,128,0,4285:0:0:0:0:
448,192,4132,128,0,4667:0:0:0:0:
192,192,4438,128,0,4667:0:0:0:0:
64,192,4438,1,0,0:0:0:0:
64,192,4744,128,0,5050:0:0:0:0:
192,192,4744,128,0,4821:0:0:0:0:
320,192,4897,128,0,4974:0:0:0:0:
448,192,4897,1,0,0:0:0:0:
192,192,4974,1,0,0:0:0:0:
320,192,5050,128,0,5356:0:0:0:0:
448,192,5050,128,0,5127:0:0:0:0:
192,192,5203,128,0,5356:0:0:0:0:
64,192,5203,1,0,0:0:0:0:
64,192,5356,128,0,5662:0:0:0:0:
448,192,5356,128,0,5509:0:0:0:0:
192,192,5509,128,0,5892:0:0:0:0:
320,192,5509,128,0,5662:0:0:0:0:
448,192,5662,128,0,5892:0:0:0:0:
320,192,5815,128,0,5892:0:0:0:0:
64,192,5968,1,0,0:0:0:0:
320,192,5968,128,0,6198:0:0:0:0:
64,192,6275,1,0,0:0:0:0:
448,192,6326,1,0,0:0:0:0:
192,192,6377,1,0,0:0:0:0:
320,192,6428,128,0,6734:0:0:0:0:
64,192,6581,128,0,6657:0:0:0:0:
192,192,6581,128,0,6734:0:0:0:0:
64,192,6734,128,0,7193:0:0:0:0:
448,192,6734,128,0,6887:0:0:0:0:
192,192,6887,128,0,6963:0:0:0:0:
320,192,6887,128,0,7040:0:0:0:0:
192,192,7040,128,0,7193:0:0:0:0:
448,192,7040,1,0,0:0:0:0:
320,192,7193,128,0,7295:0:0:0:0:
448,192,7193,1,0,0:0:0:0:
320,192,7346,128,0,7499:0:0:0:0:
448,192,7499,128,0,7601:0:0:0:0:
64,192,7499,128,0,7576:0:0:0:0:
192,192,7576,128,0,7805:0:0:0:0:
448,192,7652,128,0,7805:0:0:0:0:
320,192,7805,128,0,8111:0:0:0:0:
64,192,7805,128,0,7907:0:0:0:0:
64,192,7958,128,0,8111:0:0:0:0:
192,192,8111,128,0,8417:0:0:0:0:
448,192,8111,128,0,8213:0:0:0:0:
448,192,8264,128,0,8417:0:0:0:0:
64,192,8264,1,0,0:0:0:0:
64,192,8417,128,0,8724:0:0:0:0:
320,192,8417,128,0,8953:0:0:0:0:
192,192,8724,128,0,8953:0:0:0:0:
448,192,8724,1,0,0:0:0:0:
448,192,9030,128,0,9336:0:0:0:0:
64,192,9030,1,0,0:0:0:0:
320,192,9183,128,0,9336:0:0:0:0:
192,192,9183,1,0,0:0:0:0:
64,192,9336,128,0,10254:0:0:0:0:
192,192,9336,1,0,0:0:0:0:
192,192,9642,128,0,9872:0:0:0:0:
448,192,9642,1,0,0:0:0:0:
320,192,9795,1,0,0:0:0:0:
448,192,9872,1,0,0:0:0:0:
320,192,9948,128,0,10254:0:0:0:0:
192,192,9948,1,0,0:0:0:0:
448,192,10101,1,0,0:0:0:0:
192,192,10254,128,0,10866:0:0:0:0:
448,192,10254,128,0,10790:0:0:0:0:
320,192,10407,128,0,10866:0:0:0:0:
64,192,10560,1,0,0:0:0:0:
448,192,10866,1,0,0:0:0:0:
64,192,10866,128,0,12091:0:0:0:0:
192,192,11173,128,0,11479:0:0:0:0:
320,192,11173,1,0,0:0:0:0:
320,192,11326,128,0,11402:0:0:0:0:
448,192,11479,128,0,11708:0:0:0:0:
320,192,11479,1,0,0:0:0:0:
192,192,11555,128,0,11785:0:0:0:0:
320,192,11632,128,0,11708:0:0:0:0:
448,192,11785,128,0,12014:0:0:0:0:
320,192,11785,128,0,12091:0:0:0:0:
192,192,12091,128,0,12397:0:0:0:0:
448,192,12091,128,0,12321:0:0:0:0:
64,192,12244,128,0,12474:0:0:0:0:
320,192,12397,128,0,12550:0:0:0:0:
448,192,12397,1,0,0:0:0:0:
448,192,12550,128,0,12856:0:0:0:0:
64,192,12550,128,0,12933:0:0:0:0:
192,192,12856,128,0,13009:0:0:0:0:
320,192,12856,1,0,0:0:0:0:
448,192,13009,128,0,13622:0:0:0:0:
320,192,13009,128,0,13315:0:0:0:0:
192,192,13315,128,0,13622:0:0:0:0:
64,192,13315,128,0,13468:0:0:0:0:
320,192,13468,1,0,0:0:0:0:
64,192,13622,128,0,13724:0:0:0:0:
320,192,13622,128,0,13724:0:0:0:0:
64,192,13775,128,0,13928:0:0:0:0:
320,192,13775,128,0,13928:0:0:0:0:
192,192,13928,128,0,14540:0:0:0:0:
448,192,13928,128,0,14463:0:0:0:0:
320,192,14081,1,0,0:0:0:0:
64,192,14234,128,0,14336:0:0:0:0:
64,192,14387,128,0,14540:0:0:0:0:
448,192,14540,128,0,15764:0:0:0:0:
320,192,14540,128,0,14846:0:0:0:0:
192,192,14693,128,0,14999:0:0:0:0:
64,192,14846,128,0,14999:0:0:0:0:
320,192,14999,128,0,15305:0:0:0:0:
192,192,15152,1,0,0:0:0:0:
64,192,15152,1,0,0:0:0:0:
64,192,15305,128,0,15764:0:0:0:0:
192,192,15305,128,0,15458:0:0:0:0:
320,192,15458,1,0,0:0:0:0:
192,192,15535,1,0,0:0:0:0:
320,192,15611,128,0,15688:0:0:0:0:
192,192,15764,128,0,16224:0:0:0:0:
320,192,15764,128,0,16071:0:0:0:0:
448,192,16071,128,0,16147:0:0:0:0:
64,192,16071,1,0,0:0:0:0:
320,192,16147,128,0,16377:0:0:0:0:
448,192,16224,128,0,16377:0:0:0:0:
64,192,16377,128,0,16912:0:0:0:0:
192,192,16377,128,0,16606:0:0:0:0:
320,192,16530,128,0,16683:0:0:0:0:
448,192,16683,128,0,16989:0:0:0:0:
192,192,16683,1,0,0:0:0:0:
320,192,16759,1,0,0:0:0:0:
192,192,16836,1,0,0:0:0:0:
320,192,16989,128,0,17448:0:0:0:0:
64,192,16989,128,0,17295:0:0:0:0:
192,192,17142,128,0,17295:0:0:0:0:
448,192,17295,128,0,17601:0:0:0:0:
192,192,17448,128,0,17754:0:0:0:0:
64,192,17448,128,0,17601:0:0:0:0:
320,192,17754,128,0,17907:0:0:0:0:
64,192,17754,128,0,17907:0:0:0:0:
448,192,17907,128,0,18519:0:0:0:0:
192,192,17907,128,0,18213:0:0:0:0:
64,192,18213,128,0,18826:0:0:0:0:
320,192,18213,128,0,18315:0:0:0:0:
192,192,18366,1,0,0:0:0:0:
320,192,18519,128,0,18622:0:0:0:0:
320,192,18673,128,0,18979:0:0:0:0:
192,192,18826,128,0,19438:0:0:0:0:
448,192,18826,128,0,19132:0:0:0:0:
64,192,18979,128,0,19285:0:0:0:0:
320,192,19132,128,0,19438:0:0:0:0:
448,192,19285,1,0,0:0:0:0:
448,192,19438,1,0,0:0:0:0:
64,192,19438,128,0,19744:0:0:0:0:
192,192,19591,128,0,19744:0:0:0:0:
320,192,19591,1,0,0:0:0:0:
320,192,19744,128,0,20050:0:0:0:0:
448,192,19744,1,0,0:0:0:0:
64,192,19897,128,0,19974:0:0:0:0:
448,192,19974,128,0,20050:0:0:0:0:
64,192,20050,128,0,20356:0:0:0:0:
192,192,20050,128,0,20305:0:0:0:0:
320,192,20203,128,0,20356:0:0:0:0:
448,192,20356,128,0,20662:0:0:0:0:
192,192,20356,128,0,20458:0:0:0:0:
192,192,20509,128,0,20662:0:0:0:0:
64,192,20509,1,0,0:0:0:0:
64,192,20662,128,0,21275:0:0:0:0:
320,192,20662,128,0,20815:0:0:0:0:
448,192,20968,128,0,21275:0:0:0:0:
192,192,20968,1,0,0:0:0:0:
192,192,21122,1,0,0:0:0:0:
320,192,21122,128,0,21275:0:0:0:0:
192,192,21275,128,0,21581:0:0:0:0:
448,192,21351,1,0,0:0:0:0:
320,192,21428,128,0,21581:0:0:0:0:
64,192,21581,128,0,21887:0:0:0:0:
448,192,21581,128,0,21734:0:0:0:0:
192,192,21657,1,0,0:0:0:0:
320,192,21734,1,0,0:0:0:0:
192,192,21887,128,0,22346:0:0:0:0:
448,192,21887,128,0,22269:0:0:0:0:
320,192,22040,128,0,22269:0:0:0:0:
64,192,22193,128,0,22346:0:0:0:0:
448,192,22346,128,0,22729:0:0:0:0:
320,192,22346,128,0,22805:0:0:0:0:
192,192,22652,128,0,22805:0:0:0:0:
64,192,22805,128,0,23724:0:0:0:0:
448,192,22805,128,0,23341:0:0:0:0:
320,192,23111,128,0,23417:0:0:0:0:
448,192,23417,128,0,23519:0:0:0:0:
192,192,23417,1,0,0:0:0:0:
448,192,23571,128,0,23724:0:0:0:0:
192,192,23571,1,0,0:0:0:0:
192,192,23724,128,0,24030:0:0:0:0:
320,192,23724,128,0,24336:0:0:0:0:
448,192,23877,128,0,24030:0:0:0:0:
64,192,24030,128,0,24132:0:0:0:0:
64,192,24183,128,0,24336:0:0:0:0:
448,192,24336,128,0,24872:0:0:0:0:
192,192,24336,128,0,24642:0:0:0:0:
320,192,24489,128,0,24795:0:0:0:0:
64,192,24642,128,0,25101:0:0:0:0:
192,192,24795,128,0,25101:0:0:0:0:
448,192,24948,1,0,0:0:0:0:
320,192,24948,128,0,25101:0:0:0:0:
448,192,25101,128,0,25560:0:0:0:0:
192,192,25254,128,0,25407:0:0:0:0:
64,192,25331,1,0,0:0:0:0:
320,192,25407,128,0,25560:0:0:0:0:
64,192,25560,128,0,26173:0:0:0:0:
192,192,25560,128,0,25713:0:0:0:0:
448,192,25866,128,0,25943:0:0:0:0:
320,192,25866,1,0,0:0:0:0:
448,192,26019,128,0,26173:0:0:0:0:
320,192,26019,1,0,0:0:0:0:
320,192,26173,128,0,26785:0:0:0:0:
192,192,26173,128,0,26326:0:0:0:0:
448,192,26326,128,0,26479:0:0:0:0:
192,192,26479,128,0,26785:0:0:0:0:
64,192,26555,1,0,0:0:0:0:
448,192,26632,1,0,0:0:0:0:
448,192,26785,128,0,27014:0:0:0:0:
64,192,26785,128,0,27091:0:0:0:0:
192,192,26938,128,0,27091:0:0:0:0:
448,192,27091,128,0,27244:0:0:0:0:
320,192,27091,128,0,27167:0:0:0:0:
320,192,27244,128,0,27474:0:0:0:0:
192,192,27244,128,0,27550:0:0:0:0:
320,192,27550,128,0,27703:0:0:0:0:
448,192,27550,128,0,27703:0:0:0:0:
64,192,27703,128,0,28622:0:0:0:0:
192,192,27703,128,0,28545:0:0:0:0:
320,192,28009,128,0,28315:0:0:0:0:
448,192,28009,128,0,28264:0:0:0:0:
448,192,28315,128,0,28417:0:0:0:0:
448,192,28468,128,0,28622:0:0:0:0:
320,192,28622,128,0,29234:0:0:0:0:
192,192,28622,128,0,28775:0:0:0:0:
64,192,28775,128,0,28928:0:0:0:0:
192,192,28928,128,0,29234:0:0:0:0:
448,192,29081,1,0,0:0:0:0:
64,192,29234,1,0,0:0:0:0:
448,192,29234,128,0,29693:0:0:0:0:
64,192,29387,5,0,0:0:0:0:
320,192,29387,128,0,29540:0:0:0:0:
192,192,29540,128,0,29999:0:0:0:0:
320,192,29693,128,0,29769:0:0:0:0:
64,192,29769,1,0,0:0:0:0:
448,192,29846,128,0,30305:0:0:0:0:
320,192,29846,128,0,29948:0:0:0:0:
64,192,29999,1,0,0:0:0:0:
320,192,29999,1,0,0:0:0:0:
64,192,30152,128,0,30382:0:0:0:0:
192,192,30152,128,0,30305:0:0:0:0:
320,192,30305,128,0,30382:0:0:0:0:
448,192,30458,128,0,30764:0:0:0:0:
320,192,30458,128,0,30611:0:0:0:0:
192,192,30458,128,0,30535:0:0:0:0:
192,192,30764,128,0,30841:0:0:0:0:
64,192,30917,128,0,31377:0:0:0:0:
320,192,30917,128,0,31300:0:0:0:0:
448,192,30917,128,0,31300:0:0:0:0:
192,192,31377,128,0,31683:0:0:0:0:
448,192,31377,128,0,31606:0:0:0:0:
320,192,31377,128,0,31530:0:0:0:0:
64,192,31683,128,0,31989:0:0:0:0:
320,192,31683,128,0,31759:0:0:0:0:
448,192,31683,128,0,31912:0:0:0:0:
192,192,31836,128,0,31874:0:0:0:0:
320,192,31912,128,0,31951:0:0:0:0:
192,192,31989,128,0,32027:0:0:0:0:
448,192,31989,128,0,32065:0:0:0:0:
448,192,32142,128,0,32295:0:0:0:0:
320,192,32142,128,0,32218:0:0:0:0:
64,192,32142,1,0,0:0:0:0:
64,192,32295,128,0,32372:0:0:0:0:
192,192,32295,128,0,32372:0:0:0:0:
64,192,32448,128,0,32678:0:0:0:0:
192,192,32448,128,0,32601:0:0:0:0:
320,192,32601,128,0,32831:0:0:0:0:
448,192,32601,128,0,32907:0:0:0:0:
192,192,32754,128,0,32907:0:0:0:0:
64,192,32907,128,0,33213:0:0:0:0:
320,192,32907,128,0,33060:0:0:0:0:
192,192,33213,128,0,33315:0:0:0:0:
448,192,33213,1,0,0:0:0:0:
320,192,33366,128,0,33468:0:0:0:0:
448,192,33366,1,0,0:0:0:0:
64,192,33519,128,0,33724:0:0:0:0:
448,192,33519,128,0,33596:0:0:0:0:
192,192,33673,128,0,33928:0:0:0:0:
320,192,33673,128,0,33749:0:0:0:0:
64,192,33826,128,0,33979:0:0:0:0:
448,192,33826,128,0,33902:0:0:0:0:
448,192,34132,128,0,34744:0:0:0:0:
192,192,34132,128,0,34208:0:0:0:0:
192,192,34285,128,0,34591:0:0:0:0:
320,192,34438,128,0,34514:0:0:0:0:
64,192,34438,1,0,0:0:0:0:
320,192,34591,128,0,34744:0:0:0:0:
64,192,34744,128,0,35254:0:0:0:0:
192,192,34744,1,0,0:0:0:0:
192,192,34846,128,0,35050:0:0:0:0:
448,192,34948,128,0,35254:0:0:0:0:
320,192,35050,128,0,35152:0:0:0:0:
192,192,35152,128,0,35356:0:0:0:0:
320,192,35254,128,0,35356:0:0:0:0:
64,192,35356,128,0,35509:0:0:0:0:
448,192,35356,128,0,35433:0:0:0:0:
448,192,35509,128,0,35586:0:0:0:0:
64,192,35815,128,0,36198:0:0:0:0:
192,192,35815,128,0,36198:0:0:0:0:
448,192,35815,128,0,36275:0:0:0:0:
320,192,36122,1,0,0:0:0:0:
192,192,36275,128,0,36377:0:0:0:0:
320,192,36275,128,0,36530:0:0:0:0:
64,192,36275,128,0,36479:0:0:0:0:
64,192,36581,128,0,36734:0:0:0:0:
320,192,36581,128,0,36657:0:0:0:0:
448,192,36581,128,0,36683:0:0:0:0:
320,192,36734,128,0,36887:0:0:0:0:
192,192,37040,128,0,37116:0:0:0:0:
64,192,37040,128,0,37499:0:0:0:0:
448,192,37116,1,0,0:0:0:0:
320,192,37193,128,0,37269:0:0:0:0:
320,192,37346,128,0,37423:0:0:0:0:
320,192,37499,128,0,37576:0:0:0:0:
448,192,37499,128,0,37805:0:0:0:0:
192,192,37499,128,0,37652:0:0:0:0:
64,192,37652,128,0,37754:0:0:0:0:
192,192,37805,1,0,0:0:0:0:
64,192,37805,1,0,0:0:0:0:
320,192,37856,128,0,37958:0:0:0:0:
192,192,37958,1,0,0:0:0:0:
64,192,37958,1,0,0:0:0:0:
320,192,38009,128,0,38111:0:0:0:0:
192,192,38111,1,0,0:0:0:0:
64,192,38111,1,0,0:0:0:0:
320,192,38162,128,0,38264:0:0:0:0:
192,192,38264,1,0,0:0:0:0:
64,192,38264,1,0,0:0:0:0:
320,192,38315,128,0,38417:0:0:0:0:
64,192,38417,1,0,0:0:0:0:
192,192,38417,1,0,0:0:0:0:
448,192,38468,128,0,38724:0:0:0:0:
320,192,38468,128,0,38673:0:0:0:0:
192,192,38724,128,0,38800:0:0:0:0:
64,192,38724,1,0,0:0:0:0:
320,192,38800,128,0,38877:0:0:0:0:
192,192,38877,128,0,38953:0:0:0:0:
64,192,38877,1,0,0:0:0:0:
320,192,38953,128,0,39030:0:0:0:0:
448,192,39030,128,0,39336:0:0:0:0:
192,192,39030,128,0,39106:0:0:0:0:
192,192,39183,128,0,39336:0:0:0:0:
64,192,39336,128,0,39642:0:0:0:0:
320,192,39336,128,0,39412:0:0:0:0:
320,192,39489,128,0,39642:0:0:0:0:
192,192,39642,128,0,39948:0:0:0:0:
448,192,39642,128,0,39897:0:0:0:0:
320,192,39795,128,0,39897:0:0:0:0:
320,192,39948,128,0,40254:0:0:0:0:
64,192,39948,128,0,40203:0:0:0:0:
448,192,40101,128,0,40203:0:0:0:0:
192,192,40254,128,0,41479:0:0:0:0:
64,192,40254,128,0,40407:0:0:0:0:
320,192,40407,1,0,0:0:0:0:
320,192,40560,1,0,0:0:0:0:
448,192,40560,1,0,0:0:0:0:
320,192,40713,128,0,40866:0:0:0:0:
448,192,40764,128,0,41173:0:0:0:0:
64,192,40866,1,0,0:0:0:0:
320,192,41019,1,0,0:0:0:0:
64,192,41173,128,0,41326:0:0:0:0:
320,192,41173,1,0,0:0:0:0:
448,192,41326,1,0,0:0:0:0:
64,192,41479,128,0,41632:0:0:0:0:
320,192,41479,128,0,42703:0:0:0:0:
192,192,41632,1,0,0:0:0:0:
192,192,41785,1,0,0:0:0:0:
64,192,41785,1,0,0:0:0:0:
448,192,41938,128,0,42040:0:0:0:0:
64,192,41989,128,0,42397:0:0:0:0:
448,192,42091,1,0,0:0:0:0:
192,192,42244,1,0,0:0:0:0:
448,192,42397,128,0,42703:0:0:0:0:
192,192,42397,1,0,0:0:0:0:
64,192,42550,128,0,42703:0:0:0:0:
192,192,42550,1,0,0:0:0:0:
192,192,42703,128,0,43009:0:0:0:0:
320,192,42856,128,0,43009:0:0:0:0:
448,192,43009,128,0,43239:0:0:0:0:
64,192,43009,1,0,0:0:0:0:
192,192,43162,128,0,43315:0:0:0:0:
320,192,43315,128,0,43519:0:0:0:0:
64,192,43366,128,0,43468:0:0:0:0:
448,192,43468,128,0,43673:0:0:0:0:
192,192,43519,128,0,43622:0:0:0:0:
320,192,43622,128,0,43826:0:0:0:0:
64,192,43673,128,0,43775:0:0:0:0:
192,192,43775,128,0,43877:0:0:0:0:
64,192,43826,128,0,43979:0:0:0:0:
448,192,43928,128,0,44004:0:0:0:0:
320,192,43928,1,0,0:0:0:0:
448,192,44081,128,0,44234:0:0:0:0:
320,192,44081,1,0,0:0:0:0:
192,192,44234,128,0,44310:0:0:0:0:
64,192,44234,1,0,0:0:0:0:
192,192,44387,128,0,44540:0:0:0:0:
320,192,44387,1,0,0:0:0:0:
64,192,44540,1,0,0:0:0:0:
448,192,44540,128,0,44642:0:0:0:0:
320,192,44642,1,0,0:0:0:0:
192,192,44642,128,0,44744:0:0:0:0:
64,192,44744,1,0,0:0:0:0:
448,192,44744,128,0,44846:0:0:0:0:
320,192,44846,128,0,44948:0:0:0:0:
192,192,44846,1,0,0:0:0:0:
64,192,44948,128,0,45050:0:0:0:0:
448,192,44948,1,0,0:0:0:0:
192,192,45050,1,0,0:0:0:0:
320,192,45050,128,0,45152:0:0:0:0:
448,192,45152,128,0,46377:0:0:0:0:
64,192,45152,128,0,45305:0:0:0:0:
192,192,45305,128,0,45458:0:0:0:0:
320,192,45458,1,0,0:0:0:0:
64,192,45458,1,0,0:0:0:0:
320,192,45611,128,0,45764:0:0:0:0:
192,192,45662,128,0,46377:0:0:0:0:
64,192,45764,1,0,0:0:0:0:
320,192,45917,128,0,46071:0:0:0:0:
64,192,46071,128,0,46300:0:0:0:0:
320,192,46224,128,0,46300:0:0:0:0:
320,192,46377,128,0,47525:0:0:0:0:
64,192,46377,128,0,46530:0:0:0:0:
192,192,46530,128,0,46683:0:0:0:0:
448,192,46683,1,0,0:0:0:0:
64,192,46683,1,0,0:0:0:0:
448,192,46836,128,0,47525:0:0:0:0:
64,192,46836,128,0,46938:0:0:0:0:
64,192,46989,128,0,47091:0:0:0:0:
192,192,46989,1,0,0:0:0:0:
64,192,47142,128,0,47244:0:0:0:0:
192,192,47142,1,0,0:0:0:0:
192,192,47295,128,0,47525:0:0:0:0:
64,192,47448,128,0,47601:0:0:0:0:
320,192,47601,1,0,0:0:0:0:
448,192,47601,1,0,0:0:0:0:
192,192,47652,128,0,47754:0:0:0:0:
320,192,47754,1,0,0:0:0:0:
448,192,47754,1,0,0:0:0:0:
192,192,47805,128,0,47907:0:0:0:0:
320,192,47907,1,0,0:0:0:0:
448,192,47907,1,0,0:0:0:0:
192,192,47958,128,0,48060:0:0:0:0:
320,192,48060,1,0,0:0:0:0:
448,192,48060,1,0,0:0:0:0:
192,192,48111,128,0,48213:0:0:0:0:
320,192,48213,128,0,48315:0:0:0:0:
448,192,48213,128,0,48417:0:0:0:0:
64,192,48366,1,0,0:0:0:0:
320,192,48519,1,0,0:0:0:0:
448,192,48519,128,0,48596:0:0:0:0:
64,192,48596,1,0,0:0:0:0:
448,192,48673,128,0,48749:0:0:0:0:
192,192,48673,1,0,0:0:0:0:
320,192,48749,1,0,0:0:0:0:
64,192,48826,128,0,49361:0:0:0:0:
192,192,48826,128,0,48902:0:0:0:0:
192,192,48979,128,0,49132:0:0:0:0:
448,192,49132,128,0,49361:0:0:0:0:
320,192,49132,128,0,49208:0:0:0:0:
320,192,49285,128,0,49361:0:0:0:0:
64,192,49438,128,0,49667:0:0:0:0:
448,192,49438,128,0,49667:0:0:0:0:
192,192,49438,128,0,49514:0:0:0:0:
320,192,49438,128,0,49514:0:0:0:0:
320,192,49744,128,0,50050:0:0:0:0:
64,192,49744,128,0,49821:0:0:0:0:
192,192,49744,128,0,49821:0:0:0:0:
64,192,50050,5,0,0:0:0:0:
192,192,50050,128,0,50280:0:0:0:0:
448,192,50050,128,0,50203:0:0:0:0:
320,192,50203,128,0,50356:0:0:0:0:
192,192,50356,1,0,0:0:0:0:
64,192,50356,128,0,50433:0:0:0:0:
448,192,50356,128,0,50433:0:0:0:0:
448,192,50509,1,0,0:0:0:0:
192,192,50509,1,0,0:0:0:0:
320,192,50662,128,0,50739:0:0:0:0:
64,192,50662,128,0,50739:0:0:0:0:
320,192,50815,1,0,0:0:0:0:
192,192,50892,1,0,0:0:0:0:
64,192,50968,1,0,0:0:0:0:
320,192,50968,1,0,0:0:0:0:
448,192,50968,1,0,0:0:0:0:
192,192,51122,128,0,51198:0:0:0:0:
320,192,51122,128,0,51198:0:0:0:0:
64,192,51198,1,0,0:0:0:0:
192,192,51275,1,0,0:0:0:0:
448,192,51275,1,0,0:0:0:0:
64,192,51428,128,0,51734:0:0:0:0:
320,192,51428,128,0,51504:0:0:0:0:
448,192,51581,128,0,51810:0:0:0:0:
192,192,51581,128,0,51657:0:0:0:0:
320,192,51581,1,0,0:0:0:0:
320,192,51734,128,0,51887:0:0:0:0:
448,192,51887,128,0,51963:0:0:0:0:
64,192,51887,128,0,52116:0:0:0:0:
320,192,52040,128,0,52116:0:0:0:0:
192,192,52116,128,0,52346:0:0:0:0:
64,192,52193,128,0,52423:0:0:0:0:
320,192,52193,128,0,52269:0:0:0:0:
448,192,52193,128,0,52346:0:0:0:0:
320,192,52346,1,0,0:0:0:0:
192,192,52499,128,0,52576:0:0:0:0:
448,192,52499,128,0,52805:0:0:0:0:
320,192,52499,128,0,52576:0:0:0:0:
320,192,52652,128,0,52805:0:0:0:0:
64,192,52652,128,0,52729:0:0:0:0:
192,192,52805,128,0,52882:0:0:0:0:
320,192,52882,128,0,52958:0:0:0:0:
64,192,52958,128,0,53035:0:0:0:0:
448,192,52958,1,0,0:0:0:0:
192,192,53111,128,0,53226:0:0:0:0:
320,192,53150,128,0,53188:0:0:0:0:
320,192,53264,128,0,53379:0:0:0:0:
192,192,53303,128,0,53341:0:0:0:0:
64,192,53417,1,0,0:0:0:0:
448,192,53417,1,0,0:0:0:0:
192,192,53417,1,0,0:0:0:0:
192,192,53571,128,0,53685:0:0:0:0:
320,192,53609,128,0,53647:0:0:0:0:
64,192,53724,1,0,0:0:0:0:
448,192,53724,1,0,0:0:0:0:
320,192,53877,128,0,54106:0:0:0:0:
192,192,53953,128,0,54183:0:0:0:0:
64,192,54030,128,0,54259:0:0:0:0:
448,192,54183,128,0,54412:0:0:0:0:
320,192,54183,128,0,54221:0:0:0:0:
192,192,54336,128,0,54374:0:0:0:0:
320,192,54336,128,0,54412:0:0:0:0:
448,192,54489,128,0,54795:0:0:0:0:
64,192,54489,128,0,54527:0:0:0:0:
192,192,54489,128,0,54565:0:0:0:0:
320,192,54642,128,0,54833:0:0:0:0:
192,192,54642,128,0,54986:0:0:0:0:
64,192,54642,128,0,55139:0:0:0:0:
448,192,54948,1,0,0:0:0:0:
320,192,54948,128,0,55101:0:0:0:0:
448,192,55101,1,0,0:0:0:0:
192,192,55101,128,0,55254:0:0:0:0:
320,192,55178,1,0,0:0:0:0:
64,192,55254,128,0,55407:0:0:0:0:
448,192,55254,128,0,55331:0:0:0:0:
448,192,55407,1,0,0:0:0:0:
320,192,55446,1,0,0:0:0:0:
192,192,55484,1,0,0:0:0:0:
64,192,55522,1,0,0:0:0:0:
448,192,55560,1,0,0:0:0:0:
320,192,55560,128,0,55637:0:0:0:0:
320,192,55713,1,0,0:0:0:0:
192,192,55713,128,0,55790:0:0:0:0:
64,192,55866,1,0,0:0:0:0:
320,192,55866,1,0,0:0:0:0:
448,192,55866,1,0,0:0:0:0:
448,192,56019,128,0,56096:0:0:0:0:
192,192,56019,128,0,56211:0:0:0:0:
320,192,56096,128,0,56211:0:0:0:0:
64,192,56173,128,0,56211:0:0:0:0:
448,192,56173,128,0,56211:0:0:0:0:
320,192,56326,128,0,56632:0:0:0:0:
64,192,56479,128,0,56785:0:0:0:0:
192,192,56479,1,0,0:0:0:0:
448,192,56479,1,0,0:0:0:0:
448,192,56632,128,0,56938:0:0:0:0:
192,192,56632,1,0,0:0:0:0:
192,192,56785,128,0,57014:0:0:0:0:
320,192,56785,128,0,56861:0:0:0:0:
64,192,56938,128,0,57244:0:0:0:0:
320,192,56938,128,0,57014:0:0:0:0:
448,192,57091,128,0,57397:0:0:0:0:
192,192,57091,128,0,57167:0:0:0:0:
320,192,57091,1,0,0:0:0:0:
320,192,57244,128,0,57397:0:0:0:0:
192,192,57244,128,0,57321:0:0:0:0:
64,192,57397,1,0,0:0:0:0:
192,192,57474,1,0,0:0:0:0:
64,192,57550,128,0,57703:0:0:0:0:
320,192,57550,128,0,57780:0:0:0:0:
192,192,57703,128,0,57933:0:0:0:0:
448,192,57703,128,0,57856:0:0:0:0:
64,192,57856,128,0,58086:0:0:0:0:
320,192,57856,128,0,57933:0:0:0:0:
320,192,58009,128,0,58086:0:0:0:0:
448,192,58009,128,0,58086:0:0:0:0:
192,192,58086,128,0,58162:0:0:0:0:
320,192,58162,128,0,58239:0:0:0:0:
448,192,58162,128,0,58239:0:0:0:0:
64,192,58239,128,0,58315:0:0:0:0:
192,192,58315,128,0,58468:0:0:0:0:
448,192,58315,128,0,58468:0:0:0:0:
320,192,58315,1,0,0:0:0:0:
320,192,58468,128,0,58622:0:0:0:0:
64,192,58468,1,0,0:0:0:0:
448,192,58545,1,0,0:0:0:0:
192,192,58622,128,0,58698:0:0:0:0:
64,192,58622,128,0,58698:0:0:0:0:
192,192,58775,128,0,58851:0:0:0:0:
64,192,58775,128,0,58851:0:0:0:0:
448,192,58775,128,0,59081:0:0:0:0:
320,192,58851,128,0,59004:0:0:0:0:
192,192,58928,128,0,59387:0:0:0:0:
64,192,59081,128,0,59234:0:0:0:0:
320,192,59081,1,0,0:0:0:0:
320,192,59234,128,0,59310:0:0:0:0:
448,192,59234,128,0,59310:0:0:0:0:
64,192,59387,1,0,0:0:0:0:
448,192,59387,128,0,59540:0:0:0:0:
192,192,59540,128,0,59616:0:0:0:0:
64,192,59540,128,0,59616:0:0:0:0:
320,192,59540,128,0,59808:0:0:0:0:
192,192,59693,128,0,59769:0:0:0:0:
64,192,59693,128,0,59769:0:0:0:0:
64,192,59846,1,0,0:0:0:0:
448,192,59846,128,0,59999:0:0:0:0:
192,192,59846,128,0,60152:0:0:0:0:
320,192,59999,128,0,60152:0:0:0:0:
448,192,60152,128,0,60305:0:0:0:0:
64,192,60152,128,0,60611:0:0:0:0:
192,192,60305,128,0,60458:0:0:0:0:
448,192,60458,128,0,60688:0:0:0:0:
320,192,60458,1,0,0:0:0:0:
192,192,60535,1,0,0:0:0:0:
320,192,60611,1,0,0:0:0:0:
64,192,60688,1,0,0:0:0:0:
320,192,60764,1,0,0:0:0:0:
192,192,60764,128,0,61071:0:0:0:0:
448,192,60764,128,0,61071:0:0:0:0:
64,192,60917,128,0,60994:0:0:0:0:
320,192,61071,1,0,0:0:0:0:
64,192,61071,128,0,61147:0:0:0:0:
448,192,61224,128,0,61377:0:0:0:0:
320,192,61224,128,0,61530:0:0:0:0:
192,192,61377,128,0,61683:0:0:0:0:
64,192,61377,1,0,0:0:0:0:
64,192,61530,128,0,61683:0:0:0:0:
448,192,61530,128,0,61836:0:0:0:0:
320,192,61683,128,0,61759:0:0:0:0:
192,192,61759,1,0,0:0:0:0:
64,192,61836,128,0,62065:0:0:0:0:
320,192,61836,1,0,0:0:0:0:
448,192,61989,128,0,62218:0:0:0:0:
320,192,61989,128,0,62218:0:0:0:0:
192,192,61989,128,0,62295:0:0:0:0:
64,192,62142,128,0,62218:0:0:0:0:
448,192,62295,1,0,0:0:0:0:
64,192,62295,1,0,0:0:0:0:
320,192,62295,128,0,62601:0:0:0:0:
448,192,62448,128,0,62678:0:0:0:0:
64,192,62448,128,0,62754:0:0:0:0:
192,192,62601,128,0,62678:0:0:0:0:
320,192,62678,128,0,62754:0:0:0:0:
448,192,62754,128,0,62831:0:0:0:0:
448,192,62907,128,0,62984:0:0:0:0:
192,192,62907,128,0,63022:0:0:0:0:
64,192,62946,128,0,62984:0:0:0:0:
448,192,63060,128,0,63137:0:0:0:0:
64,192,63060,128,0,63175:0:0:0:0:
192,192,63099,128,0,63137:0:0:0:0:
320,192,63213,128,0,63290:0:0:0:0:
192,192,63213,1,0,0:0:0:0:
448,192,63213,1,0,0:0:0:0:
192,192,63366,128,0,63443:0:0:0:0:
448,192,63366,128,0,63481:0:0:0:0:
320,192,63405,128,0,63443:0:0:0:0:
64,192,63443,1,0,0:0:0:0:
192,192,63519,1,0,0:0:0:0:
320,192,63519,128,0,63979:0:0:0:0:
192,192,63673,1,0,0:0:0:0:
64,192,63673,128,0,63902:0:0:0:0:
448,192,63826,1,0,0:0:0:0:
192,192,63826,128,0,64132:0:0:0:0:
64,192,63979,1,0,0:0:0:0:
448,192,63979,128,0,64055:0:0:0:0:
448,192,64132,128,0,64667:0:0:0:0:
64,192,64132,1,0,0:0:0:0:
64,192,64234,1,0,0:0:0:0:
320,192,64285,128,0,64591:0:0:0:0:
64,192,64336,1,0,0:0:0:0:
64,192,64438,128,0,64667:0:0:0:0:
192,192,64438,128,0,64821:0:0:0:0:
320,192,64744,128,0,64897:0:0:0:0:
64,192,64744,128,0,64974:0:0:0:0:
448,192,64744,128,0,64974:0:0:0:0:
192,192,64897,128,0,64974:0:0:0:0:
320,192,64974,128,0,65050:0:0:0:0:
192,192,65050,128,0,65280:0:0:0:0:
448,192,65050,128,0,65433:0:0:0:0:
64,192,65050,128,0,65203:0:0:0:0:
320,192,65203,1,0,0:0:0:0:
192,192,65356,1,0,0:0:0:0:
64,192,65356,128,0,65433:0:0:0:0:
320,192,65509,128,0,65586:0:0:0:0:
448,192,65509,128,0,65739:0:0:0:0:
64,192,65662,1,0,0:0:0:0:
320,192,65662,1,0,0:0:0:0:
192,192,65662,1,0,0:0:0:0:
320,192,65815,128,0,65892:0:0:0:0:
192,192,65815,1,0,0:0:0:0:
64,192,65815,128,0,65892:0:0:0:0:
64,192,65968,1,0,0:0:0:0:
192,192,65968,1,0,0:0:0:0:
448,192,66122,128,0,66198:0:0:0:0:
64,192,66122,128,0,66504:0:0:0:0:
320,192,66275,128,0,66351:0:0:0:0:
448,192,66275,128,0,66351:0:0:0:0:
192,192,66428,128,0,66504:0:0:0:0:
320,192,66428,128,0,66504:0:0:0:0:
448,192,66428,128,0,66887:0:0:0:0:
64,192,66581,128,0,66734:0:0:0:0:
192,192,66581,128,0,66810:0:0:0:0:
320,192,66734,128,0,66963:0:0:0:0:
64,192,66887,128,0,66963:0:0:0:0:
192,192,66887,128,0,67193:0:0:0:0:
448,192,67040,128,0,67116:0:0:0:0:
320,192,67040,128,0,67193:0:0:0:0:
448,192,67193,1,0,0:0:0:0:
64,192,67193,1,0,0:0:0:0:
64,192,67346,128,0,67576:0:0:0:0:
320,192,67346,128,0,67423:0:0:0:0:
192,192,67499,128,0,67729:0:0:0:0:
448,192,67499,128,0,67576:0:0:0:0:
320,192,67652,128,0,67729:0:0:0:0:
64,192,67652,128,0,68035:0:0:0:0:
192,192,67805,128,0,67882:0:0:0:0:
448,192,67843,128,0,67882:0:0:0:0:
192,192,67958,128,0,68035:0:0:0:0:
448,192,67997,128,0,68035:0:0:0:0:
64,192,68111,1,0,0:0:0:0:
192,192,68111,1,0,0:0:0:0:
320,192,68111,1,0,0:0:0:0:
320,192,68264,128,0,68341:0:0:0:0:
448,192,68264,128,0,68417:0:0:0:0:
192,192,68341,128,0,68417:0:0:0:0:
320,192,68417,1,0,0:0:0:0:
64,192,68417,1,0,0:0:0:0:
192,192,68571,128,0,69183:0:0:0:0:
448,192,68571,128,0,68724:0:0:0:0:
320,192,68724,128,0,68800:0:0:0:0:
64,192,68724,128,0,68877:0:0:0:0:
448,192,68877,128,0,68953:0:0:0:0:
320,192,68877,128,0,69030:0:0:0:0:
448,192,69030,128,0,69106:0:0:0:0:
64,192,69030,128,0,69183:0:0:0:0:
320,192,69183,1,0,0:0:0:0:
448,192,69183,1,0,0:0:0:0:
64,192,69259,1,0,0:0:0:0:
192,192,69259,1,0,0:0:0:0:
320,192,69336,128,0,69642:0:0:0:0:
448,192,69336,128,0,70025:0:0:0:0:
64,192,69642,128,0,69821:0:0:0:0:
192,192,69667,128,0,69795:0:0:0:0:
320,192,69693,128,0,69769:0:0:0:0:
320,192,69846,128,0,69999:0:0:0:0:
192,192,69872,128,0,69974:0:0:0:0:
64,192,69897,128,0,70178:0:0:0:0:
192,192,70050,128,0,70178:0:0:0:0:
320,192,70076,128,0,70458:0:0:0:0:
448,192,70101,128,0,70178:0:0:0:0:
192,192,70254,128,0,70356:0:0:0:0:
448,192,70254,128,0,70331:0:0:0:0:
64,192,70254,128,0,70382:0:0:0:0:
192,192,70458,128,0,70662:0:0:0:0:
448,192,70458,128,0,70713:0:0:0:0:
64,192,70560,128,0,70637:0:0:0:0:
320,192,70560,128,0,70688:0:0:0:0:
320,192,70764,128,0,71045:0:0:0:0:
64,192,70764,128,0,71096:0:0:0:0:
448,192,70866,128,0,71019:0:0:0:0:
192,192,70866,128,0,71071:0:0:0:0:
448,192,71096,128,0,71249:0:0:0:0:
320,192,71122,128,0,71198:0:0:0:0:
64,192,71173,128,0,71326:0:0:0:0:
192,192,71198,128,0,71275:0:0:0:0:
320,192,71326,128,0,71402:0:0:0:0:
192,192,71351,128,0,71555:0:0:0:0:
448,192,71479,128,0,72474:0:0:0:0:
64,192,71479,128,0,71861:0:0:0:0:
320,192,71479,128,0,71632:0:0:0:0:
192,192,71785,128,0,72206:0:0:0:0:
320,192,71785,128,0,71938:0:0:0:0:
64,192,72091,128,0,72282:0:0:0:0:
320,192,72129,128,0,72321:0:0:0:0:
64,192,72397,128,0,72588:0:0:0:0:
320,192,72435,128,0,72818:0:0:0:0:
192,192,72474,1,0,0:0:0:0:
448,192,72550,1,0,0:0:0:0:
64,192,72703,128,0,73239:0:0:0:0:
448,192,72703,128,0,72894:0:0:0:0:
192,192,72741,128,0,72933:0:0:0:0:
448,192,73009,128,0,73201:0:0:0:0:
192,192,73048,128,0,73201:0:0:0:0:
320,192,73162,1,0,0:0:0:0:
320,192,73277,128,0,73392:0:0:0:0:
192,192,73315,128,0,73392:0:0:0:0:
448,192,73354,128,0,73392:0:0:0:0:
64,192,73354,128,0,73392:0:0:0:0:
320,192,73622,128,0,73851:0:0:0:0:
64,192,73622,128,0,73813:0:0:0:0:
192,192,73622,128,0,73889:0:0:0:0:
448,192,73622,128,0,73813:0:0:0:0:
448,192,73928,128,0,74119:0:0:0:0:
64,192,73928,128,0,74119:0:0:0:0:
320,192,73966,128,0,74157:0:0:0:0:
192,192,74004,128,0,74081:0:0:0:0:
64,192,74234,128,0,74425:0:0:0:0:
448,192,74234,128,0,74425:0:0:0:0:
192,192,74272,128,0,74387:0:0:0:0:
320,192,74310,128,0,74463:0:0:0:0:
64,192,74540,128,0,74846:0:0:0:0:
448,192,74540,128,0,74718:0:0:0:0:
320,192,74565,128,0,74693:0:0:0:0:
192,192,74591,128,0,74667:0:0:0:0:
192,192,74744,128,0,74872:0:0:0:0:
320,192,74769,128,0,74897:0:0:0:0:
448,192,74795,128,0,74923:0:0:0:0:
64,192,74923,128,0,74974:0:0:0:0:
192,192,74948,128,0,74999:0:0:0:0:
320,192,74974,128,0,75025:0:0:0:0:
448,192,74999,128,0,75050:0:0:0:0:
192,192,75076,128,0,75254:0:0:0:0:
320,192,75152,128,0,75356:0:0:0:0:
64,192,75152,128,0,75356:0:0:0:0:
448,192,75152,128,0,75280:0:0:0:0:
192,192,75356,128,0,75560:0:0:0:0:
448,192,75356,128,0,75611:0:0:0:0:
320,192,75458,128,0,75586:0:0:0:0:
64,192,75458,128,0,75535:0:0:0:0:
64,192,75662,128,0,75815:0:0:0:0:
320,192,75662,128,0,76019:0:0:0:0:
192,192,75764,128,0,75841:0:0:0:0:
448,192,75764,128,0,76045:0:0:0:0:
64,192,75917,128,0,76300:0:0:0:0:
192,192,75943,128,0,75994:0:0:0:0:
192,192,76071,128,0,76224:0:0:0:0:
320,192,76096,128,0,76147:0:0:0:0:
320,192,76224,1,0,0:0:0:0:
448,192,76224,128,0,76300:0:0:0:0:
192,192,76300,128,0,76530:0:0:0:0:
320,192,76377,128,0,76836:0:0:0:0:
448,192,76377,128,0,76453:0:0:0:0:
64,192,76377,128,0,76606:0:0:0:0:
192,192,76683,128,0,76785:0:0:0:0:
64,192,76683,128,0,77116:0:0:0:0:
448,192,76683,128,0,77218:0:0:0:0:
320,192,76989,128,0,77218:0:0:0:0:
192,192,77027,128,0,77525:0:0:0:0:
320,192,77295,1,0,0:0:0:0:
448,192,77295,1,0,0:0:0:0:
64,192,77372,1,0,0:0:0:0:
448,192,77448,1,0,0:0:0:0:
320,192,77448,128,0,77563:0:0:0:0:
448,192,77601,128,0,77652:0:0:0:0:
64,192,77601,128,0,77729:0:0:0:0:
320,192,77627,128,0,77678:0:0:0:0:
192,192,77652,128,0,77780:0:0:0:0:
320,192,77754,128,0,77882:0:0:0:0:
448,192,77792,128,0,78099:0:0:0:0:
64,192,77907,128,0,78099:0:0:0:0:
192,192,77946,128,0,78060:0:0:0:0:
320,192,77984,128,0,78137:0:0:0:0:
192,192,78175,128,0,78290:0:0:0:0:
64,192,78213,128,0,78290:0:0:0:0:
448,192,78213,128,0,78290:0:0:0:0:
320,192,78252,128,0,78290:0:0:0:0:
192,192,78366,128,0,78443:0:0:0:0:
320,192,78366,128,0,78519:0:0:0:0:
192,192,78519,128,0,78749:0:0:0:0:
448,192,78519,128,0,78749:0:0:0:0:
64,192,78519,128,0,78902:0:0:0:0:
320,192,78673,1,0,0:0:0:0:
192,192,78826,128,0,79055:0:0:0:0:
448,192,78826,128,0,78979:0:0:0:0:
320,192,78864,1,0,0:0:0:0:
320,192,78979,128,0,79017:0:0:0:0:
64,192,78979,128,0,79017:0:0:0:0:
64,192,79132,128,0,79285:0:0:0:0:
320,192,79132,128,0,79361:0:0:0:0:
192,192,79170,1,0,0:0:0:0:
192,192,79285,128,0,79323:0:0:0:0:
448,192,79285,128,0,79323:0:0:0:0:
448,192,79438,128,0,79744:0:0:0:0:
320,192,79438,128,0,79591:0:0:0:0:
192,192,79438,128,0,79667:0:0:0:0:
64,192,79438,128,0,79744:0:0:0:0:
320,192,79744,128,0,79897:0:0:0:0:
192,192,80050,1,0,0:0:0:0:
448,192,80050,1,0,0:0:0:0:
64,192,80050,128,0,80203:0:0:0:0:
448,192,80356,128,0,80509:0:0:0:0:
320,192,80356,128,0,80509:0:0:0:0:
64,192,80815,1,0,0:0:0:0:
192,192,80815,1,0,0:0:0:0:
320,192,80968,128,0,81122:0:0:0:0:
192,192,81122,1,0,0:0:0:0:
64,192,81122,1,0,0:0:0:0:
320,192,81275,1,0,0:0:0:0:
448,192,81275,1,0,0:0:0:0:
64,192,81275,1,0,0:0:0:0:
192,192,81428,128,0,81581:0:0:0:0:
448,192,81428,128,0,81504:0:0:0:0:
64,192,81581,128,0,81657:0:0:0:0:
320,192,81581,128,0,81734:0:0:0:0:
192,192,81734,128,0,81887:0:0:0:0:
448,192,81734,128,0,81810:0:0:0:0:
320,192,81887,1,0,0:0:0:0:
448,192,81887,1,0,0:0:0:0:
448,192,82193,128,0,82499:0:0:0:0:
64,192,82193,128,0,82499:0:0:0:0:
192,192,82499,1,0,0:0:0:0:
320,192,82499,1,0,0:0:0:0:
448,192,82805,128,0,82958:0:0:0:0:
64,192,82805,128,0,82958:0:0:0:0:
192,192,82958,1,0,0:0:0:0:
320,192,82958,1,0,0:0:0:0:
64,192,83111,128,0,83188:0:0:0:0:
192,192,83111,128,0,83188:0:0:0:0:
320,192,83111,128,0,83417:0:0:0:0:
64,192,83417,5,0,0:0:0:0:
192,192,83417,1,0,0:0:0:0:
448,192,83417,1,0,0:0:0:0:
448,192,83724,128,0,83800:0:0:0:0:
64,192,83724,128,0,84030:0:0:0:0:
320,192,83800,128,0,83877:0:0:0:0:
192,192,83877,128,0,83953:0:0:0:0:
320,192,83953,128,0,84030:0:0:0:0:
448,192,84030,1,0,0:0:0:0:
448,192,84336,128,0,84718:0:0:0:0:
320,192,84336,128,0,84565:0:0:0:0:
192,192,84412,1,0,0:0:0:0:
64,192,84489,128,0,84565:0:0:0:0:
192,192,84642,128,0,84948:0:0:0:0:
64,192,84642,128,0,84795:0:0:0:0:
320,192,84718,1,0,0:0:0:0:
448,192,84795,128,0,84872:0:0:0:0:
320,192,84948,128,0,85101:0:0:0:0:
64,192,84948,1,0,0:0:0:0:
64,192,85101,128,0,85178:0:0:0:0:
448,192,85101,128,0,85254:0:0:0:0:
320,192,85254,128,0,85407:0:0:0:0:
64,192,85254,128,0,85331:0:0:0:0:
192,192,85407,128,0,85484:0:0:0:0:
448,192,85407,128,0,85637:0:0:0:0:
64,192,85484,1,0,0:0:0:0:
192,192,85560,128,0,85637:0:0:0:0:
320,192,85560,128,0,85866:0:0:0:0:
64,192,85713,128,0,86019:0:0:0:0:
448,192,85713,128,0,85790:0:0:0:0:
448,192,85866,128,0,86096:0:0:0:0:
192,192,85866,128,0,86173:0:0:0:0:
320,192,86019,128,0,86173:0:0:0:0:
448,192,86173,128,0,86249:0:0:0:0:
64,192,86173,128,0,86249:0:0:0:0:
192,192,86224,1,0,0:0:0:0:
448,192,86326,128,0,86402:0:0:0:0:
320,192,86326,128,0,86402:0:0:0:0:
64,192,86377,1,0,0:0:0:0:
192,192,86479,128,0,86555:0:0:0:0:
320,192,86479,128,0,86555:0:0:0:0:
448,192,86530,1,0,0:0:0:0:
64,192,86632,128,0,86785:0:0:0:0:
320,192,86632,128,0,86785:0:0:0:0:
192,192,86683,1,0,0:0:0:0:
448,192,86785,1,0,0:0:0:0:
192,192,86836,128,0,86989:0:0:0:0:
320,192,86887,128,0,87040:0:0:0:0:
64,192,86938,128,0,87053:0:0:0:0:
448,192,86938,128,0,87091:0:0:0:0:
192,192,87091,1,0,0:0:0:0:
448,192,87142,128,0,87295:0:0:0:0:
320,192,87193,128,0,87346:0:0:0:0:
192,192,87244,128,0,87397:0:0:0:0:
64,192,87244,128,0,87321:0:0:0:0:
448,192,87397,128,0,87474:0:0:0:0:
320,192,87397,128,0,87448:0:0:0:0:
64,192,87397,128,0,87550:0:0:0:0:
192,192,87550,128,0,87627:0:0:0:0:
448,192,87627,128,0,87780:0:0:0:0:
192,192,87703,128,0,87780:0:0:0:0:
64,192,87703,128,0,87780:0:0:0:0:
320,192,87703,128,0,87933:0:0:0:0:
192,192,87856,128,0,87933:0:0:0:0:
448,192,88009,128,0,88545:0:0:0:0:
64,192,88009,128,0,88239:0:0:0:0:
320,192,88162,128,0,88239:0:0:0:0:
192,192,88162,128,0,88392:0:0:0:0:
64,192,88315,128,0,88622:0:0:0:0:
320,192,88315,128,0,88366:0:0:0:0:
320,192,88468,128,0,88622:0:0:0:0:
192,192,88468,128,0,88507:0:0:0:0:
192,192,88622,1,0,0:0:0:0:
448,192,88622,1,0,0:0:0:0:
320,192,88673,128,0,88775:0:0:0:0:
192,192,88775,1,0,0:0:0:0:
448,192,88775,1,0,0:0:0:0:
320,192,88826,128,0,88928:0:0:0:0:
64,192,88928,1,0,0:0:0:0:
192,192,88928,1,0,0:0:0:0:
448,192,88979,128,0,89081:0:0:0:0:
64,192,89081,1,0,0:0:0:0:
192,192,89081,1,0,0:0:0:0:
448,192,89132,128,0,89234:0:0:0:0:
320,192,89234,128,0,89463:0:0:0:0:
192,192,89234,128,0,89310:0:0:0:0:
64,192,89285,1,0,0:0:0:0:
448,192,89336,1,0,0:0:0:0:
192,192,89387,128,0,89693:0:0:0:0:
320,192,89540,128,0,89846:0:0:0:0:
448,192,89540,1,0,0:0:0:0:
64,192,89591,1,0,0:0:0:0:
448,192,89642,1,0,0:0:0:0:
64,192,89693,128,0,89999:0:0:0:0:
448,192,89846,128,0,90152:0:0:0:0:
192,192,89846,128,0,89897:0:0:0:0:
320,192,89999,1,0,0:0:0:0:
192,192,89999,128,0,90076:0:0:0:0:
64,192,90076,128,0,90152:0:0:0:0:
320,192,90152,128,0,90458:0:0:0:0:
192,192,90152,128,0,90229:0:0:0:0:
192,192,90305,128,0,90458:0:0:0:0:
64,192,90305,1,0,0:0:0:0:
448,192,90458,128,0,91071:0:0:0:0:
64,192,90458,128,0,91071:0:0:0:0:
320,192,90611,1,0,0:0:0:0:
192,192,90611,1,0,0:0:0:0:
192,192,90764,128,0,90841:0:0:0:0:
320,192,90764,128,0,90841:0:0:0:0:
192,192,90917,1,0,0:0:0:0:
320,192,90917,1,0,0:0:0:0:
320,192,91071,128,0,91683:0:0:0:0:
192,192,91071,128,0,91300:0:0:0:0:
64,192,91224,1,0,0:0:0:0:
448,192,91300,1,0,0:0:0:0:
192,192,91377,128,0,91428:0:0:0:0:
64,192,91377,1,0,0:0:0:0:
448,192,91428,128,0,91530:0:0:0:0:
192,192,91530,128,0,91581:0:0:0:0:
64,192,91581,1,0,0:0:0:0:
64,192,91683,128,0,92295:0:0:0:0:
448,192,91683,128,0,91989:0:0:0:0:
192,192,91683,128,0,91912:0:0:0:0:
192,192,91989,128,0,92295:0:0:0:0:
320,192,91989,128,0,92065:0:0:0:0:
320,192,92142,128,0,92448:0:0:0:0:
448,192,92142,128,0,92218:0:0:0:0:
448,192,92295,128,0,92601:0:0:0:0:
64,192,92601,128,0,92907:0:0:0:0:
192,192,92601,128,0,92984:0:0:0:0:
320,192,92601,1,0,0:0:0:0:
320,192,92907,128,0,92984:0:0:0:0:
448,192,92907,128,0,92984:0:0:0:0:
320,192,93060,128,0,93213:0:0:0:0:
192,192,93060,128,0,93213:0:0:0:0:
448,192,93213,128,0,93443:0:0:0:0:
64,192,93213,128,0,93519:0:0:0:0:
320,192,93264,128,0,93417:0:0:0:0:
192,192,93366,1,0,0:0:0:0:
192,192,93519,128,0,93596:0:0:0:0:
448,192,93519,128,0,93673:0:0:0:0:
320,192,93673,128,0,93826:0:0:0:0:
192,192,93673,128,0,93749:0:0:0:0:
64,192,93826,1,0,0:0:0:0:
448,192,93826,128,0,93928:0:0:0:0:
192,192,93877,1,0,0:0:0:0:
64,192,93979,1,0,0:0:0:0:
448,192,93979,128,0,94081:0:0:0:0:
192,192,94030,1,0,0:0:0:0:
448,192,94132,1,0,0:0:0:0:
64,192,94132,1,0,0:0:0:0:
320,192,94132,128,0,94361:0:0:0:0:
192,192,94285,128,0,94514:0:0:0:0:
448,192,94285,1,0,0:0:0:0:
64,192,94361,1,0,0:0:0:0:
320,192,94438,128,0,94744:0:0:0:0:
448,192,94438,1,0,0:0:0:0:
192,192,94591,128,0,94744:0:0:0:0:
64,192,94591,1,0,0:0:0:0:
448,192,94744,128,0,95050:0:0:0:0:
64,192,94744,128,0,94897:0:0:0:0:
192,192,94897,128,0,94974:0:0:0:0:
320,192,94974,1,0,0:0:0:0:
64,192,95050,128,0,95203:0:0:0:0:
192,192,95050,1,0,0:0:0:0:
320,192,95203,128,0,95280:0:0:0:0:
448,192,95203,128,0,95356:0:0:0:0:
320,192,95356,128,0,95433:0:0:0:0:
192,192,95356,128,0,95586:0:0:0:0:
64,192,95509,128,0,95815:0:0:0:0:
448,192,95509,128,0,95815:0:0:0:0:
192,192,95662,128,0,95739:0:0:0:0:
320,192,95662,128,0,95968:0:0:0:0:
192,192,95815,128,0,95968:0:0:0:0:
448,192,95968,128,0,96045:0:0:0:0:
64,192,95968,128,0,96198:0:0:0:0:
192,192,96019,1,0,0:0:0:0:
448,192,96122,128,0,96275:0:0:0:0:
320,192,96173,1,0,0:0:0:0:
64,192,96275,128,0,96351:0:0:0:0:
192,192,96275,128,0,96351:0:0:0:0:
320,192,96326,1,0,0:0:0:0:
192,192,96428,128,0,96504:0:0:0:0:
64,192,96428,128,0,96581:0:0:0:0:
320,192,96479,1,0,0:0:0:0:
448,192,96581,128,0,96887:0:0:0:0:
192,192,96632,1,0,0:0:0:0:
320,192,96683,128,0,96836:0:0:0:0:
64,192,96734,1,0,0:0:0:0:
192,192,96887,128,0,97193:0:0:0:0:
64,192,96938,1,0,0:0:0:0:
320,192,96989,128,0,97142:0:0:0:0:
448,192,97040,1,0,0:0:0:0:
448,192,97193,128,0,97269:0:0:0:0:
64,192,97193,128,0,97499:0:0:0:0:
192,192,97346,1,0,0:0:0:0:
320,192,97423,5,0,0:0:0:0:
192,192,97499,128,0,97729:0:0:0:0:
448,192,97499,128,0,97576:0:0:0:0:
448,192,97652,1,0,0:0:0:0:
64,192,97805,128,0,98111:0:0:0:0:
192,192,97805,128,0,97882:0:0:0:0:
192,192,97958,128,0,98111:0:0:0:0:
320,192,97958,1,0,0:0:0:0:
320,192,98111,128,0,98417:0:0:0:0:
448,192,98111,128,0,98188:0:0:0:0:
448,192,98264,128,0,98417:0:0:0:0:
64,192,98264,1,0,0:0:0:0:
192,192,98417,128,0,98468:0:0:0:0:
64,192,98417,1,0,0:0:0:0:
192,192,98519,128,0,98571:0:0:0:0:
448,192,98571,128,0,98724:0:0:0:0:
320,192,98622,128,0,98673:0:0:0:0:
192,192,98724,1,0,0:0:0:0:
64,192,98724,128,0,98800:0:0:0:0:
192,192,98877,128,0,99030:0:0:0:0:
320,192,98877,128,0,98953:0:0:0:0:
448,192,99030,128,0,99183:0:0:0:0:
64,192,99030,1,0,0:0:0:0:
320,192,99081,128,0,99234:0:0:0:0:
192,192,99132,128,0,99285:0:0:0:0:
64,192,99183,128,0,99336:0:0:0:0:
448,192,99336,128,0,99642:0:0:0:0:
320,192,99336,1,0,0:0:0:0:
64,192,99387,128,0,99591:0:0:0:0:
192,192,99438,128,0,99591:0:0:0:0:
320,192,99489,128,0,99591:0:0:0:0:
64,192,99642,1,0,0:0:0:0:
192,192,99642,128,0,99872:0:0:0:0:
448,192,99795,128,0,99872:0:0:0:0:
64,192,99872,1,0,0:0:0:0:
448,192,99948,128,0,100025:0:0:0:0:
192,192,99948,1,0,0:0:0:0:
448,192,100101,128,0,100178:0:0:0:0:
320,192,100101,1,0,0:0:0:0:
64,192,100254,128,0,100790:0:0:0:0:
192,192,100254,128,0,100713:0:0:0:0:
320,192,100407,128,0,100484:0:0:0:0:
448,192,100560,128,0,100943:0:0:0:0:
320,192,100560,128,0,100790:0:0:0:0:
192,192,100866,128,0,101096:0:0:0:0:
320,192,100866,128,0,101173:0:0:0:0:
64,192,101019,1,0,0:0:0:0:
448,192,101173,1,0,0:0:0:0:
192,192,101173,128,0,101275:0:0:0:0:
64,192,101224,128,0,101326:0:0:0:0:
448,192,101326,1,0,0:0:0:0:
192,192,101326,128,0,101428:0:0:0:0:
64,192,101377,128,0,101479:0:0:0:0:
320,192,101479,128,0,101785:0:0:0:0:
448,192,101479,128,0,101938:0:0:0:0:
64,192,101785,128,0,102091:0:0:0:0:
192,192,101785,128,0,102244:0:0:0:0:
320,192,101938,1,0,0:0:0:0:
448,192,102091,128,0,102397:0:0:0:0:
320,192,102091,128,0,102550:0:0:0:0:
192,192,102397,128,0,102703:0:0:0:0:
64,192,102397,128,0,102856:0:0:0:0:
448,192,102703,128,0,102780:0:0:0:0:
320,192,102703,1,0,0:0:0:0:
192,192,102780,1,0,0:0:0:0:
448,192,102856,128,0,103009:0:0:0:0:
320,192,102856,1,0,0:0:0:0:
64,192,103009,128,0,103468:0:0:0:0:
320,192,103009,128,0,103315:0:0:0:0:
448,192,103162,1,0,0:0:0:0:
192,192,103315,128,0,103468:0:0:0:0:
448,192,103315,1,0,0:0:0:0:
320,192,103468,128,0,103545:0:0:0:0:
448,192,103545,128,0,103622:0:0:0:0:
320,192,103622,128,0,103775:0:0:0:0:
192,192,103622,128,0,103928:0:0:0:0:
64,192,103775,128,0,103928:0:0:0:0:
320,192,104081,128,0,104183:0:0:0:0:
320,192,104234,128,0,104336:0:0:0:0:
320,192,104387,128,0,104540:0:0:0:0:
64,192,104693,1,0,0:0:0:0:
192,192,104744,1,0,0:0:0:0:
448,192,104846,128,0,105152:0:0:0:0:
64,192,105152,128,0,105382:0:0:0:0:
320,192,105152,128,0,105764:0:0:0:0:
192,192,105305,128,0,105535:0:0:0:0:
64,192,105458,128,0,105764:0:0:0:0:
448,192,105458,1,0,0:0:0:0:
192,192,105611,128,0,105764:0:0:0:0:
448,192,105764,128,0,107601:0:0:0:0:
192,192,105917,128,0,106071:0:0:0:0:
64,192,106071,128,0,106377:0:0:0:0:
320,192,106071,1,0,0:0:0:0:
192,192,106224,128,0,106377:0:0:0:0:
320,192,106377,128,0,106683:0:0:0:0:
192,192,106530,1,0,0:0:0:0:
64,192,106683,128,0,106912:0:0:0:0:
192,192,106683,1,0,0:0:0:0:
192,192,106989,128,0,107065:0:0:0:0:
320,192,106989,1,0,0:0:0:0:
192,192,107142,128,0,107218:0:0:0:0:
64,192,107142,1,0,0:0:0:0:
192,192,107295,128,0,107372:0:0:0:0:
320,192,107295,1,0,0:0:0:0:
192,192,107448,128,0,107525:0:0:0:0:
64,192,107448,1,0,0:0:0:0:
320,192,107601,128,0,107907:0:0:0:0:
64,192,107601,128,0,107831:0:0:0:0:
192,192,107907,1,0,0:0:0:0:
448,192,107907,1,0,0:0:0:0:
448,192,108060,128,0,108137:0:0:0:0:
320,192,108060,128,0,108137:0:0:0:0:
64,192,108137,1,0,0:0:0:0:
192,192,108213,128,0,108366:0:0:0:0:
448,192,108366,128,0,108673:0:0:0:0:
320,192,108519,128,0,108673:0:0:0:0:
64,192,108519,1,0,0:0:0:0:
192,192,108673,128,0,108979:0:0:0:0:
320,192,108826,1,0,0:0:0:0:
448,192,108826,1,0,0:0:0:0:
320,192,108979,128,0,109055:0:0:0:0:
64,192,109132,128,0,109438:0:0:0:0:
448,192,109132,128,0,109285:0:0:0:0:
192,192,109285,128,0,109361:0:0:0:0:
320,192,109285,128,0,109438:0:0:0:0:
320,192,109591,128,0,109897:0:0:0:0:
448,192,109591,128,0,109667:0:0:0:0:
192,192,109744,128,0,109821:0:0:0:0:
64,192,109744,128,0,109897:0:0:0:0:
448,192,109897,1,0,0:0:0:0:
448,192,110050,128,0,110280:0:0:0:0:
320,192,110050,128,0,110127:0:0:0:0:
64,192,110203,128,0,110433:0:0:0:0:
192,192,110203,128,0,110280:0:0:0:0:
448,192,110356,128,0,110662:0:0:0:0:
320,192,110356,128,0,110433:0:0:0:0:
64,192,110509,128,0,110662:0:0:0:0:
192,192,110509,1,0,0:0:0:0:
192,192,110662,128,0,110968:0:0:0:0:
320,192,110662,128,0,111275:0:0:0:0:
448,192,110815,128,0,110892:0:0:0:0:
64,192,110968,1,0,0:0:0:0:
448,192,110968,1,0,0:0:0:0:
192,192,111122,128,0,111275:0:0:0:0:
64,192,111275,128,0,111887:0:0:0:0:
448,192,111275,128,0,111581:0:0:0:0:
320,192,111428,1,0,0:0:0:0:
192,192,111581,128,0,111887:0:0:0:0:
320,192,111734,1,0,0:0:0:0:
320,192,111887,128,0,111963:0:0:0:0:
448,192,111887,128,0,112040:0:0:0:0:
320,192,112040,128,0,112193:0:0:0:0:
192,192,112040,128,0,112116:0:0:0:0:
448,192,112193,128,0,112269:0:0:0:0:
64,192,112193,128,0,112269:0:0:0:0:
64,192,112346,128,0,112499:0:0:0:0:
448,192,112346,128,0,112499:0:0:0:0:
192,192,112499,128,0,112576:0:0:0:0:
320,192,112499,128,0,112652:0:0:0:0:
192,192,112805,128,0,112958:0:0:0:0:
320,192,112805,128,0,112882:0:0:0:0:
448,192,112958,128,0,113111:0:0:0:0:
320,192,113111,128,0,113188:0:0:0:0:
64,192,113111,128,0,113264:0:0:0:0:
192,192,113264,128,0,113417:0:0:0:0:
448,192,113417,128,0,113724:0:0:0:0:
64,192,113417,1,0,0:0:0:0:
320,192,113571,128,0,113724:0:0:0:0:
64,192,113724,1,0,0:0:0:0:
192,192,113724,1,0,0:0:0:0:
192,192,113877,1,0,0:0:0:0:
320,192,113877,1,0,0:0:0:0:
64,192,114030,128,0,114336:0:0:0:0:
192,192,114030,128,0,114259:0:0:0:0:
320,192,114336,128,0,114412:0:0:0:0:
192,192,114489,128,0,114795:0:0:0:0:
448,192,114489,128,0,114642:0:0:0:0:
320,192,114642,1,0,0:0:0:0:
64,192,114642,1,0,0:0:0:0:
320,192,114795,1,0,0:0:0:0:
64,192,114795,1,0,0:0:0:0:
448,192,114948,128,0,115178:0:0:0:0:
320,192,114948,128,0,115025:0:0:0:0:
192,192,115101,128,0,115331:0:0:0:0:
64,192,115101,128,0,115178:0:0:0:0:
448,192,115254,128,0,115560:0:0:0:0:
320,192,115254,128,0,115331:0:0:0:0:
192,192,115407,128,0,115560:0:0:0:0:
64,192,115407,1,0,0:0:0:0:
320,192,115560,128,0,115713:0:0:0:0:
64,192,115560,128,0,116173:0:0:0:0:
448,192,115713,128,0,115866:0:0:0:0:
320,192,115866,1,0,0:0:0:0:
192,192,115866,128,0,116019:0:0:0:0:
320,192,116019,128,0,116173:0:0:0:0:
192,192,116173,1,0,0:0:0:0:
448,192,116173,128,0,116479:0:0:0:0:
64,192,116326,1,0,0:0:0:0:
192,192,116479,128,0,116785:0:0:0:0:
320,192,116479,128,0,116555:0:0:0:0:
320,192,116785,128,0,116861:0:0:0:0:
64,192,116785,1,0,0:0:0:0:
320,192,116938,128,0,117014:0:0:0:0:
448,192,116938,1,0,0:0:0:0:
320,192,117091,128,0,117167:0:0:0:0:
64,192,117091,1,0,0:0:0:0:
320,192,117244,128,0,117321:0:0:0:0:
448,192,117244,1,0,0:0:0:0:
192,192,117397,128,0,117780:0:0:0:0:
64,192,117397,128,0,117856:0:0:0:0:
448,192,117397,128,0,117550:0:0:0:0:
448,192,117703,128,0,117780:0:0:0:0:
448,192,117856,128,0,117933:0:0:0:0:
192,192,117856,128,0,118009:0:0:0:0:
320,192,117856,128,0,118162:0:0:0:0:
64,192,118009,128,0,118315:0:0:0:0:
448,192,118162,1,0,0:0:0:0:
192,192,118315,128,0,118622:0:0:0:0:
448,192,118315,1,0,0:0:0:0:
320,192,118468,128,0,118775:0:0:0:0:
448,192,118622,128,0,118928:0:0:0:0:
64,192,118622,1,0,0:0:0:0:
192,192,118775,128,0,118928:0:0:0:0:
64,192,118775,1,0,0:0:0:0:
320,192,118928,128,0,119234:0:0:0:0:
64,192,118928,1,0,0:0:0:0:
448,192,119081,1,0,0:0:0:0:
64,192,119234,128,0,119310:0:0:0:0:
192,192,119234,1,0,0:0:0:0:
448,192,119336,1,0,0:0:0:0:
64,192,119387,128,0,119463:0:0:0:0:
320,192,119438,1,0,0:0:0:0:
64,192,119540,128,0,119616:0:0:0:0:
448,192,119540,128,0,119693:0:0:0:0:
64,192,119693,128,0,119846:0:0:0:0:
192,192,119846,128,0,120076:0:0:0:0:
448,192,119846,128,0,119923:0:0:0:0:
320,192,119999,128,0,120229:0:0:0:0:
64,192,119999,128,0,120076:0:0:0:0:
192,192,120152,128,0,120458:0:0:0:0:
448,192,120152,128,0,120229:0:0:0:0:
320,192,120305,128,0,120458:0:0:0:0:
64,192,120305,1,0,0:0:0:0:
448,192,120458,128,0,120535:0:0:0:0:
64,192,120458,128,0,120917:0:0:0:0:
192,192,120611,1,0,0:0:0:0:
320,192,120764,1,0,0:0:0:0:
448,192,120764,1,0,0:0:0:0:
448,192,120917,1,0,0:0:0:0:
192,192,120917,1,0,0:0:0:0:
64,192,121071,128,0,121377:0:0:0:0:
320,192,121071,128,0,121377:0:0:0:0:
448,192,121224,1,0,0:0:0:0:
192,192,121377,128,0,121683:0:0:0:0:
448,192,121377,128,0,121683:0:0:0:0:
320,192,121683,128,0,121759:0:0:0:0:
64,192,121683,1,0,0:0:0:0:
320,192,121836,128,0,121912:0:0:0:0:
192,192,121836,1,0,0:0:0:0:
64,192,121989,128,0,122065:0:0:0:0:
192,192,121989,128,0,122142:0:0:0:0:
448,192,122040,1,0,0:0:0:0:
64,192,122142,128,0,122295:0:0:0:0:
320,192,122142,128,0,122218:0:0:0:0:
448,192,122193,1,0,0:0:0:0:
320,192,122295,128,0,122372:0:0:0:0:
192,192,122295,128,0,122601:0:0:0:0:
448,192,122448,1,0,0:0:0:0:
320,192,122601,128,0,123060:0:0:0:0:
64,192,122601,128,0,122907:0:0:0:0:
448,192,122754,1,0,0:0:0:0:
448,192,122907,128,0,123366:0:0:0:0:
192,192,122907,128,0,123213:0:0:0:0:
64,192,123060,1,0,0:0:0:0:
64,192,123213,128,0,123519:0:0:0:0:
320,192,123213,128,0,123366:0:0:0:0:
192,192,123366,128,0,123673:0:0:0:0:
320,192,123519,128,0,123826:0:0:0:0:
448,192,123519,128,0,123673:0:0:0:0:
64,192,123673,128,0,124132:0:0:0:0:
192,192,123826,128,0,124132:0:0:0:0:
448,192,123826,1,0,0:0:0:0:
448,192,123979,128,0,124055:0:0:0:0:
320,192,124132,128,0,124285:0:0:0:0:
448,192,124132,1,0,0:0:0:0:
64,192,124285,128,0,124361:0:0:0:0:
192,192,124285,128,0,124361:0:0:0:0:
448,192,124361,128,0,124438:0:0:0:0:
192,192,124438,128,0,124591:0:0:0:0:
64,192,124438,128,0,124591:0:0:0:0:
320,192,124591,1,0,0:0:0:0:
64,192,124744,128,0,124897:0:0:0:0:
448,192,124744,1,0,0:0:0:0:
192,192,124795,128,0,124846:0:0:0:0:
448,192,124897,128,0,125050:0:0:0:0:
320,192,124948,128,0,124999:0:0:0:0:
192,192,125050,128,0,125203:0:0:0:0:
64,192,125101,128,0,125152:0:0:0:0:
320,192,125203,128,0,125356:0:0:0:0:
448,192,125254,128,0,125305:0:0:0:0:
64,192,125356,128,0,125509:0:0:0:0:
448,192,125407,128,0,125458:0:0:0:0:
320,192,125509,128,0,125662:0:0:0:0:
192,192,125560,128,0,125611:0:0:0:0:
64,192,125662,128,0,125968:0:0:0:0:
448,192,125662,128,0,125917:0:0:0:0:
320,192,125713,128,0,125866:0:0:0:0:
320,192,125968,128,0,126275:0:0:0:0:
448,192,125968,128,0,126122:0:0:0:0:
192,192,125968,128,0,126198:0:0:0:0:
64,192,126275,128,0,126377:0:0:0:0:
192,192,126326,128,0,126581:0:0:0:0:
320,192,126377,128,0,126530:0:0:0:0:
448,192,126428,128,0,126581:0:0:0:0:
64,192,126428,128,0,126530:0:0:0:0:
320,192,126581,128,0,126657:0:0:0:0:
64,192,126581,128,0,126963:0:0:0:0:
320,192,126734,128,0,127142:0:0:0:0:
192,192,126734,128,0,126810:0:0:0:0:
192,192,126887,128,0,127091:0:0:0:0:
448,192,126887,128,0,126963:0:0:0:0:
448,192,127040,128,0,127193:0:0:0:0:
64,192,127040,128,0,127193:0:0:0:0:
192,192,127193,128,0,127295:0:0:0:0:
320,192,127193,128,0,127346:0:0:0:0:
192,192,127346,128,0,127448:0:0:0:0:
448,192,127346,128,0,127499:0:0:0:0:
192,192,127499,128,0,127652:0:0:0:0:
64,192,127499,128,0,127576:0:0:0:0:
320,192,127550,128,0,127652:0:0:0:0:
448,192,127652,128,0,127805:0:0:0:0:
64,192,127652,128,0,127729:0:0:0:0:
320,192,127703,128,0,127805:0:0:0:0:
64,192,127805,128,0,127958:0:0:0:0:
192,192,127805,128,0,127882:0:0:0:0:
448,192,127856,128,0,127958:0:0:0:0:
320,192,127958,128,0,128111:0:0:0:0:
192,192,127958,128,0,128035:0:0:0:0:
64,192,128009,128,0,128111:0:0:0:0:
448,192,128111,128,0,128264:0:0:0:0:
192,192,128111,1,0,0:0:0:0:
320,192,128162,128,0,128264:0:0:0:0:
64,192,128264,128,0,128366:0:0:0:0:
192,192,128264,128,0,128366:0:0:0:0:
448,192,128315,128,0,128417:0:0:0:0:
64,192,128417,128,0,128724:0:0:0:0:
192,192,128417,128,0,128571:0:0:0:0:
320,192,128417,128,0,128571:0:0:0:0:
192,192,128724,128,0,128979:0:0:0:0:
448,192,128724,128,0,128775:0:0:0:0:
320,192,128775,128,0,128928:0:0:0:0:
64,192,128800,128,0,129030:0:0:0:0:
192,192,129030,128,0,129259:0:0:0:0:
320,192,129030,128,0,129106:0:0:0:0:
448,192,129030,128,0,129183:0:0:0:0:
320,192,129183,128,0,129336:0:0:0:0:
64,192,129183,128,0,129259:0:0:0:0:
64,192,129336,128,0,129642:0:0:0:0:
192,192,129336,128,0,129565:0:0:0:0:
448,192,129489,128,0,129565:0:0:0:0:
320,192,129642,128,0,129948:0:0:0:0:
192,192,129642,128,0,129718:0:0:0:0:
448,192,129642,128,0,129795:0:0:0:0:
64,192,129948,128,0,130254:0:0:0:0:
192,192,129948,128,0,130025:0:0:0:0:
448,192,129948,128,0,130101:0:0:0:0:
192,192,130254,128,0,130560:0:0:0:0:
320,192,130254,128,0,130637:0:0:0:0:
448,192,130254,128,0,130713:0:0:0:0:
64,192,130560,1,0,0:0:0:0:
64,192,130866,128,0,131173:0:0:0:0:
448,192,130866,128,0,131173:0:0:0:0:
192,192,130866,128,0,130943:0:0:0:0:
320,192,130866,128,0,130943:0:0:0:0:
320,192,131479,128,0,131785:0:0:0:0:
192,192,131479,128,0,131555:0:0:0:0:
64,192,131479,128,0,131555:0:0:0:0:
64,192,131785,1,0,0:0:0:0:
192,192,131785,1,0,0:0:0:0:
448,192,131785,1,0,0:0:0:0:
448,192,132091,128,0,132321:0:0:0:0:
320,192,132091,128,0,132167:0:0:0:0:
64,192,132091,128,0,132167:0:0:0:0:
192,192,132091,128,0,132244:0:0:0:0:
64,192,132244,128,0,132321:0:0:0:0:
320,192,132397,1,0,0:0:0:0:
64,192,132397,128,0,132474:0:0:0:0:
192,192,132397,128,0,132550:0:0:0:0:
64,192,132550,128,0,132627:0:0:0:0:
448,192,132550,128,0,132703:0:0:0:0:
64,192,132703,128,0,132780:0:0:0:0:
192,192,132703,128,0,132856:0:0:0:0:
320,192,132856,128,0,132933:0:0:0:0:
320,192,133009,128,0,133468:0:0:0:0:
448,192,133009,128,0,133162:0:0:0:0:
192,192,133009,128,0,133086:0:0:0:0:
64,192,133009,128,0,133239:0:0:0:0:
192,192,133162,1,0,0:0:0:0:
448,192,133315,128,0,133392:0:0:0:0:
192,192,133315,128,0,133392:0:0:0:0:
64,192,133315,128,0,133545:0:0:0:0:
448,192,133468,128,0,133545:0:0:0:0:
448,192,133622,128,0,133698:0:0:0:0:
192,192,133622,128,0,133775:0:0:0:0:
320,192,133622,1,0,0:0:0:0:
448,192,133775,128,0,133851:0:0:0:0:
64,192,133775,128,0,133928:0:0:0:0:
320,192,133928,128,0,134234:0:0:0:0:
192,192,133928,128,0,134004:0:0:0:0:
192,192,134081,128,0,134157:0:0:0:0:
64,192,134081,128,0,134157:0:0:0:0:
192,192,134234,128,0,134310:0:0:0:0:
448,192,134234,128,0,134310:0:0:0:0:
64,192,134234,128,0,134463:0:0:0:0:
320,192,134310,128,0,134387:0:0:0:0:
448,192,134387,1,0,0:0:0:0:
192,192,134387,1,0,0:0:0:0:
320,192,134463,128,0,134655:0:0:0:0:
448,192,134540,128,0,134693:0:0:0:0:
64,192,134540,128,0,134578:0:0:0:0:
192,192,134540,128,0,134616:0:0:0:0:
192,192,134693,128,0,134769:0:0:0:0:
192,192,134846,128,0,134923:0:0:0:0:
64,192,134846,128,0,135076:0:0:0:0:
320,192,134923,128,0,134999:0:0:0:0:
192,192,134999,128,0,135114:0:0:0:0:
448,192,134999,128,0,135076:0:0:0:0:
320,192,135076,128,0,135152:0:0:0:0:
448,192,135152,128,0,135203:0:0:0:0:
64,192,135152,128,0,135254:0:0:0:0:
192,192,135203,128,0,135305:0:0:0:0:
320,192,135254,128,0,135356:0:0:0:0:
448,192,135305,128,0,135356:0:0:0:0:
64,192,135343,128,0,135535:0:0:0:0:
192,192,135382,128,0,135535:0:0:0:0:
320,192,135458,1,0,0:0:0:0:
448,192,135458,1,0,0:0:0:0:
448,192,135535,1,0,0:0:0:0:
320,192,135535,1,0,0:0:0:0:
64,192,135611,1,0,0:0:0:0:
192,192,135611,1,0,0:0:0:0:
64,192,135764,1,0,0:0:0:0:
320,192,135764,1,0,0:0:0:0:
192,192,135917,128,0,136147:0:0:0:0:
448,192,135917,128,0,136147:0:0:0:0:
64,192,136071,128,0,136147:0:0:0:0:
320,192,136071,128,0,136147:0:0:0:0:
64,192,136224,128,0,136300:0:0:0:0:
192,192,136224,128,0,136300:0:0:0:0:
320,192,136224,128,0,136300:0:0:0:0:
448,192,136224,128,0,136300:0:0:0:0:
192,192,136530,128,0,136606:0:0:0:0:
448,192,136530,128,0,136606:0:0:0:0:
192,192,136683,128,0,136912:0:0:0:0:
448,192,136683,128,0,136989:0:0:0:0:
320,192,136683,128,0,136759:0:0:0:0:
64,192,136683,128,0,136759:0:0:0:0:
320,192,136836,1,0,0:0:0:0:
64,192,136836,1,0,0:0:0:0:
320,192,136989,128,0,137831:0:0:0:0:
192,192,136989,128,0,137142:0:0:0:0:
64,192,136989,128,0,137218:0:0:0:0:
448,192,137142,1,0,0:0:0:0:
192,192,137295,128,0,137372:0:0:0:0:
448,192,137295,128,0,137372:0:0:0:0:
192,192,137448,128,0,137678:0:0:0:0:
64,192,137448,128,0,137601:0:0:0:0:
448,192,137601,1,0,0:0:0:0:
448,192,137754,128,0,137831:0:0:0:0:
64,192,137754,128,0,137831:0:0:0:0:
64,192,137907,128,0,138137:0:0:0:0:
192,192,137907,128,0,138137:0:0:0:0:
320,192,137907,128,0,138137:0:0:0:0:
448,192,137907,128,0,138137:0:0:0:0:
64,192,138213,1,0,0:0:0:0:
320,192,138213,1,0,0:0:0:0:
192,192,138213,128,0,138290:0:0:0:0:
448,192,138213,128,0,138443:0:0:0:0:
192,192,138366,128,0,138443:0:0:0:0:
448,192,138519,1,0,0:0:0:0:
320,192,138519,128,0,138596:0:0:0:0:
192,192,138596,128,0,138673:0:0:0:0:
64,192,138673,128,0,138749:0:0:0:0:
320,192,138673,128,0,138826:0:0:0:0:
448,192,138826,128,0,139055:0:0:0:0:
64,192,138826,128,0,139055:0:0:0:0:
192,192,138979,128,0,139285:0:0:0:0:
320,192,138979,128,0,139055:0:0:0:0:
448,192,139132,128,0,139361:0:0:0:0:
64,192,139132,128,0,139361:0:0:0:0:
320,192,139132,128,0,139208:0:0:0:0:
192,192,139438,128,0,140586:0:0:0:0:
320,192,139438,128,0,139591:0:0:0:0:
448,192,139438,128,0,139553:0:0:0:0:
64,192,139438,128,0,139514:0:0:0:0:
448,192,139744,128,0,139859:0:0:0:0:
64,192,139744,128,0,139821:0:0:0:0:
64,192,139897,128,0,140050:0:0:0:0:
320,192,139897,128,0,139974:0:0:0:0:
320,192,140050,128,0,140241:0:0:0:0:
448,192,140050,128,0,140280:0:0:0:0:
64,192,140203,1,0,0:0:0:0:
320,192,140356,1,0,0:0:0:0:
64,192,140356,128,0,140509:0:0:0:0:
448,192,140356,128,0,140433:0:0:0:0:
320,192,140509,128,0,140586:0:0:0:0:
448,192,140509,128,0,140586:0:0:0:0:
448,192,140662,128,0,140866:0:0:0:0:
64,192,140662,128,0,141173:0:0:0:0:
192,192,140713,1,0,0:0:0:0:
192,192,140815,128,0,141071:0:0:0:0:
320,192,140866,128,0,140917:0:0:0:0:
448,192,140968,128,0,141173:0:0:0:0:
320,192,141019,1,0,0:0:0:0:
320,192,141122,128,0,141198:0:0:0:0:
192,192,141198,128,0,141810:0:0:0:0:
448,192,141275,128,0,141504:0:0:0:0:
64,192,141275,128,0,141504:0:0:0:0:
320,192,141275,128,0,141428:0:0:0:0:
64,192,141581,128,0,141657:0:0:0:0:
448,192,141581,128,0,141657:0:0:0:0:
64,192,141734,128,0,141810:0:0:0:0:
448,192,141734,128,0,141810:0:0:0:0:
64,192,141887,1,0,0:0:0:0:
320,192,141887,1,0,0:0:0:0:
448,192,141887,1,0,0:0:0:0:
192,192,142040,1,0,0:0:0:0:
64,192,142193,1,0,0:0:0:0:
192,192,142193,1,0,0:0:0:0:
448,192,142193,128,0,142269:0:0:0:0:
192,192,142346,1,0,0:0:0:0:
64,192,142499,128,0,142576:0:0:0:0:
448,192,142499,128,0,142576:0:0:0:0:
320,192,142499,128,0,142652:0:0:0:0:
64,192,142652,128,0,142729:0:0:0:0:
448,192,142652,128,0,142729:0:0:0:0:
192,192,142652,128,0,142805:0:0:0:0:
448,192,142805,128,0,142958:0:0:0:0:
64,192,142805,128,0,142882:0:0:0:0:
320,192,142805,128,0,142958:0:0:0:0:
64,192,142958,128,0,143035:0:0:0:0:
192,192,142997,128,0,143073:0:0:0:0:
320,192,143035,128,0,143111:0:0:0:0:
448,192,143073,128,0,143150:0:0:0:0:
64,192,143111,1,0,0:0:0:0:
192,192,143111,1,0,0:0:0:0:
448,192,143264,128,0,143341:0:0:0:0:
192,192,143264,128,0,143417:0:0:0:0:
448,192,143417,128,0,143647:0:0:0:0:
64,192,143417,128,0,143647:0:0:0:0:
320,192,143571,1,0,0:0:0:0:
192,192,143724,128,0,143800:0:0:0:0:
448,192,143724,1,0,0:0:0:0:
192,192,143877,128,0,143953:0:0:0:0:
448,192,143953,1,0,0:0:0:0:
192,192,144030,128,0,144183:0:0:0:0:
320,192,144030,128,0,144259:0:0:0:0:
64,192,144030,128,0,144106:0:0:0:0:
64,192,144336,128,0,144412:0:0:0:0:
448,192,144336,128,0,144565:0:0:0:0:
192,192,144412,128,0,144489:0:0:0:0:
64,192,144489,128,0,144565:0:0:0:0:
64,192,144642,128,0,144718:0:0:0:0:
192,192,144642,128,0,144718:0:0:0:0:
320,192,144642,128,0,144718:0:0:0:0:
448,192,144642,128,0,144718:0:0:0:0:
64,192,144795,1,0,0:0:0:0:
448,192,144795,1,0,0:0:0:0:
448,192,144948,128,0,145025:0:0:0:0:
320,192,144948,128,0,145025:0:0:0:0:
192,192,144986,128,0,145331:0:0:0:0:
64,192,145025,128,0,145292:0:0:0:0:
448,192,145101,1,0,0:0:0:0:
320,192,145101,128,0,145178:0:0:0:0:
448,192,145254,1,0,0:0:0:0:
320,192,145254,128,0,145331:0:0:0:0:
448,192,145407,128,0,145484:0:0:0:0:
64,192,145407,128,0,145484:0:0:0:0:
192,192,145446,128,0,145522:0:0:0:0:
320,192,145484,128,0,145560:0:0:0:0:
64,192,145560,1,0,0:0:0:0:
448,192,145560,1,0,0:0:0:0:
192,192,145713,1,0,0:0:0:0:
320,192,145713,1,0,0:0:0:0:
448,192,145866,128,0,146019:0:0:0:0:
64,192,145866,128,0,146019:0:0:0:0:
192,192,145866,128,0,145943:0:0:0:0:
320,192,145866,128,0,145943:0:0:0:0:
192,192,146019,128,0,146173:0:0:0:0:
320,192,146019,128,0,146173:0:0:0:0:
64,192,146173,1,0,0:0:0:0:
448,192,146173,1,0,0:0:0:0:
64,192,146275,1,0,0:0:0:0:
320,192,146275,1,0,0:0:0:0:
192,192,146377,1,0,0:0:0:0:
64,192,146377,1,0,0:0:0:0:
448,192,146479,1,0,0:0:0:0:
64,192,146479,1,0,0:0:0:0:
192,192,146581,1,0,0:0:0:0:
448,192,146581,1,0,0:0:0:0:
320,192,146683,1,0,0:0:0:0:
448,192,146683,1,0,0:0:0:0:
64,192,146785,128,0,146938:0:0:0:0:
192,192,146785,128,0,147091:0:0:0:0:
448,192,146785,128,0,147244:0:0:0:0:
320,192,146938,128,0,147014:0:0:0:0:
320,192,147091,128,0,147167:0:0:0:0:
64,192,147091,1,0,0:0:0:0:
320,192,147244,128,0,147321:0:0:0:0:
192,192,147244,1,0,0:0:0:0:
192,192,147397,1,0,0:0:0:0:
64,192,147397,128,0,147474:0:0:0:0:
448,192,147397,128,0,147550:0:0:0:0:
64,192,147550,128,0,147627:0:0:0:0:
192,192,147550,128,0,147703:0:0:0:0:
320,192,147703,128,0,147856:0:0:0:0:
64,192,147703,1,0,0:0:0:0:
448,192,147703,128,0,147780:0:0:0:0:
64,192,147856,128,0,148009:0:0:0:0:
192,192,147856,128,0,147933:0:0:0:0:
320,192,148009,1,0,0:0:0:0:
448,192,148009,1,0,0:0:0:0:
64,192,148124,1,0,0:0:0:0:
320,192,148162,128,0,148315:0:0:0:0:
192,192,148315,1,0,0:0:0:0:
64,192,148315,1,0,0:0:0:0:
448,192,148315,1,0,0:0:0:0:
320,192,148468,1,0,0:0:0:0:
64,192,148468,128,0,148622:0:0:0:0:
448,192,148622,128,0,149157:0:0:0:0:
320,192,148622,128,0,148660:0:0:0:0:
320,192,148775,128,0,148928:0:0:0:0:
192,192,148775,128,0,148813:0:0:0:0:
192,192,148928,128,0,149042:0:0:0:0:
64,192,148928,128,0,148966:0:0:0:0:
320,192,149081,128,0,149234:0:0:0:0:
192,192,149081,128,0,149119:0:0:0:0:
64,192,149234,128,0,149846:0:0:0:0:
448,192,149234,128,0,149540:0:0:0:0:
320,192,149540,128,0,149616:0:0:0:0:
192,192,149540,128,0,149655:0:0:0:0:
320,192,149693,128,0,149769:0:0:0:0:
448,192,149693,128,0,149808:0:0:0:0:
192,192,149846,128,0,149999:0:0:0:0:
320,192,149846,128,0,150382:0:0:0:0:
448,192,149999,128,0,150152:0:0:0:0:
64,192,149999,128,0,150152:0:0:0:0:
192,192,150152,128,0,150229:0:0:0:0:
64,192,150229,128,0,150305:0:0:0:0:
192,192,150305,128,0,150382:0:0:0:0:
64,192,150382,128,0,150458:0:0:0:0:
192,192,150458,128,0,150535:0:0:0:0:
448,192,150458,128,0,150535:0:0:0:0:
320,192,150458,128,0,150688:0:0:0:0:
192,192,150611,128,0,150688:0:0:0:0:
448,192,150611,128,0,150688:0:0:0:0:
448,192,150764,1,0,0:0:0:0:
64,192,150764,128,0,150841:0:0:0:0:
320,192,150764,128,0,150841:0:0:0:0:
192,192,150764,128,0,150994:0:0:0:0:
64,192,150917,128,0,150994:0:0:0:0:
320,192,150917,128,0,150994:0:0:0:0:
192,192,151071,128,0,151377:0:0:0:0:
64,192,151071,128,0,151377:0:0:0:0:
320,192,151071,128,0,151147:0:0:0:0:
448,192,151071,128,0,151147:0:0:0:0:
320,192,151224,128,0,151300:0:0:0:0:
448,192,151224,128,0,151300:0:0:0:0:
320,192,151377,128,0,151453:0:0:0:0:
448,192,151377,128,0,151453:0:0:0:0:
192,192,151453,128,0,151530:0:0:0:0:
64,192,151453,128,0,151530:0:0:0:0:
320,192,151530,128,0,151606:0:0:0:0:
448,192,151530,128,0,151606:0:0:0:0:
192,192,151606,128,0,151683:0:0:0:0:
64,192,151606,128,0,151683:0:0:0:0:
320,192,151683,128,0,151836:0:0:0:0:
448,192,151683,128,0,151836:0:0:0:0:
64,192,151989,1,0,0:0:0:0:
320,192,151989,1,0,0:0:0:0:
192,192,151989,128,0,152142:0:0:0:0:
448,192,151989,128,0,152142:0:0:0:0:
64,192,152142,1,0,0:0:0:0:
320,192,152142,1,0,0:0:0:0:
192,192,152295,128,0,152448:0:0:0:0:
64,192,152295,128,0,152448:0:0:0:0:
448,192,152295,1,0,0:0:0:0:
320,192,152448,1,0,0:0:0:0:
64,192,152601,128,0,152754:0:0:0:0:
320,192,152601,128,0,152907:0:0:0:0:
192,192,152601,1,0,0:0:0:0:
448,192,152601,1,0,0:0:0:0:
192,192,152754,1,0,0:0:0:0:
448,192,152754,128,0,152907:0:0:0:0:
64,192,152907,1,0,0:0:0:0:
192,192,152907,1,0,0:0:0:0:
448,192,153060,128,0,153366:0:0:0:0:
192,192,153213,128,0,153519:0:0:0:0:
64,192,153213,1,0,0:0:0:0:
320,192,153213,1,0,0:0:0:0:
320,192,153366,128,0,153673:0:0:0:0:
64,192,153366,1,0,0:0:0:0:
448,192,153519,128,0,153749:0:0:0:0:
64,192,153673,1,0,0:0:0:0:
192,192,153749,1,0,0:0:0:0:
320,192,153826,1,0,0:0:0:0:
448,192,153826,1,0,0:0:0:0:
64,192,153826,128,0,153979:0:0:0:0:
192,192,153979,1,0,0:0:0:0:
448,192,154132,128,0,154170:0:0:0:0:
320,192,154132,128,0,154208:0:0:0:0:
64,192,154132,128,0,154170:0:0:0:0:
192,192,154285,128,0,154361:0:0:0:0:
320,192,154285,128,0,154323:0:0:0:0:
448,192,154285,128,0,154361:0:0:0:0:
64,192,154438,128,0,154514:0:0:0:0:
192,192,154438,128,0,154476:0:0:0:0:
320,192,154438,128,0,154514:0:0:0:0:
192,192,154591,128,0,154667:0:0:0:0:
448,192,154591,128,0,154629:0:0:0:0:
64,192,154591,128,0,154629:0:0:0:0:
320,192,154667,128,0,154706:0:0:0:0:
64,192,154744,128,0,155280:0:0:0:0:
448,192,154744,128,0,154974:0:0:0:0:
320,192,154897,128,0,155050:0:0:0:0:
192,192,155050,1,0,0:0:0:0:
448,192,155050,1,0,0:0:0:0:
192,192,155203,128,0,155280:0:0:0:0:
320,192,155203,128,0,155280:0:0:0:0:
64,192,155356,128,0,155586:0:0:0:0:
448,192,155356,1,0,0:0:0:0:
192,192,155433,128,0,155662:0:0:0:0:
320,192,155509,128,0,155815:0:0:0:0:
448,192,155586,128,0,155892:0:0:0:0:
64,192,155662,1,0,0:0:0:0:
192,192,155739,128,0,155892:0:0:0:0:
64,192,155815,128,0,155968:0:0:0:0:
320,192,155968,128,0,156083:0:0:0:0:
448,192,156007,128,0,156160:0:0:0:0:
192,192,156122,128,0,156236:0:0:0:0:
320,192,156160,128,0,156275:0:0:0:0:
448,192,156275,1,0,0:0:0:0:
64,192,156275,128,0,156389:0:0:0:0:
192,192,156313,128,0,156428:0:0:0:0:
320,192,156428,128,0,156542:0:0:0:0:
448,192,156466,128,0,156581:0:0:0:0:
192,192,156581,128,0,156657:0:0:0:0:
64,192,156581,128,0,156657:0:0:0:0:
64,192,156734,1,0,0:0:0:0:
192,192,156734,1,0,0:0:0:0:
192,192,156887,1,0,0:0:0:0:
64,192,156887,1,0,0:0:0:0:
320,192,156887,128,0,156963:0:0:0:0:
448,192,156887,128,0,156963:0:0:0:0:
320,192,157040,1,0,0:0:0:0:
448,192,157040,1,0,0:0:0:0:
64,192,157193,128,0,157269:0:0:0:0:
320,192,157193,128,0,157269:0:0:0:0:
192,192,157346,128,0,157423:0:0:0:0:
448,192,157346,128,0,157423:0:0:0:0:
64,192,157499,1,0,0:0:0:0:
192,192,157499,1,0,0:0:0:0:
320,192,157499,1,0,0:0:0:0:
448,192,157499,1,0,0:0:0:0:
320,192,157652,128,0,157729:0:0:0:0:
448,192,157652,128,0,157729:0:0:0:0:
448,192,157805,1,0,0:0:0:0:
64,192,157805,1,0,0:0:0:0:
192,192,157805,1,0,0:0:0:0:
320,192,157958,128,0,158035:0:0:0:0:
192,192,157958,128,0,158035:0:0:0:0:
64,192,158111,128,0,158188:0:0:0:0:
192,192,158111,128,0,158188:0:0:0:0:
320,192,158111,1,0,0:0:0:0:
448,192,158111,1,0,0:0:0:0:
64,192,158264,128,0,158341:0:0:0:0:
448,192,158264,128,0,158341:0:0:0:0:
192,192,158417,128,0,158494:0:0:0:0:
448,192,158417,128,0,158647:0:0:0:0:
64,192,158494,128,0,158571:0:0:0:0:
320,192,158571,128,0,158647:0:0:0:0:
192,192,158647,128,0,158724:0:0:0:0:
64,192,158724,1,0,0:0:0:0:
448,192,158724,128,0,158877:0:0:0:0:
320,192,158724,128,0,158877:0:0:0:0:
192,192,158877,128,0,158953:0:0:0:0:
64,192,158877,128,0,158953:0:0:0:0:
320,192,159030,1,0,0:0:0:0:
64,192,159030,128,0,159106:0:0:0:0:
448,192,159030,128,0,159183:0:0:0:0:
192,192,159106,1,0,0:0:0:0:
64,192,159183,128,0,159336:0:0:0:0:
320,192,159183,128,0,159259:0:0:0:0:
320,192,159336,1,0,0:0:0:0:
192,192,159336,128,0,159489:0:0:0:0:
448,192,159336,128,0,159489:0:0:0:0:
320,192,159489,128,0,159642:0:0:0:0:
64,192,159489,128,0,159565:0:0:0:0:
192,192,159642,128,0,159795:0:0:0:0:
64,192,159642,128,0,159872:0:0:0:0:
448,192,159795,128,0,159872:0:0:0:0:
448,192,159948,1,0,0:0:0:0:
320,192,159948,1,0,0:0:0:0:
64,192,159948,1,0,0:0:0:0:
192,192,159948,1,0,0:0:0:0:
192,192,160101,128,0,160178:0:0:0:0:
320,192,160178,1,0,0:0:0:0:
64,192,160254,1,0,0:0:0:0:
448,192,160254,128,0,160407:0:0:0:0:
320,192,160331,128,0,160484:0:0:0:0:
192,192,160407,128,0,160560:0:0:0:0:
64,192,160484,128,0,160637:0:0:0:0:
448,192,160560,1,0,0:0:0:0:
320,192,160560,1,0,0:0:0:0:
192,192,160637,1,0,0:0:0:0:
64,192,160713,128,0,160790:0:0:0:0:
320,192,160713,128,0,160790:0:0:0:0:
192,192,160866,128,0,161019:0:0:0:0:
448,192,160866,128,0,160917:0:0:0:0:
448,192,160968,128,0,161019:0:0:0:0:
64,192,161019,128,0,161071:0:0:0:0:
320,192,161071,128,0,161122:0:0:0:0:
192,192,161122,128,0,161249:0:0:0:0:
320,192,161173,128,0,161249:0:0:0:0:
64,192,161173,128,0,161249:0:0:0:0:
448,192,161173,128,0,161249:0:0:0:0:
448,192,161479,1,0,0:0:0:0:
320,192,161479,128,0,161632:0:0:0:0:
64,192,161479,128,0,161632:0:0:0:0:
192,192,161785,128,0,161938:0:0:0:0:
448,192,161785,128,0,161938:0:0:0:0:
320,192,161785,1,0,0:0:0:0:
64,192,161785,1,0,0:0:0:0:
448,192,162091,128,0,162167:0:0:0:0:
64,192,162091,128,0,162321:0:0:0:0:
448,192,162244,128,0,162321:0:0:0:0:
192,192,162397,1,0,0:0:0:0:
448,192,162397,1,0,0:0:0:0:
64,192,162397,128,0,162550:0:0:0:0:
320,192,162397,128,0,162550:0:0:0:0:
192,192,162550,128,0,162627:0:0:0:0:
448,192,162550,128,0,162627:0:0:0:0:
320,192,162703,1,0,0:0:0:0:
448,192,162703,1,0,0:0:0:0:
64,192,162856,128,0,163009:0:0:0:0:
320,192,162856,128,0,162933:0:0:0:0:
192,192,163009,128,0,163315:0:0:0:0:
448,192,163009,128,0,163162:0:0:0:0:
320,192,163009,1,0,0:0:0:0:
64,192,163162,128,0,163392:0:0:0:0:
320,192,163162,1,0,0:0:0:0:
448,192,163315,128,0,163468:0:0:0:0:
320,192,163468,128,0,163928:0:0:0:0:
64,192,163468,1,0,0:0:0:0:
192,192,163545,1,0,0:0:0:0:
448,192,163622,128,0,163698:0:0:0:0:
64,192,163622,1,0,0:0:0:0:
448,192,163775,128,0,163928:0:0:0:0:
64,192,163775,1,0,0:0:0:0:
192,192,163928,128,0,164004:0:0:0:0:
64,192,163928,128,0,164004:0:0:0:0:
192,192,164081,128,0,164157:0:0:0:0:
320,192,164081,128,0,164157:0:0:0:0:
64,192,164234,1,0,0:0:0:0:
192,192,164234,1,0,0:0:0:0:
320,192,164234,1,0,0:0:0:0:
448,192,164234,1,0,0:0:0:0:
448,192,164387,128,0,164463:0:0:0:0:
192,192,164387,128,0,164463:0:0:0:0:
320,192,164463,128,0,164540:0:0:0:0:
192,192,164540,128,0,164616:0:0:0:0:
64,192,164540,128,0,164693:0:0:0:0:
192,192,164693,128,0,164846:0:0:0:0:
448,192,164693,128,0,164769:0:0:0:0:
448,192,164846,1,0,0:0:0:0:
320,192,164846,1,0,0:0:0:0:
64,192,164846,1,0,0:0:0:0:
320,192,164999,128,0,165152:0:0:0:0:
448,192,164999,1,0,0:0:0:0:
64,192,165152,128,0,165305:0:0:0:0:
448,192,165152,1,0,0:0:0:0:
192,192,165229,128,0,165382:0:0:0:0:
320,192,165305,128,0,165458:0:0:0:0:
448,192,165382,128,0,165688:0:0:0:0:
64,192,165458,1,0,0:0:0:0:
192,192,165458,1,0,0:0:0:0:
320,192,165535,128,0,165688:0:0:0:0:
192,192,165611,128,0,165764:0:0:0:0:
64,192,165764,128,0,165841:0:0:0:0:
448,192,165764,128,0,165841:0:0:0:0:
192,192,165841,1,0,0:0:0:0:
320,192,165866,1,0,0:0:0:0:
448,192,165917,128,0,165994:0:0:0:0:
64,192,165917,128,0,165994:0:0:0:0:
320,192,165968,1,0,0:0:0:0:
192,192,165994,1,0,0:0:0:0:
64,192,166071,128,0,166147:0:0:0:0:
448,192,166071,128,0,166147:0:0:0:0:
64,192,166224,128,0,166300:0:0:0:0:
448,192,166224,128,0,166300:0:0:0:0:
64,192,166377,128,0,166530:0:0:0:0:
192,192,166377,128,0,166453:0:0:0:0:
320,192,166377,128,0,166453:0:0:0:0:
448,192,166377,128,0,166530:0:0:0:0:
192,192,166530,1,0,0:0:0:0:
320,192,166530,1,0,0:0:0:0:
64,192,166683,128,0,166912:0:0:0:0:
448,192,166683,128,0,166912:0:0:0:0:
192,192,166683,1,0,0:0:0:0:
320,192,166683,1,0,0:0:0:0:
320,192,166836,128,0,166912:0:0:0:0:
192,192,166836,128,0,166912:0:0:0:0:
64,192,166989,128,0,167218:0:0:0:0:
192,192,166989,128,0,167065:0:0:0:0:
192,192,167142,128,0,167525:0:0:0:0:
320,192,167142,128,0,167218:0:0:0:0:
448,192,167142,128,0,167448:0:0:0:0:
64,192,167295,1,0,0:0:0:0:
64,192,167448,128,0,167601:0:0:0:0:
320,192,167448,1,0,0:0:0:0:
192,192,167601,1,0,0:0:0:0:
448,192,167601,1,0,0:0:0:0:
320,192,167754,128,0,167907:0:0:0:0:
192,192,167907,128,0,168060:0:0:0:0:
448,192,167907,128,0,168213:0:0:0:0:
64,192,167907,1,0,0:0:0:0:
64,192,168060,128,0,168213:0:0:0:0:
192,192,168213,128,0,168519:0:0:0:0:
320,192,168213,128,0,168366:0:0:0:0:
64,192,168443,128,0,168826:0:0:0:0:
448,192,168519,128,0,168596:0:0:0:0:
320,192,168558,128,0,168634:0:0:0:0:
192,192,168596,128,0,168826:0:0:0:0:
448,192,168673,1,0,0:0:0:0:
320,192,168826,1,0,0:0:0:0:
448,192,168826,1,0,0:0:0:0:
192,192,168979,128,0,169055:0:0:0:0:
320,192,168979,128,0,169055:0:0:0:0:
64,192,169132,1,0,0:0:0:0:
192,192,169132,1,0,0:0:0:0:
320,192,169132,128,0,169208:0:0:0:0:
448,192,169132,128,0,169208:0:0:0:0:
192,192,169285,128,0,169361:0:0:0:0:
64,192,169285,128,0,169361:0:0:0:0:
64,192,169438,128,0,169514:0:0:0:0:
320,192,169438,128,0,169514:0:0:0:0:
64,192,169591,128,0,169667:0:0:0:0:
320,192,169591,128,0,169667:0:0:0:0:
64,192,169744,1,0,0:0:0:0:
192,192,169744,1,0,0:0:0:0:
320,192,169744,1,0,0:0:0:0:
448,192,169744,1,0,0:0:0:0:
192,192,169897,128,0,169935:0:0:0:0:
448,192,170050,128,0,170203:0:0:0:0:
64,192,170050,128,0,170280:0:0:0:0:
320,192,170203,128,0,170356:0:0:0:0:
64,192,170356,128,0,170586:0:0:0:0:
192,192,170356,128,0,170509:0:0:0:0:
320,192,170433,1,0,0:0:0:0:
448,192,170509,1,0,0:0:0:0:
192,192,170662,1,0,0:0:0:0:
320,192,170662,128,0,170739:0:0:0:0:
64,192,170662,128,0,170815:0:0:0:0:
448,192,170739,1,0,0:0:0:0:
320,192,170815,128,0,170892:0:0:0:0:
192,192,170815,128,0,170968:0:0:0:0:
448,192,170892,1,0,0:0:0:0:
320,192,170968,128,0,171045:0:0:0:0:
64,192,170968,128,0,171122:0:0:0:0:
448,192,171045,1,0,0:0:0:0:
320,192,171122,128,0,171198:0:0:0:0:
192,192,171122,128,0,171198:0:0:0:0:
448,192,171198,1,0,0:0:0:0:
64,192,171275,128,0,171351:0:0:0:0:
192,192,171275,128,0,171351:0:0:0:0:
320,192,171275,128,0,171581:0:0:0:0:
64,192,171581,5,0,0:0:0:0:
192,192,171581,1,0,0:0:0:0:
448,192,171581,1,0,0:0:0:0:
448,192,171887,128,0,171963:0:0:0:0:
64,192,171887,128,0,172193:0:0:0:0:
320,192,171963,128,0,172040:0:0:0:0:
192,192,172040,128,0,172116:0:0:0:0:
320,192,172116,128,0,172193:0:0:0:0:
448,192,172193,1,0,0:0:0:0:
320,192,172499,128,0,173724:0:0:0:0:
64,192,172499,128,0,172652:0:0:0:0:
448,192,172652,1,0,0:0:0:0:
64,192,172729,1,0,0:0:0:0:
192,192,172805,128,0,172856:0:0:0:0:
448,192,172805,1,0,0:0:0:0:
192,192,172958,128,0,173009:0:0:0:0:
64,192,172958,1,0,0:0:0:0:
448,192,173111,128,0,173162:0:0:0:0:
192,192,173111,1,0,0:0:0:0:
64,192,173264,128,0,173366:0:0:0:0:
448,192,173264,1,0,0:0:0:0:
64,192,173417,128,0,173519:0:0:0:0:
448,192,173417,1,0,0:0:0:0:
192,192,173571,128,0,173622:0:0:0:0:
448,192,173571,1,0,0:0:0:0:
64,192,173647,1,0,0:0:0:0:
448,192,173724,128,0,173775:0:0:0:0:
192,192,173724,1,0,0:0:0:0:
320,192,173877,128,0,173928:0:0:0:0:
64,192,173877,1,0,0:0:0:0:
192,192,174030,128,0,174183:0:0:0:0:
320,192,174030,1,0,0:0:0:0:
320,192,174183,128,0,174336:0:0:0:0:
448,192,174183,1,0,0:0:0:0:
448,192,174336,128,0,174387:0:0:0:0:
64,192,174336,1,0,0:0:0:0:
448,192,174489,128,0,174540:0:0:0:0:
320,192,174489,1,0,0:0:0:0:
64,192,174565,1,0,0:0:0:0:
192,192,174642,128,0,174693:0:0:0:0:
320,192,174642,1,0,0:0:0:0:
192,192,174795,128,0,174846:0:0:0:0:
448,192,174795,1,0,0:0:0:0:
320,192,174948,128,0,175050:0:0:0:0:
64,192,174948,1,0,0:0:0:0:
448,192,174999,1,0,0:0:0:0:
320,192,175254,128,0,175305:0:0:0:0:
64,192,175254,1,0,0:0:0:0:
448,192,175305,1,0,0:0:0:0:
320,192,175407,128,0,175458:0:0:0:0:
192,192,175407,1,0,0:0:0:0:
448,192,175458,1,0,0:0:0:0:
448,192,175560,128,0,175611:0:0:0:0:
64,192,175560,1,0,0:0:0:0:
320,192,175713,128,0,175764:0:0:0:0:
192,192,175713,1,0,0:0:0:0:
192,192,175866,128,0,175968:0:0:0:0:
448,192,175866,1,0,0:0:0:0:
320,192,176173,128,0,176326:0:0:0:0:
192,192,176173,1,0,0:0:0:0:
448,192,176326,128,0,176428:0:0:0:0:
192,192,176326,1,0,0:0:0:0:
64,192,176479,128,0,176530:0:0:0:0:
320,192,176479,1,0,0:0:0:0:
192,192,176632,128,0,176683:0:0:0:0:
448,192,176632,1,0,0:0:0:0:
320,192,176708,1,0,0:0:0:0:
192,192,176785,128,0,176836:0:0:0:0:
64,192,176785,1,0,0:0:0:0:
448,192,176938,128,0,176989:0:0:0:0:
320,192,176938,1,0,0:0:0:0:
320,192,177091,128,0,177142:0:0:0:0:
64,192,177091,1,0,0:0:0:0:
320,192,177244,128,0,177295:0:0:0:0:
64,192,177244,1,0,0:0:0:0:
64,192,177397,128,0,177856:0:0:0:0:
448,192,177397,1,0,0:0:0:0:
320,192,177474,1,0,0:0:0:0:
192,192,177550,128,0,177601:0:0:0:0:
448,192,177550,1,0,0:0:0:0:
320,192,177703,128,0,177754:0:0:0:0:
448,192,177703,1,0,0:0:0:0:
192,192,177780,1,0,0:0:0:0:
448,192,177856,1,0,0:0:0:0:
320,192,177856,1,0,0:0:0:0:
320,192,178009,128,0,178111:0:0:0:0:
448,192,178009,128,0,178060:0:0:0:0:
64,192,178009,1,0,0:0:0:0:
192,192,178315,128,0,178366:0:0:0:0:
64,192,178315,1,0,0:0:0:0:
448,192,178366,1,0,0:0:0:0:
192,192,178468,128,0,178519:0:0:0:0:
64,192,178468,1,0,0:0:0:0:
320,192,178519,1,0,0:0:0:0:
448,192,178622,128,0,179081:0:0:0:0:
64,192,178622,128,0,178673:0:0:0:0:
64,192,178775,128,0,178826:0:0:0:0:
320,192,178775,1,0,0:0:0:0:
64,192,178928,128,0,179081:0:0:0:0:
192,192,178928,1,0,0:0:0:0:
320,192,179081,1,0,0:0:0:0:
192,192,179234,128,0,179336:0:0:0:0:
448,192,179234,1,0,0:0:0:0:
320,192,179387,1,0,0:0:0:0:
320,192,179540,128,0,179591:0:0:0:0:
64,192,179540,1,0,0:0:0:0:
448,192,179693,128,0,179744:0:0:0:0:
320,192,179693,1,0,0:0:0:0:
192,192,179769,128,0,179808:0:0:0:0:
64,192,179769,1,0,0:0:0:0:
320,192,179846,128,0,180152:0:0:0:0:
448,192,179846,1,0,0:0:0:0:
64,192,179999,128,0,180076:0:0:0:0:
192,192,179999,1,0,0:0:0:0:
64,192,180152,128,0,180229:0:0:0:0:
192,192,180152,1,0,0:0:0:0:
192,192,180305,1,0,0:0:0:0:
448,192,180305,128,0,180764:0:0:0:0:
64,192,180382,1,0,0:0:0:0:
320,192,180458,128,0,180688:0:0:0:0:
192,192,180458,128,0,180611:0:0:0:0:
64,192,180611,1,0,0:0:0:0:
192,192,180688,1,0,0:0:0:0:
320,192,180764,128,0,180841:0:0:0:0:
64,192,180764,128,0,180917:0:0:0:0:
192,192,181071,128,0,181224:0:0:0:0:
448,192,181071,128,0,181122:0:0:0:0:
448,192,181224,128,0,181275:0:0:0:0:
320,192,181224,1,0,0:0:0:0:
320,192,181377,128,0,181530:0:0:0:0:
64,192,181377,128,0,181428:0:0:0:0:
192,192,181530,128,0,181581:0:0:0:0:
448,192,181530,1,0,0:0:0:0:
192,192,181683,128,0,182295:0:0:0:0:
448,192,181683,128,0,181734:0:0:0:0:
448,192,181836,128,0,181887:0:0:0:0:
320,192,181836,1,0,0:0:0:0:
64,192,181989,128,0,182040:0:0:0:0:
320,192,181989,1,0,0:0:0:0:
64,192,182142,128,0,182193:0:0:0:0:
448,192,182142,1,0,0:0:0:0:
320,192,182295,128,0,182601:0:0:0:0:
448,192,182295,128,0,182346:0:0:0:0:
192,192,182372,1,0,0:0:0:0:
64,192,182448,128,0,182499:0:0:0:0:
448,192,182525,1,0,0:0:0:0:
192,192,182601,128,0,182907:0:0:0:0:
64,192,182601,128,0,182754:0:0:0:0:
320,192,182754,1,0,0:0:0:0:
448,192,182907,128,0,183060:0:0:0:0:
64,192,182907,128,0,182958:0:0:0:0:
320,192,183060,128,0,183111:0:0:0:0:
192,192,183060,1,0,0:0:0:0:
320,192,183213,128,0,183264:0:0:0:0:
192,192,183213,1,0,0:0:0:0:
64,192,183366,128,0,183417:0:0:0:0:
192,192,183366,1,0,0:0:0:0:
320,192,183443,1,0,0:0:0:0:
448,192,183519,128,0,183571:0:0:0:0:
64,192,183519,1,0,0:0:0:0:
192,192,183673,128,0,183724:0:0:0:0:
320,192,183673,1,0,0:0:0:0:
448,192,183749,1,0,0:0:0:0:
64,192,183826,128,0,183928:0:0:0:0:
192,192,183826,1,0,0:0:0:0:
320,192,183979,128,0,184030:0:0:0:0:
448,192,183979,1,0,0:0:0:0:
192,192,184132,128,0,184183:0:0:0:0:
320,192,184132,1,0,0:0:0:0:
448,192,184183,1,0,0:0:0:0:
192,192,184285,128,0,184336:0:0:0:0:
64,192,184285,1,0,0:0:0:0:
320,192,184336,1,0,0:0:0:0:
448,192,184438,128,0,184489:0:0:0:0:
192,192,184438,1,0,0:0:0:0:
64,192,184489,1,0,0:0:0:0:
448,192,184591,128,0,184642:0:0:0:0:
320,192,184591,1,0,0:0:0:0:
192,192,184642,1,0,0:0:0:0:
320,192,184744,128,0,184846:0:0:0:0:
64,192,184744,128,0,185050:0:0:0:0:
192,192,184897,128,0,184974:0:0:0:0:
448,192,184897,1,0,0:0:0:0:
320,192,184974,128,0,185050:0:0:0:0:
192,192,185050,128,0,185458:0:0:0:0:
448,192,185050,128,0,185280:0:0:0:0:
64,192,185203,128,0,185356:0:0:0:0:
320,192,185356,128,0,185611:0:0:0:0:
448,192,185356,1,0,0:0:0:0:
192,192,185509,128,0,185662:0:0:0:0:
448,192,185509,1,0,0:0:0:0:
320,192,185662,128,0,185764:0:0:0:0:
64,192,185662,1,0,0:0:0:0:
448,192,185815,1,0,0:0:0:0:
192,192,185892,1,0,0:0:0:0:
64,192,185968,128,0,186019:0:0:0:0:
320,192,185968,1,0,0:0:0:0:
64,192,186122,128,0,186173:0:0:0:0:
320,192,186122,1,0,0:0:0:0:
448,192,186275,128,0,186326:0:0:0:0:
192,192,186275,1,0,0:0:0:0:
320,192,186428,128,0,186479:0:0:0:0:
192,192,186428,1,0,0:0:0:0:
64,192,186581,128,0,186632:0:0:0:0:
448,192,186581,1,0,0:0:0:0:
448,192,186683,1,0,0:0:0:0:
320,192,186734,128,0,186785:0:0:0:0:
64,192,186785,1,0,0:0:0:0:
192,192,186887,128,0,186938:0:0:0:0:
64,192,186887,1,0,0:0:0:0:
192,192,187040,128,0,187091:0:0:0:0:
448,192,187040,1,0,0:0:0:0:
320,192,187193,128,0,187448:0:0:0:0:
64,192,187193,128,0,187499:0:0:0:0:
320,192,187499,128,0,187754:0:0:0:0:
192,192,187499,128,0,187805:0:0:0:0:
64,192,187652,128,0,187805:0:0:0:0:
448,192,187652,128,0,187729:0:0:0:0:
320,192,187805,128,0,187907:0:0:0:0:
448,192,187805,128,0,188111:0:0:0:0:
192,192,187958,128,0,188009:0:0:0:0:
64,192,187958,1,0,0:0:0:0:
320,192,188035,1,0,0:0:0:0:
192,192,188111,128,0,188162:0:0:0:0:
64,192,188111,1,0,0:0:0:0:
192,192,188264,128,0,188315:0:0:0:0:
448,192,188264,1,0,0:0:0:0:
320,192,188417,128,0,189030:0:0:0:0:
64,192,188417,128,0,189336:0:0:0:0:
448,192,188571,128,0,188647:0:0:0:0:
192,192,188571,1,0,0:0:0:0:
448,192,188724,128,0,188953:0:0:0:0:
192,192,188724,1,0,0:0:0:0:
192,192,188877,128,0,188953:0:0:0:0:
192,192,189030,128,0,189642:0:0:0:0:
448,192,189030,128,0,189489:0:0:0:0:
320,192,189183,1,0,0:0:0:0:
320,192,189336,128,0,189565:0:0:0:0:
64,192,189489,1,0,0:0:0:0:
448,192,189565,1,0,0:0:0:0:
64,192,189642,128,0,189693:0:0:0:0:
320,192,189642,1,0,0:0:0:0:
64,192,189795,128,0,189846:0:0:0:0:
448,192,189795,128,0,189948:0:0:0:0:
192,192,189948,128,0,190254:0:0:0:0:
320,192,189948,128,0,190050:0:0:0:0:
64,192,189999,128,0,190254:0:0:0:0:
320,192,190254,128,0,190560:0:0:0:0:
448,192,190254,128,0,190484:0:0:0:0:
192,192,190305,128,0,190560:0:0:0:0:
448,192,190560,128,0,190662:0:0:0:0:
64,192,190560,128,0,190866:0:0:0:0:
320,192,190611,128,0,190866:0:0:0:0:
192,192,190866,128,0,190917:0:0:0:0:
448,192,190866,1,0,0:0:0:0:
320,192,191019,128,0,191058:0:0:0:0:
448,192,191019,1,0,0:0:0:0:
192,192,191173,128,0,191211:0:0:0:0:
448,192,191173,1,0,0:0:0:0:
320,192,191326,128,0,191377:0:0:0:0:
448,192,191326,1,0,0:0:0:0:
64,192,191479,128,0,191938:0:0:0:0:
192,192,191479,128,0,192091:0:0:0:0:
448,192,191632,1,0,0:0:0:0:
320,192,191708,1,0,0:0:0:0:
448,192,191785,128,0,191861:0:0:0:0:
448,192,191938,128,0,192091:0:0:0:0:
320,192,191938,1,0,0:0:0:0:
64,192,192091,5,0,0:0:0:0:
448,192,192244,5,0,0:0:0:0:
320,192,192397,1,0,0:0:0:0:
192,192,192703,128,0,192780:0:0:0:0:
192,192,193009,128,0,193239:0:0:0:0:
64,192,193315,128,0,194540:0:0:0:0:
320,192,193315,128,0,193392:0:0:0:0:
448,192,193315,128,0,193622:0:0:0:0:
320,192,193468,128,0,193545:0:0:0:0:
320,192,193622,128,0,193724:0:0:0:0:
320,192,193775,128,0,193928:0:0:0:0:
192,192,193775,1,0,0:0:0:0:
192,192,193928,128,0,194157:0:0:0:0:
448,192,193928,128,0,194081:0:0:0:0:
320,192,194081,128,0,194157:0:0:0:0:
192,192,194234,128,0,194310:0:0:0:0:
320,192,194234,128,0,194310:0:0:0:0:
192,192,194387,128,0,194463:0:0:0:0:
320,192,194387,128,0,194540:0:0:0:0:
448,192,194540,128,0,195764:0:0:0:0:
192,192,194540,128,0,194846:0:0:0:0:
64,192,194693,128,0,194769:0:0:0:0:
320,192,194693,128,0,194999:0:0:0:0:
64,192,194846,128,0,194948:0:0:0:0:
64,192,194999,128,0,195152:0:0:0:0:
192,192,194999,1,0,0:0:0:0:
192,192,195152,128,0,195458:0:0:0:0:
320,192,195152,128,0,195305:0:0:0:0:
64,192,195305,128,0,195382:0:0:0:0:
320,192,195458,128,0,195535:0:0:0:0:
64,192,195458,128,0,195535:0:0:0:0:
320,192,195611,128,0,195764:0:0:0:0:
64,192,195611,128,0,195688:0:0:0:0:
192,192,195764,128,0,196989:0:0:0:0:
64,192,195764,128,0,196071:0:0:0:0:
320,192,195917,128,0,195994:0:0:0:0:
320,192,196071,128,0,196173:0:0:0:0:
320,192,196224,128,0,196377:0:0:0:0:
64,192,196224,1,0,0:0:0:0:
448,192,196377,128,0,196683:0:0:0:0:
64,192,196377,128,0,196530:0:0:0:0:
320,192,196530,128,0,196606:0:0:0:0:
64,192,196683,128,0,196759:0:0:0:0:
320,192,196683,128,0,196836:0:0:0:0:
64,192,196836,128,0,196912:0:0:0:0:
448,192,196836,128,0,196989:0:0:0:0:
320,192,196989,128,0,198213:0:0:0:0:
64,192,196989,128,0,197295:0:0:0:0:
192,192,197142,128,0,197295:0:0:0:0:
448,192,197295,128,0,197372:0:0:0:0:
448,192,197448,128,0,197601:0:0:0:0:
64,192,197448,128,0,197525:0:0:0:0:
192,192,197601,128,0,197754:0:0:0:0:
64,192,197601,128,0,197831:0:0:0:0:
448,192,197754,128,0,197907:0:0:0:0:
192,192,197907,128,0,198213:0:0:0:0:
64,192,197907,128,0,198137:0:0:0:0:
448,192,198213,128,0,199438:0:0:0:0:
64,192,198213,128,0,198519:0:0:0:0:
192,192,198366,128,0,198443:0:0:0:0:
192,192,198519,128,0,198622:0:0:0:0:
192,192,198673,128,0,198826:0:0:0:0:
320,192,198673,1,0,0:0:0:0:
320,192,198826,128,0,199132:0:0:0:0:
64,192,198826,128,0,198979:0:0:0:0:
192,192,198979,128,0,199055:0:0:0:0:
192,192,199132,128,0,199285:0:0:0:0:
64,192,199132,128,0,199208:0:0:0:0:
64,192,199285,128,0,199361:0:0:0:0:
320,192,199285,128,0,199438:0:0:0:0:
64,192,199438,128,0,200662:0:0:0:0:
192,192,199438,128,0,199744:0:0:0:0:
320,192,199591,128,0,199667:0:0:0:0:
320,192,199744,128,0,199846:0:0:0:0:
320,192,199897,128,0,200050:0:0:0:0:
448,192,199897,1,0,0:0:0:0:
192,192,200050,128,0,200203:0:0:0:0:
448,192,200050,128,0,200356:0:0:0:0:
320,192,200203,128,0,200280:0:0:0:0:
192,192,200356,128,0,200433:0:0:0:0:
320,192,200356,128,0,200509:0:0:0:0:
192,192,200509,128,0,200662:0:0:0:0:
448,192,200509,128,0,200586:0:0:0:0:
448,192,200662,128,0,201887:0:0:0:0:
320,192,200662,128,0,200968:0:0:0:0:
192,192,200815,128,0,200892:0:0:0:0:
192,192,200968,128,0,201071:0:0:0:0:
192,192,201122,128,0,201275:0:0:0:0:
320,192,201122,1,0,0:0:0:0:
64,192,201275,128,0,201351:0:0:0:0:
320,192,201275,128,0,201581:0:0:0:0:
64,192,201428,128,0,201504:0:0:0:0:
192,192,201581,128,0,201657:0:0:0:0:
64,192,201581,1,0,0:0:0:0:
64,192,201734,128,0,201810:0:0:0:0:
320,192,201734,1,0,0:0:0:0:
192,192,201887,128,0,203111:0:0:0:0:
320,192,201887,128,0,202193:0:0:0:0:
448,192,202040,128,0,202116:0:0:0:0:
64,192,202193,128,0,202269:0:0:0:0:
320,192,202346,1,0,0:0:0:0:
448,192,202346,128,0,202423:0:0:0:0:
448,192,202499,1,0,0:0:0:0:
64,192,202499,128,0,202805:0:0:0:0:
448,192,202601,1,0,0:0:0:0:
448,192,202703,1,0,0:0:0:0:
320,192,202805,128,0,203035:0:0:0:0:
448,192,202958,128,0,203111:0:0:0:0:
320,192,203111,128,0,204336:0:0:0:0:
64,192,203111,128,0,203417:0:0:0:0:
192,192,203264,128,0,203341:0:0:0:0:
192,192,203417,128,0,203519:0:0:0:0:
192,192,203571,128,0,203724:0:0:0:0:
64,192,203571,1,0,0:0:0:0:
448,192,203724,128,0,204030:0:0:0:0:
64,192,203724,128,0,203877:0:0:0:0:
192,192,203877,128,0,203953:0:0:0:0:
192,192,204030,128,0,204183:0:0:0:0:
64,192,204030,1,0,0:0:0:0:
64,192,204183,128,0,204336:0:0:0:0:
448,192,204183,128,0,204259:0:0:0:0:
192,192,204336,128,0,204387:0:0:0:0:
448,192,204336,128,0,204387:0:0:0:0:
320,192,204642,128,0,204718:0:0:0:0:
448,192,204642,128,0,204795:0:0:0:0:
320,192,204795,128,0,204948:0:0:0:0:
192,192,204795,128,0,204872:0:0:0:0:
64,192,204948,128,0,205560:0:0:0:0:
192,192,204948,128,0,205178:0:0:0:0:
448,192,205101,128,0,205254:0:0:0:0:
320,192,205254,128,0,205484:0:0:0:0:
192,192,205254,128,0,205331:0:0:0:0:
192,192,205407,128,0,205560:0:0:0:0:
448,192,205560,128,0,206785:0:0:0:0:
320,192,205560,128,0,205866:0:0:0:0:
64,192,205713,128,0,205790:0:0:0:0:
64,192,205866,128,0,205968:0:0:0:0:
64,192,206019,128,0,206173:0:0:0:0:
192,192,206019,1,0,0:0:0:0:
192,192,206173,128,0,206479:0:0:0:0:
320,192,206173,128,0,206326:0:0:0:0:
64,192,206326,128,0,206402:0:0:0:0:
64,192,206479,128,0,206632:0:0:0:0:
320,192,206479,128,0,206555:0:0:0:0:
320,192,206632,128,0,206785:0:0:0:0:
192,192,206632,128,0,206708:0:0:0:0:
64,192,206785,128,0,207091:0:0:0:0:
192,192,206785,128,0,208009:0:0:0:0:
320,192,206938,128,0,207014:0:0:0:0:
320,192,207091,128,0,207193:0:0:0:0:
320,192,207244,128,0,207397:0:0:0:0:
64,192,207244,1,0,0:0:0:0:
448,192,207397,128,0,207703:0:0:0:0:
64,192,207397,128,0,207550:0:0:0:0:
320,192,207499,1,0,0:0:0:0:
64,192,207601,1,0,0:0:0:0:
320,192,207703,128,0,207933:0:0:0:0:
64,192,207703,128,0,207856:0:0:0:0:
448,192,207856,128,0,208009:0:0:0:0:
64,192,208009,128,0,209234:0:0:0:0:
320,192,208009,128,0,208315:0:0:0:0:
448,192,208162,128,0,208239:0:0:0:0:
448,192,208315,128,0,208417:0:0:0:0:
448,192,208468,128,0,208622:0:0:0:0:
192,192,208468,1,0,0:0:0:0:
192,192,208622,128,0,208928:0:0:0:0:
320,192,208622,128,0,208775:0:0:0:0:
448,192,208775,128,0,208851:0:0:0:0:
448,192,208928,128,0,209081:0:0:0:0:
320,192,208928,128,0,209004:0:0:0:0:
320,192,209081,128,0,209234:0:0:0:0:
192,192,209081,128,0,209157:0:0:0:0:
448,192,209234,128,0,210458:0:0:0:0:
192,192,209234,128,0,209540:0:0:0:0:
64,192,209387,128,0,209463:0:0:0:0:
320,192,209463,1,0,0:0:0:0:
64,192,209540,128,0,209642:0:0:0:0:
64,192,209693,128,0,209846:0:0:0:0:
320,192,209693,1,0,0:0:0:0:
192,192,209846,128,0,209999:0:0:0:0:
320,192,209846,128,0,210050:0:0:0:0:
64,192,209999,1,0,0:0:0:0:
192,192,210152,128,0,210458:0:0:0:0:
320,192,210152,1,0,0:0:0:0:
64,192,210305,128,0,210382:0:0:0:0:
320,192,210305,1,0,0:0:0:0:
320,192,210458,128,0,211683:0:0:0:0:
64,192,210458,128,0,210764:0:0:0:0:
192,192,210611,128,0,210688:0:0:0:0:
192,192,210764,128,0,210866:0:0:0:0:
192,192,210917,128,0,211071:0:0:0:0:
64,192,210917,1,0,0:0:0:0:
448,192,211071,128,0,211377:0:0:0:0:
64,192,211071,128,0,211224:0:0:0:0:
192,192,211224,128,0,211300:0:0:0:0:
192,192,211377,128,0,211453:0:0:0:0:
64,192,211377,128,0,211530:0:0:0:0:
192,192,211530,128,0,211683:0:0:0:0:
448,192,211530,128,0,211606:0:0:0:0:
64,192,211683,128,0,212907:0:0:0:0:
448,192,211683,128,0,211785:0:0:0:0:
320,192,211836,128,0,211989:0:0:0:0:
192,192,211836,1,0,0:0:0:0:
448,192,211989,128,0,212091:0:0:0:0:
192,192,211989,1,0,0:0:0:0:
320,192,212142,128,0,212295:0:0:0:0:
192,192,212142,128,0,212218:0:0:0:0:
192,192,212295,1,0,0:0:0:0:
448,192,212295,128,0,212448:0:0:0:0:
320,192,212397,128,0,212550:0:0:0:0:
192,192,212499,128,0,212652:0:0:0:0:
448,192,212601,128,0,212754:0:0:0:0:
320,192,212703,128,0,212856:0:0:0:0:
192,192,212805,128,0,212856:0:0:0:0:
192,192,212907,1,0,0:0:0:0:
320,192,212907,1,0,0:0:0:0:
448,192,212907,1,0,0:0:0:0:
320,192,213366,1,0,0:0:0:0:
192,192,213673,1,0,0:0:0:0:
320,192,213826,1,0,0:0:0:0:
192,192,213979,1,0,0:0:0:0:
64,192,214132,128,0,214438:0:0:0:0:
448,192,214132,128,0,214438:0:0:0:0:
320,192,214132,128,0,214208:0:0:0:0:
192,192,214132,128,0,214208:0:0:0:0:
64,192,214744,128,0,214821:0:0:0:0:
192,192,214744,128,0,214821:0:0:0:0:
320,192,214744,128,0,215050:0:0:0:0:
64,192,215050,1,0,0:0:0:0:
192,192,215050,1,0,0:0:0:0:
448,192,215050,1,0,0:0:0:0:
448,192,215356,128,0,215586:0:0:0:0:
64,192,215356,128,0,215586:0:0:0:0:
192,192,215356,1,0,0:0:0:0:
192,192,215509,128,0,215662:0:0:0:0:
320,192,215662,1,0,0:0:0:0:
448,192,215662,128,0,216122:0:0:0:0:
64,192,215662,128,0,215968:0:0:0:0:
320,192,215815,128,0,215968:0:0:0:0:
192,192,215968,128,0,216275:0:0:0:0:
64,192,216122,128,0,216198:0:0:0:0:
320,192,216122,1,0,0:0:0:0:
64,192,216275,128,0,216428:0:0:0:0:
448,192,216275,1,0,0:0:0:0:
320,192,216275,128,0,216351:0:0:0:0:
320,192,216428,128,0,216504:0:0:0:0:
448,192,216504,1,0,0:0:0:0:
192,192,216504,1,0,0:0:0:0:
320,192,216581,128,0,216734:0:0:0:0:
64,192,216581,128,0,216810:0:0:0:0:
448,192,216734,128,0,216810:0:0:0:0:
192,192,216734,1,0,0:0:0:0:
448,192,216887,128,0,217116:0:0:0:0:
320,192,216887,128,0,217040:0:0:0:0:
192,192,216887,128,0,216963:0:0:0:0:
64,192,216887,1,0,0:0:0:0:
64,192,217040,128,0,217193:0:0:0:0:
192,192,217116,128,0,217193:0:0:0:0:
320,192,217193,128,0,217269:0:0:0:0:
448,192,217193,128,0,217423:0:0:0:0:
192,192,217346,128,0,217423:0:0:0:0:
320,192,217346,128,0,217652:0:0:0:0:
192,192,217499,128,0,217805:0:0:0:0:
64,192,217499,128,0,217576:0:0:0:0:
448,192,217499,128,0,217805:0:0:0:0:
64,192,217652,1,0,0:0:0:0:
320,192,217805,128,0,217856:0:0:0:0:
64,192,217805,128,0,217907:0:0:0:0:
448,192,217856,128,0,217907:0:0:0:0:
192,192,217907,128,0,217958:0:0:0:0:
320,192,217958,128,0,218009:0:0:0:0:
64,192,218009,128,0,218060:0:0:0:0:
192,192,218060,128,0,218111:0:0:0:0:
64,192,218111,128,0,218264:0:0:0:0:
448,192,218111,128,0,218341:0:0:0:0:
320,192,218111,128,0,218264:0:0:0:0:
192,192,218264,1,0,0:0:0:0:
64,192,218341,128,0,218494:0:0:0:0:
192,192,218417,128,0,218647:0:0:0:0:
320,192,218417,128,0,218494:0:0:0:0:
448,192,218417,128,0,218571:0:0:0:0:
320,192,218571,1,0,0:0:0:0:
448,192,218647,128,0,218800:0:0:0:0:
192,192,218724,128,0,218800:0:0:0:0:
320,192,218724,128,0,218953:0:0:0:0:
64,192,218724,128,0,218877:0:0:0:0:
192,192,218877,1,0,0:0:0:0:
64,192,218953,128,0,219068:0:0:0:0:
448,192,219030,128,0,219259:0:0:0:0:
192,192,219030,128,0,219068:0:0:0:0:
320,192,219183,128,0,219412:0:0:0:0:
64,192,219183,128,0,219221:0:0:0:0:
192,192,219336,128,0,219565:0:0:0:0:
448,192,219336,128,0,219374:0:0:0:0:
64,192,219489,128,0,219718:0:0:0:0:
320,192,219489,128,0,219527:0:0:0:0:
448,192,219489,128,0,219718:0:0:0:0:
320,192,219642,128,0,219680:0:0:0:0:
192,192,219642,128,0,219872:0:0:0:0:
448,192,219795,128,0,219833:0:0:0:0:
320,192,219795,128,0,220025:0:0:0:0:
64,192,219948,128,0,219986:0:0:0:0:
448,192,219948,128,0,220178:0:0:0:0:
192,192,219948,1,0,0:0:0:0:
192,192,220101,128,0,220139:0:0:0:0:
64,192,220101,128,0,220254:0:0:0:0:
448,192,220254,128,0,220560:0:0:0:0:
320,192,220254,128,0,220407:0:0:0:0:
192,192,220407,128,0,220484:0:0:0:0:
64,192,220560,128,0,220866:0:0:0:0:
192,192,220560,128,0,220713:0:0:0:0:
320,192,220560,1,0,0:0:0:0:
448,192,220713,128,0,220866:0:0:0:0:
320,192,220713,128,0,220790:0:0:0:0:
192,192,220866,128,0,220943:0:0:0:0:
320,192,220866,128,0,220943:0:0:0:0:
64,192,221019,128,0,221096:0:0:0:0:
192,192,221019,128,0,221173:0:0:0:0:
64,192,221173,128,0,221249:0:0:0:0:
320,192,221173,128,0,221326:0:0:0:0:
448,192,221173,1,0,0:0:0:0:
64,192,221326,128,0,221402:0:0:0:0:
448,192,221326,128,0,221479:0:0:0:0:
192,192,221402,1,0,0:0:0:0:
320,192,221479,128,0,221861:0:0:0:0:
64,192,221479,128,0,221861:0:0:0:0:
192,192,221785,128,0,222091:0:0:0:0:
448,192,221785,128,0,222014:0:0:0:0:
320,192,221938,128,0,222321:0:0:0:0:
64,192,222091,128,0,222397:0:0:0:0:
448,192,222091,128,0,222244:0:0:0:0:
192,192,222244,1,0,0:0:0:0:
192,192,222397,128,0,222474:0:0:0:0:
448,192,222397,128,0,222474:0:0:0:0:
320,192,222397,128,0,222474:0:0:0:0:
192,192,222550,128,0,222627:0:0:0:0:
64,192,222550,128,0,222627:0:0:0:0:
320,192,222550,128,0,222627:0:0:0:0:
64,192,222703,128,0,223086:0:0:0:0:
448,192,222703,128,0,223086:0:0:0:0:
192,192,222703,1,0,0:0:0:0:
192,192,223009,128,0,223162:0:0:0:0:
320,192,223009,128,0,223162:0:0:0:0:
64,192,223162,1,0,0:0:0:0:
448,192,223162,1,0,0:0:0:0:
320,192,223315,128,0,223545:0:0:0:0:
448,192,223315,128,0,223392:0:0:0:0:
448,192,223468,128,0,223622:0:0:0:0:
192,192,223622,128,0,223928:0:0:0:0:
64,192,223622,128,0,223775:0:0:0:0:
320,192,223622,1,0,0:0:0:0:
64,192,223851,128,0,223928:0:0:0:0:
448,192,223928,128,0,224081:0:0:0:0:
320,192,223928,128,0,224004:0:0:0:0:
320,192,224081,128,0,224234:0:0:0:0:
192,192,224081,128,0,224157:0:0:0:0:
64,192,224234,128,0,224310:0:0:0:0:
192,192,224234,128,0,224463:0:0:0:0:
448,192,224234,128,0,224693:0:0:0:0:
192,192,224540,1,0,0:0:0:0:
64,192,224540,128,0,224616:0:0:0:0:
192,192,224693,128,0,224769:0:0:0:0:
320,192,224693,128,0,224999:0:0:0:0:
192,192,224846,1,0,0:0:0:0:
64,192,224846,1,0,0:0:0:0:
448,192,224846,1,0,0:0:0:0:
448,192,224999,1,0,0:0:0:0:
192,192,224999,1,0,0:0:0:0:
64,192,224999,1,0,0:0:0:0:
64,192,225152,128,0,225382:0:0:0:0:
448,192,225152,128,0,225382:0:0:0:0:
320,192,225152,1,0,0:0:0:0:
320,192,225305,128,0,225458:0:0:0:0:
192,192,225458,1,0,0:0:0:0:
64,192,225458,128,0,225917:0:0:0:0:
448,192,225458,128,0,225764:0:0:0:0:
192,192,225611,128,0,225764:0:0:0:0:
320,192,225764,128,0,226071:0:0:0:0:
448,192,225917,128,0,225994:0:0:0:0:
192,192,225917,1,0,0:0:0:0:
448,192,226071,128,0,226224:0:0:0:0:
64,192,226071,1,0,0:0:0:0:
192,192,226071,128,0,226147:0:0:0:0:
192,192,226224,128,0,226300:0:0:0:0:
64,192,226300,1,0,0:0:0:0:
320,192,226300,1,0,0:0:0:0:
192,192,226377,128,0,226530:0:0:0:0:
448,192,226377,128,0,226606:0:0:0:0:
64,192,226530,128,0,226606:0:0:0:0:
320,192,226530,1,0,0:0:0:0:
64,192,226683,128,0,226912:0:0:0:0:
192,192,226683,128,0,226836:0:0:0:0:
320,192,226683,128,0,226759:0:0:0:0:
448,192,226683,1,0,0:0:0:0:
448,192,226836,128,0,226989:0:0:0:0:
320,192,226912,128,0,226989:0:0:0:0:
192,192,226989,128,0,227065:0:0:0:0:
64,192,226989,128,0,227218:0:0:0:0:
320,192,227142,128,0,227218:0:0:0:0:
192,192,227142,128,0,227448:0:0:0:0:
320,192,227295,128,0,227601:0:0:0:0:
448,192,227295,128,0,227372:0:0:0:0:
64,192,227295,128,0,227601:0:0:0:0:
448,192,227448,1,0,0:0:0:0:
192,192,227601,128,0,227652:0:0:0:0:
448,192,227601,128,0,227703:0:0:0:0:
64,192,227652,128,0,227703:0:0:0:0:
320,192,227703,128,0,227754:0:0:0:0:
192,192,227754,128,0,227805:0:0:0:0:
448,192,227805,128,0,227856:0:0:0:0:
320,192,227856,128,0,227907:0:0:0:0:
448,192,227907,128,0,228060:0:0:0:0:
64,192,227907,128,0,228137:0:0:0:0:
192,192,227907,128,0,228060:0:0:0:0:
320,192,228060,1,0,0:0:0:0:
448,192,228137,128,0,228290:0:0:0:0:
320,192,228213,128,0,228443:0:0:0:0:
192,192,228213,128,0,228290:0:0:0:0:
64,192,228213,128,0,228366:0:0:0:0:
192,192,228366,1,0,0:0:0:0:
64,192,228443,128,0,228596:0:0:0:0:
320,192,228519,128,0,228596:0:0:0:0:
192,192,228519,128,0,228749:0:0:0:0:
448,192,228519,128,0,228673:0:0:0:0:
320,192,228673,1,0,0:0:0:0:
448,192,228749,128,0,228864:0:0:0:0:
64,192,228826,128,0,229055:0:0:0:0:
320,192,228826,128,0,228864:0:0:0:0:
192,192,228979,128,0,229208:0:0:0:0:
448,192,228979,128,0,229017:0:0:0:0:
320,192,229132,128,0,229361:0:0:0:0:
64,192,229132,128,0,229170:0:0:0:0:
448,192,229285,128,0,229514:0:0:0:0:
192,192,229285,128,0,229323:0:0:0:0:
64,192,229285,128,0,229438:0:0:0:0:
192,192,229438,1,0,0:0:0:0:
320,192,229438,128,0,229591:0:0:0:0:
192,192,229540,1,0,0:0:0:0:
448,192,229591,128,0,229667:0:0:0:0:
192,192,229642,1,0,0:0:0:0:
448,192,229744,128,0,229782:0:0:0:0:
64,192,229744,128,0,229974:0:0:0:0:
320,192,229744,1,0,0:0:0:0:
320,192,229897,128,0,229935:0:0:0:0:
448,192,229897,128,0,230050:0:0:0:0:
64,192,230050,128,0,230356:0:0:0:0:
192,192,230050,128,0,230203:0:0:0:0:
320,192,230203,128,0,230280:0:0:0:0:
448,192,230203,128,0,230280:0:0:0:0:
448,192,230356,128,0,230662:0:0:0:0:
320,192,230356,128,0,230509:0:0:0:0:
192,192,230356,1,0,0:0:0:0:
64,192,230509,128,0,230662:0:0:0:0:
192,192,230509,128,0,230586:0:0:0:0:
320,192,230662,128,0,230739:0:0:0:0:
192,192,230662,128,0,230739:0:0:0:0:
448,192,230815,128,0,230892:0:0:0:0:
320,192,230815,128,0,230968:0:0:0:0:
448,192,230968,128,0,231045:0:0:0:0:
192,192,230968,128,0,231122:0:0:0:0:
64,192,230968,1,0,0:0:0:0:
448,192,231122,128,0,231198:0:0:0:0:
64,192,231122,128,0,231275:0:0:0:0:
320,192,231198,1,0,0:0:0:0:
192,192,231275,128,0,231657:0:0:0:0:
448,192,231275,128,0,231657:0:0:0:0:
320,192,231581,128,0,231887:0:0:0:0:
64,192,231581,128,0,231810:0:0:0:0:
192,192,231734,128,0,232116:0:0:0:0:
448,192,231887,128,0,232193:0:0:0:0:
64,192,231887,128,0,232040:0:0:0:0:
320,192,232040,1,0,0:0:0:0:
320,192,232193,128,0,232269:0:0:0:0:
64,192,232193,128,0,232269:0:0:0:0:
192,192,232193,128,0,232269:0:0:0:0:
320,192,232346,128,0,232423:0:0:0:0:
448,192,232346,128,0,232423:0:0:0:0:
192,192,232346,128,0,232423:0:0:0:0:
448,192,232499,128,0,232882:0:0:0:0:
64,192,232499,128,0,232882:0:0:0:0:
320,192,232499,1,0,0:0:0:0:
320,192,232805,128,0,232958:0:0:0:0:
192,192,232805,128,0,232958:0:0:0:0:
448,192,232958,1,0,0:0:0:0:
64,192,232958,1,0,0:0:0:0:
192,192,233111,128,0,233341:0:0:0:0:
64,192,233111,128,0,233188:0:0:0:0:
448,192,233111,128,0,233188:0:0:0:0:
64,192,233264,128,0,233417:0:0:0:0:
320,192,233417,128,0,233724:0:0:0:0:
448,192,233417,128,0,233571:0:0:0:0:
192,192,233417,128,0,233494:0:0:0:0:
64,192,233494,128,0,233571:0:0:0:0:
448,192,233647,128,0,233724:0:0:0:0:
64,192,233724,128,0,233877:0:0:0:0:
192,192,233724,128,0,233800:0:0:0:0:
192,192,233877,128,0,234030:0:0:0:0:
320,192,233877,128,0,233953:0:0:0:0:
448,192,234030,128,0,234106:0:0:0:0:
320,192,234030,128,0,234259:0:0:0:0:
64,192,234030,128,0,234412:0:0:0:0:
320,192,234336,1,0,0:0:0:0:
448,192,234336,128,0,234489:0:0:0:0:
64,192,234489,128,0,234565:0:0:0:0:
320,192,234489,128,0,234565:0:0:0:0:
192,192,234565,128,0,234718:0:0:0:0:
448,192,234565,128,0,234718:0:0:0:0:
320,192,234642,1,0,0:0:0:0:
64,192,234642,1,0,0:0:0:0:
192,192,234795,1,0,0:0:0:0:
448,192,234795,1,0,0:0:0:0:
192,192,234948,128,0,235025:0:0:0:0:
320,192,234948,128,0,235025:0:0:0:0:
64,192,234948,128,0,235178:0:0:0:0:
448,192,234948,128,0,235178:0:0:0:0:
320,192,235101,1,0,0:0:0:0:
64,192,235254,128,0,235331:0:0:0:0:
192,192,235254,128,0,235331:0:0:0:0:
320,192,235254,128,0,235484:0:0:0:0:
192,192,235407,1,0,0:0:0:0:
64,192,235560,128,0,235637:0:0:0:0:
192,192,235560,128,0,235637:0:0:0:0:
320,192,235560,128,0,235790:0:0:0:0:
64,192,235866,128,0,236173:0:0:0:0:
448,192,235866,128,0,235943:0:0:0:0:
320,192,235943,128,0,236019:0:0:0:0:
192,192,236019,128,0,236096:0:0:0:0:
320,192,236096,128,0,236173:0:0:0:0:
448,192,236173,128,0,236479:0:0:0:0:
192,192,236173,1,0,0:0:0:0:
192,192,236479,128,0,236555:0:0:0:0:
320,192,236517,128,0,236593:0:0:0:0:
448,192,236555,128,0,236632:0:0:0:0:
64,192,236593,128,0,236670:0:0:0:0:
192,192,236632,128,0,236785:0:0:0:0:
64,192,236785,1,0,0:0:0:0:
320,192,236785,1,0,0:0:0:0:
448,192,236785,128,0,236938:0:0:0:0:
64,192,236938,1,0,0:0:0:0:
192,192,236938,128,0,237321:0:0:0:0:
448,192,237091,1,0,0:0:0:0:
320,192,237091,128,0,237397:0:0:0:0:
448,192,237244,128,0,237397:0:0:0:0:
64,192,237244,1,0,0:0:0:0:
64,192,237397,128,0,237474:0:0:0:0:
192,192,237435,128,0,237512:0:0:0:0:
320,192,237474,128,0,237550:0:0:0:0:
64,192,237550,128,0,237627:0:0:0:0:
192,192,237588,128,0,237665:0:0:0:0:
448,192,237627,128,0,237780:0:0:0:0:
320,192,237703,128,0,237856:0:0:0:0:
192,192,237741,128,0,237894:0:0:0:0:
64,192,237780,128,0,237856:0:0:0:0:
448,192,237856,1,0,0:0:0:0:
320,192,237933,1,0,0:0:0:0:
64,192,238009,128,0,238162:0:0:0:0:
448,192,238009,1,0,0:0:0:0:
192,192,238048,1,0,0:0:0:0:
192,192,238162,128,0,238315:0:0:0:0:
320,192,238201,1,0,0:0:0:0:
320,192,238315,128,0,238468:0:0:0:0:
448,192,238354,1,0,0:0:0:0:
448,192,238468,128,0,238851:0:0:0:0:
64,192,238507,128,0,238851:0:0:0:0:
192,192,238622,128,0,239119:0:0:0:0:
320,192,238622,128,0,239081:0:0:0:0:
64,192,238928,128,0,239157:0:0:0:0:
448,192,238928,128,0,239042:0:0:0:0:
448,192,239196,128,0,239387:0:0:0:0:
320,192,239234,128,0,239540:0:0:0:0:
192,192,239272,128,0,239693:0:0:0:0:
64,192,239387,1,0,0:0:0:0:
64,192,239540,1,0,0:0:0:0:
448,192,239540,128,0,239769:0:0:0:0:
320,192,239693,1,0,0:0:0:0:
192,192,239769,1,0,0:0:0:0:
64,192,239846,128,0,239999:0:0:0:0:
448,192,239846,128,0,239884:0:0:0:0:
320,192,239846,128,0,239923:0:0:0:0:
192,192,239846,128,0,239961:0:0:0:0:
448,192,239999,128,0,240076:0:0:0:0:
320,192,240037,128,0,240076:0:0:0:0:
64,192,240152,128,0,240190:0:0:0:0:
192,192,240152,128,0,240229:0:0:0:0:
320,192,240152,128,0,240267:0:0:0:0:
448,192,240152,128,0,240305:0:0:0:0:
64,192,240305,128,0,240382:0:0:0:0:
192,192,240343,128,0,240382:0:0:0:0:
448,192,240458,128,0,241071:0:0:0:0:
64,192,240458,128,0,241071:0:0:0:0:
192,192,240458,128,0,241071:0:0:0:0:
320,192,240458,128,0,241071:0:0:0:0:
