osu file format v14

[General]
AudioFilename: audio.mp3
AudioLeadIn: 0
PreviewTime: 135105
Countdown: 0
SampleSet: Soft
StackLeniency: 0.4
Mode: 0
LetterboxInBreaks: 0
WidescreenStoryboard: 0

[Editor]
DistanceSpacing: 1.5
BeatDivisor: 8
GridSize: 4
TimelineZoom: 1

[Metadata]
Title:Kanade
TitleUnicode:奏(かなで)
Artist:Fujimiya Kaori (cv.Amamiya Sora)
ArtistUnicode:藤宮香織(cv.雨宮 天)
Creator:Modem
Version:Insane
Source:一週間フレンズ。
Tags:isshuukan friends one week ending MAD Xinely Electoz
BeatmapID:921005
BeatmapSetID:426548

[Difficulty]
HPDrainRate:8
CircleSize:4
OverallDifficulty:8
ApproachRate:8.5
SliderMultiplier:2.8
SliderTickRate:1

[Events]
//Background and Video events
Video,530,"video.avi"
0,0,"bg.jpg",0,0
//Break Periods
//Storyboard Layer 0 (Background)
//Storyboard Layer 1 (Fail)
//Storyboard Layer 2 (Pass)
//Storyboard Layer 3 (Foreground)
//Storyboard Sound Samples

[TimingPoints]
1105,800,4,2,1,30,1,0
1105,-166.666666666667,4,2,1,30,0,0
1705,-166.666666666667,4,2,1,5,0,0
1905,-166.666666666667,4,2,1,30,0,0
3305,-166.666666666667,4,2,1,5,0,0
3505,-166.666666666667,4,2,1,30,0,0
4105,-166.666666666667,4,2,1,5,0,0
4305,-166.666666666667,4,2,1,30,0,0
4905,-166.666666666667,4,2,1,5,0,0
5105,-166.666666666667,4,2,1,30,0,0
5705,-166.666666666667,4,2,1,5,0,0
5905,-166.666666666667,4,2,1,30,0,0
6505,-166.666666666667,4,2,1,5,0,0
6705,-166.666666666667,4,2,1,30,0,0
7305,-166.666666666667,4,2,1,5,0,0
7505,-166.666666666667,4,2,1,30,0,0
8105,-166.666666666667,4,2,1,5,0,0
8305,-166.666666666667,4,2,1,30,0,0
8905,-166.666666666667,4,2,1,5,0,0
9105,-166.666666666667,4,2,1,30,0,0
13905,-142.857142857143,4,2,1,20,0,0
14505,-142.857142857143,4,2,1,5,0,0
14705,-142.857142857143,4,2,1,30,0,0
15305,-142.857142857143,4,2,1,5,0,0
15505,-142.857142857143,4,2,1,30,0,0
17705,-142.857142857143,4,2,1,5,0,0
17905,-142.857142857143,4,2,1,30,0,0
18505,-142.857142857143,4,2,1,5,0,0
18705,-142.857142857143,4,2,1,30,0,0
22505,-142.857142857143,4,2,1,5,0,0
22705,-142.857142857143,4,2,1,30,0,0
23305,-142.857142857143,4,2,1,5,0,0
23505,-142.857142857143,4,2,1,30,0,0
24105,-142.857142857143,4,2,1,5,0,0
24305,-142.857142857143,4,2,1,30,0,0
24905,-142.857142857143,4,2,1,5,0,0
25105,-142.857142857143,4,2,1,30,0,0
25705,-125,4,2,1,50,0,0
26705,-100,4,2,1,50,0,0
29805,-100,4,2,1,5,0,0
29905,-100,4,2,1,50,0,0
36305,-100,4,2,1,30,0,0
37105,-100,4,2,1,50,0,0
37705,-100,4,2,1,30,0,0
37905,-100,4,2,1,50,0,0
42705,-142.857142857143,4,2,1,40,0,0
53905,-200,4,2,1,40,0,0
55505,-125,4,2,1,30,0,0
55905,-125,4,2,1,45,0,0
66705,-111.111111111111,4,2,1,50,0,0
68305,-200,4,2,1,50,0,0
68805,-200,4,2,1,5,0,0
68905,-200,4,2,1,50,0,0
69905,800,4,2,1,60,1,1
69905,-83.3333333333333,4,2,1,60,0,1
82305,-83.3333333333333,4,2,1,60,0,0
82705,-83.3333333333333,4,2,1,60,0,1
84305,-83.3333333333333,4,2,1,50,0,1
84505,-83.3333333333333,4,2,1,60,0,1
85905,-83.3333333333333,4,2,1,50,0,1
86305,-83.3333333333333,4,2,1,60,0,1
86705,-83.3333333333333,4,2,1,50,0,1
87105,-83.3333333333333,4,2,1,60,0,1
87505,-83.3333333333333,4,2,1,55,0,1
87905,-83.3333333333333,4,2,1,60,0,1
89105,-125,4,2,1,60,0,1
90505,-125,4,2,1,40,0,1
90705,-142.857142857143,4,2,1,40,0,1
91905,-142.857142857143,4,2,1,30,0,1
92105,-142.857142857143,4,2,1,40,0,1
92305,-166.666666666667,4,2,1,40,0,1
93705,-166.666666666667,4,2,1,30,0,1
93905,-200,4,2,1,40,0,1
95505,-200,4,2,1,10,0,0
95905,-200,4,2,1,40,0,0
97105,-200,4,2,1,20,0,0
97905,-200,4,2,1,60,0,0
98705,-200,4,2,1,40,0,0
99105,-200,4,2,1,60,0,0
100305,-200,4,2,1,30,0,0
101105,-200,4,2,1,60,0,0
101905,-200,4,2,1,30,0,0
102705,-200,4,2,1,60,0,0
105105,-200,4,2,1,30,0,0
105905,-200,4,2,1,60,0,0
106705,-200,4,2,1,30,0,0
107505,-200,4,2,1,60,0,0
108305,-142.857142857143,4,2,1,40,0,0
119505,-200,4,2,1,40,0,0
121105,-125,4,2,1,45,0,0
132305,-111.111111111111,4,2,1,50,0,0
133905,-200,4,2,1,50,0,0
135505,800,4,2,1,60,1,1
135505,-83.3333333333333,4,2,1,60,0,1
147905,-83.3333333333333,4,2,1,60,0,0
148305,-83.3333333333333,4,2,1,60,0,1
149905,-83.3333333333333,4,2,1,50,0,1
150105,-83.3333333333333,4,2,1,60,0,1
151505,-83.3333333333333,4,2,1,50,0,1
151905,-83.3333333333333,4,2,1,60,0,1
152305,-83.3333333333333,4,2,1,50,0,1
152705,-83.3333333333333,4,2,1,60,0,1
153105,-83.3333333333333,4,2,1,50,0,1
153505,-83.3333333333333,4,2,1,60,0,1
158705,-83.3333333333333,4,2,1,40,0,1
164305,-83.3333333333333,4,2,1,40,0,0
165105,-83.3333333333333,4,2,1,60,0,0
205005,-83.3333333333333,4,2,1,5,0,0
205105,-83.3333333333333,4,2,1,60,0,0
217105,800,4,2,1,60,1,0
217105,-83.3333333333333,4,2,1,60,0,0
220505,-83.3333333333333,4,2,1,10,0,0
223505,-200,4,2,1,40,0,0
235905,-166.666666666667,4,2,1,40,0,0
239505,-166.666666666667,4,2,1,20,0,0
241105,-166.666666666667,4,2,1,40,0,0
242705,-142.857142857143,4,2,1,40,0,0
244305,-125,4,2,1,45,0,0
245905,-111.111111111111,4,2,1,50,0,0
249105,-83.3333333333334,4,2,1,65,0,1
261505,-83.3333333333334,4,2,1,65,0,0
261905,-83.3333333333334,4,2,1,65,0,1
265105,-83.3333333333334,4,2,1,55,0,1
265505,-83.3333333333334,4,2,1,65,0,1
265905,-83.3333333333334,4,2,1,55,0,1
266105,-83.3333333333334,4,2,1,65,0,1
266705,-83.3333333333334,4,2,1,55,0,1
267105,-83.3333333333334,4,2,1,65,0,1
268305,-100,4,2,1,60,0,1
269905,-111.111111111111,4,2,1,60,0,1
271505,-125,4,2,1,60,0,1
273105,-142.857142857143,4,2,1,60,0,1
274705,-166.666666666667,4,2,1,40,0,0
287505,-166.666666666667,4,2,1,15,0,0
287905,-166.666666666667,4,2,1,40,0,0
289805,-166.666666666667,4,2,1,5,0,0
289905,-166.666666666667,4,2,1,40,0,0
290705,-166.666666666667,4,2,1,15,0,0
291105,-166.666666666667,4,2,1,40,0,0
293005,-166.666666666667,4,2,1,5,0,0
293105,-166.666666666667,4,2,1,40,0,0
293905,833.333333333333,4,2,1,40,1,0
293905,-166.666666666667,4,2,1,40,0,0
294738,875.912408759124,4,2,1,40,1,0
294738,-166.666666666667,4,2,1,40,0,0
295613,839.160839160839,4,2,1,40,1,0
295613,-166.666666666667,4,2,1,40,0,0
296452,1000,4,2,1,40,1,0
296452,-166.666666666667,4,2,1,40,0,0
296952,685.714285714286,4,2,1,10,1,0
296952,-166.666666666667,4,2,1,10,0,0
297294,607.594936708861,4,2,1,30,1,0
297294,-166.666666666667,4,2,1,30,0,0
297597,738.461538461538,4,2,1,40,1,0
297597,-125,4,2,1,40,0,0
297689,923.076923076923,4,2,1,20,1,0
297689,-125,4,2,1,20,0,0
297919,-125,4,2,1,5,0,0

[Colours]
Combo1 : 255,130,192
Combo2 : 221,221,255
Combo3 : 209,164,255
Combo4 : 174,174,255
Combo5 : 168,211,255
Combo6 : 255,191,223
SliderBorder : 255,255,255

[HitObjects]
72,272,1105,6,0,P|80:320|152:352,1,125.999996154785
184,348,1905,2,0,P|220:300|188:204,1,167.999994873047,2|0,0:0|0:0,0:0:0:0:
208,168,2905,2,0,L|308:160,1,83.9999974365235,2|0,0:0|0:0,0:0:0:0:
332,144,3505,2,0,P|308:84|328:24,1,125.999996154785,2|0,0:0|0:0,0:0:0:0:
424,148,4305,22,0,L|408:296,1,125.999996154785
424,344,5105,2,0,B|404:328|404:328|348:360|280:316,1,125.999996154785,2|0,0:0|0:0,0:0:0:0:
272,308,5905,1,0,0:0:0:0:
272,308,6105,2,0,L|284:200,1,83.9999974365235,2|0,0:0|0:0,0:0:0:0:
264,188,6705,2,0,P|248:132|264:64,1,125.999996154785,2|0,0:0|0:0,0:0:0:0:
384,189,7505,38,0,P|324:204|264:188,1,125.999996154785
232,216,8305,2,0,P|247:276|231:336,1,125.999996154785,2|0,0:0|0:0,0:0:0:0:
192,356,9105,1,0,0:0:0:0:
192,356,9305,2,0,B|164:312|112:316|112:316|128:272,1,125.999996154785,2|2,0:0|0:0,0:0:0:0:
192,148,10705,38,0,P|200:64|248:88,1,167.999994873047,0|2,0:0|0:0,0:0:0:0:
155,255,12305,2,0,P|196:264|236:252,1,83.9999974365235,0|2,0:0|0:0,0:0:0:0:
336,240,13105,1,0,0:0:0:0:
360,196,13305,1,0,0:0:0:0:
356,144,13505,1,2,0:0:0:0:
264,104,13905,38,0,L|104:96,1,146.999995513916,4|0,0:3|0:0,0:0:0:0:
52,132,14705,2,0,P|32:196|68:276,1,146.999995513916,2|0,0:0|0:0,0:0:0:0:
108,324,15505,1,0,0:0:0:0:
108,324,15705,2,0,P|174:351|243:331,1,146.999995513916,2|2,0:0|0:0,0:0:0:0:
510,202,17105,38,0,B|518:186|518:186|506:150|506:150|538:98|494:45,1,146.999995513916,4|0,0:3|0:0,0:0:0:0:
445,106,17905,2,0,P|369:118|265:90,1,146.999995513916,2|0,0:0|0:0,0:0:0:0:
237,66,18705,1,0,0:0:0:0:
237,66,18905,2,0,B|214:108|239:152|239:152|227:188|227:188|237:213,1,146.999995513916,2|2,0:0|0:0,0:0:0:0:
500,332,20305,38,0,P|492:288|448:360,1,195.999994018555,4|2,0:3|0:0,0:0:0:0:
140,316,21905,1,0,0:0:0:0:
76,352,22105,2,0,B|68:320|68:320|72:292|72:292|52:224,1,97.9999970092774,2|0,0:0|0:0,0:0:0:0:
96,192,22705,2,0,L|264:184,1,146.999995513916,2|0,0:0|0:0,0:0:0:0:
303,226,23505,38,0,B|327:186|303:146|303:146|304:108|347:62,1,146.999995513916,4|0,0:3|0:0,0:0:0:0:
399,90,24305,2,0,B|420:109|421:147|421:147|397:187|421:227,1,146.999995513916,2|0,0:0|0:0,0:0:0:0:
412,300,25105,2,0,P|368:308|308:296,1,97.9999970092774,0|2,0:0|0:0,0:0:0:0:
196,300,25705,6,0,L|160:332,2,28,8|8|8,0:0|0:0|0:0,0:0:0:0:
312,144,26105,1,4,0:0:0:0:
180,168,26305,1,4,0:0:0:0:
256,224,26505,1,0,0:0:0:0:
236,88,26705,6,0,P|156:72|92:124,1,140,4|2,0:1|0:0,0:0:0:0:
256,224,27505,2,0,L|404:232,1,140,8|6,0:0|0:0,0:0:0:0:
460,32,28305,2,0,L|368:44,1,70,4|0,0:0|0:0,0:0:0:0:
236,64,28705,1,6,0:0:0:0:
236,64,29105,1,8,0:0:0:0:
156,128,29305,2,0,B|141:152|141:152|164:180|164:180|141:228|176:276,1,140,2|0,0:0|0:0,0:0:0:0:
212,344,29905,38,0,P|156:312|64:344,1,140,4|2,0:0|0:0,0:0:0:0:
16,120,30705,2,0,L|180:129,1,140,8|6,0:0|0:0,0:0:0:0:
392,168,31505,2,0,P|397:133|389:99,1,70,4|0,0:0|0:0,0:0:0:0:
376,300,31905,1,6,0:0:0:0:
352,288,32305,2,0,L|276:308,1,70,8|0,0:0|0:0,0:0:0:0:
188,264,32705,2,0,L|100:248,1,70,6|0,0:0|0:0,0:0:0:0:
60,164,33105,6,0,P|76:92|140:48,1,140,4|2,0:0|0:0,0:0:0:0:
328,116,33905,2,0,B|336:152|336:152|304:200|332:280,1,140,8|6,0:0|0:0,0:0:0:0:
280,348,34505,1,0,0:0:0:0:
176,352,34705,2,0,P|112:348|48:288,1,140,4|6,0:0|0:0,0:0:0:0:
88,208,35305,1,0,0:0:0:0:
40,124,35505,2,0,B|32:96|32:96|80:128|140:104,1,140,8|2,0:0|0:0,0:0:0:0:
340,40,36305,5,4,0:0:0:0:
348,56,37105,1,2,0:0:0:0:
432,336,37705,1,8,0:0:0:0:
432,336,37805,1,8,0:0:0:0:
432,336,37905,1,8,0:0:0:0:
376,120,38305,2,0,P|431:111|401:159,1,140,8|4,0:3|0:0,0:0:0:0:
140,112,39105,1,4,0:1:0:0:
140,112,40905,5,8,0:0:0:0:
140,112,41005,1,8,0:0:0:0:
140,112,41105,2,0,L|132:204,1,70,8|4,0:3|0:0,0:0:0:0:
184,276,41505,1,8,0:0:0:0:
352,224,41705,1,8,0:0:0:0:
344,244,42105,1,8,0:3:0:0:
320,64,42305,1,8,0:3:0:0:
308,44,42705,6,0,L|200:52,1,97.9999970092774,4|2,0:0|0:0,0:0:0:0:
36,144,43505,2,0,P|28:200|44:248,1,97.9999970092774,8|2,0:1|0:0,0:0:0:0:
224,308,44305,2,0,B|272:316|272:316|316:292,2,97.9999970092774,2|4|8,0:0|0:0|0:1,0:0:0:0:
260,116,45505,1,2,0:0:0:0:
436,28,45905,6,0,P|456:68|444:140,1,97.9999970092774,4|2,0:0|0:0,0:0:0:0:
384,188,46505,1,0,0:0:0:0:
312,256,46705,2,0,L|308:320,1,48.9999985046387,8|2,0:1|0:0,0:0:0:0:
220,196,47105,2,0,L|216:260,1,48.9999985046387,6|0,0:0|0:0,0:0:0:0:
128,128,47505,2,0,L|120:244,1,97.9999970092774,0|4,0:0|0:0,0:0:0:0:
252,52,48305,1,8,0:1:0:0:
252,52,48705,2,0,L|316:64,1,48.9999985046387,2|2,0:0|0:0,0:0:0:0:
344,128,49105,6,0,P|357:66|396:36,1,97.9999970092774,4|2,0:0|0:0,0:0:0:0:
440,120,49705,1,0,0:0:0:0:
408,208,49905,2,0,B|388:192|388:192|373:202|355:209|332:209|312:200|302:189,1,97.9999970092774,8|2,0:1|0:0,0:0:0:0:
188,204,50505,1,2,0:0:0:0:
256,156,50705,2,0,B|273:203|273:203|255:267,1,97.9999970092774,0|4,0:0|0:0,0:0:0:0:
72,352,51505,1,8,0:1:0:0:
72,352,52105,1,2,0:0:0:0:
104,260,52305,6,0,B|104:224|104:224|112:200|112:200|112:144,1,97.9999970092774,4|2,0:0|0:0,0:0:0:0:
284,60,53105,2,0,P|340:64|380:92,1,97.9999970092774,8|6,0:1|0:0,0:0:0:0:
336,264,53905,6,0,P|344:296|296:264,1,140,4|8,0:0|0:3,0:0:0:0:
284,60,55105,1,8,0:3:0:0:
284,60,55505,6,0,P|228:72|152:52,1,112,4|2,0:1|0:0,0:0:0:0:
76,36,56105,1,0,0:0:0:0:
24,120,56305,2,0,B|16:160|16:160|40:200|24:248,1,112,8|6,0:1|0:0,0:0:0:0:
48,328,56905,1,0,0:0:0:0:
148,304,57105,2,0,L|228:296,1,56,2|0,0:0|0:0,0:0:0:0:
264,216,57505,2,0,L|184:208,1,56,6|2,0:0|0:0,0:0:0:0:
124,328,57905,2,0,L|260:312,1,112,8|2,0:1|0:0,0:0:0:0:
336,336,58505,1,2,0:0:0:0:
376,244,58705,6,0,B|360:212|360:212|368:124,1,112,4|2,0:0|0:0,0:0:0:0:
280,88,59305,1,2,0:0:0:0:
280,88,59505,2,0,L|272:164,1,56,8|2,0:1|0:0,0:0:0:0:
176,172,59905,2,0,L|167:257,1,84,2|2,0:0|0:0,0:0:0:0:
148,304,60305,2,0,B|164:284|192:268|192:268|220:268|268:280,1,112,0|4,0:0|0:0,0:0:0:0:
340,28,61105,1,8,0:1:0:0:
396,148,61305,1,2,0:0:0:0:
320,40,61505,1,0,0:0:0:0:
336,224,61705,1,2,0:0:0:0:
300,52,61905,6,0,L|184:56,1,112,4|2,0:0|0:0,0:0:0:0:
88,60,62505,1,2,0:0:0:0:
72,160,62705,2,0,P|100:192|96:272,1,112,8|2,0:1|0:0,0:0:0:0:
80,360,63305,2,0,L|212:352,1,112,2|0,0:0|0:0,0:0:0:0:
292,340,63905,1,4,0:0:0:0:
368,140,64305,2,0,P|363:91|404:32,1,112,8|2,0:1|0:0,0:0:0:0:
463,112,64905,1,2,0:0:0:0:
418,202,65105,6,0,B|367:177|367:177|306:194,1,112,4|2,0:0|0:0,0:0:0:0:
236,256,65705,1,2,0:0:0:0:
148,212,65905,2,0,L|164:132,1,56,8|2,0:1|0:0,0:0:0:0:
52,68,66305,2,0,L|62:122,1,56,6|0,0:0|0:0,0:0:0:0:
164,240,66705,6,0,B|184:144|184:144|172:92,1,125.999996154785,4|4,0:0|0:0,0:0:0:0:
356,32,67505,2,0,P|400:52|432:136,1,125.999996154785,8|4,0:0|0:0,0:0:0:0:
424,232,68105,1,8,0:0:0:0:
424,232,68205,1,8,0:0:0:0:
424,232,68305,6,0,L|332:240,1,87.5,8|0,0:0|0:0,0:0:0:0:
304,244,68905,1,2,0:0:0:0:
180,180,69105,1,8,0:0:0:0:
232,272,69305,1,8,0:3:0:0:
216,108,69505,1,2,0:0:0:0:
224,248,69705,1,8,0:3:0:0:
100,134,69905,6,0,P|60:114|124:110,1,167.999994873047,4|2,0:1|0:0,0:0:0:0:
128,240,70505,1,0,0:0:0:0:
128,240,70705,2,0,B|108:176|148:128|148:128|120:140|94:133,1,167.999994873047,8|6,0:0|0:0,0:0:0:0:
224,198,71305,1,0,0:0:0:0:
296,264,71505,2,0,P|348:264|396:236,1,83.9999974365235,4|0,0:0|0:0,0:0:0:0:
208,216,71905,2,0,L|204:304,1,83.9999974365235,6|0,0:0|0:0,0:0:0:0:
352,352,72305,1,8,0:0:0:0:
317,138,72505,1,2,0:0:0:0:
317,138,72905,1,2,0:0:0:0:
225,170,73105,6,0,P|160:132|149:34,1,167.999994873047,4|2,0:0|0:0,0:0:0:0:
240,71,73705,1,2,0:0:0:0:
317,138,73905,2,0,P|324:188|309:226,2,83.9999974365235,8|2|6,0:0|0:0|0:0,0:0:0:0:
240,71,74505,1,0,0:0:0:0:
156,212,74705,1,6,0:0:0:0:
156,212,75105,1,4,0:0:0:0:
272,280,75305,1,2,0:0:0:0:
136,132,75505,5,8,0:0:0:0:
168,312,75705,1,2,0:0:0:0:
272,120,75905,1,0,0:0:0:0:
176,292,76105,1,2,0:0:0:0:
128,108,76305,6,0,P|104:64|192:76,1,167.999994873047,4|2,0:0|0:0,0:0:0:0:
232,144,76905,1,0,0:0:0:0:
304,228,77105,2,0,P|332:196|333:128,1,83.9999974365235,8|0,0:0|0:0,0:0:0:0:
231,229,77505,2,0,P|245:273|299:300,1,83.9999974365235,6|8,0:0|0:0,0:0:0:0:
296,88,77905,1,4,0:0:0:0:
280,68,78305,2,0,B|224:80|192:32|192:32|148:52|192:92,2,167.999994873047,6|8|2,0:0|0:0|0:0,0:0:0:0:
307,257,79505,6,0,P|388:255|440:192,1,167.999994873047,4|2,0:0|0:0,0:0:0:0:
343,162,80105,1,0,0:0:0:0:
252,200,80305,2,0,B|228:224|224:248|224:280|240:304|240:304|188:296|156:320,1,167.999994873047,8|2,0:0|0:0,0:0:0:0:
20,112,80905,1,8,0:0:0:0:
52,88,81005,1,8,0:0:0:0:
84,64,81105,5,4,0:1:0:0:
164,176,81305,1,0,0:0:0:0:
156,96,81505,1,2,0:0:0:0:
96,224,81705,1,12,0:0:0:0:
20,112,81905,5,8,0:0:0:0:
80,240,82105,1,0,0:0:0:0:
92,44,82305,1,8,0:3:0:0:
228,128,82505,1,8,0:3:0:0:
64,256,82705,6,0,B|120:252|120:252|160:280|160:280|256:272,1,167.999994873047,4|2,0:1|0:0,0:0:0:0:
328,272,83305,1,0,0:0:0:0:
356,176,83505,2,0,P|356:116|456:56,1,167.999994873047,8|6,0:0|0:0,0:0:0:0:
296,32,84105,1,0,0:0:0:0:
296,32,84305,2,0,P|236:24|184:44,1,83.9999974365235,4|0,0:3|0:0,0:0:0:0:
124,76,84705,2,0,B|112:104|112:104|120:180,1,83.9999974365235,6|0,0:0|0:0,0:0:0:0:
229,196,85105,1,8,0:0:0:0:
229,196,85305,2,0,L|213:24,1,167.999994873047,2|2,0:0|0:0,0:0:0:0:
308,104,85905,6,0,B|320:232|320:232|292:276|260:276,1,167.999994873047,4|2,0:3|0:0,0:0:0:0:
200,300,86505,1,0,0:0:0:0:
200,300,86705,2,0,P|280:296|228:360,1,167.999994873047,12|2,2:3|0:0,0:0:0:0:
168,216,87305,1,0,0:0:0:0:
168,216,87505,2,0,B|201:192|237:188|264:192|288:200|288:200|249:143,1,167.999994873047,4|6,0:3|0:0,0:0:0:0:
216,76,88105,1,0,0:0:0:0:
312,100,88305,2,0,B|376:192|376:192|376:252,1,167.999994873047,8|2,0:0|0:0,0:0:0:0:
334,343,88905,1,0,0:0:0:0:
232,328,89105,6,0,P|192:316|152:240,1,112,4|2,0:1|0:0,0:0:0:0:
152,168,89705,1,0,0:0:0:0:
152,168,90305,1,4,0:0:0:0:
192,84,90505,1,2,0:0:0:0:
276,56,90705,6,0,P|328:48|388:76,1,97.9999970092774,4|2,0:1|0:0,0:0:0:0:
444,128,91305,1,0,0:0:0:0:
444,128,91905,1,4,0:0:0:0:
380,204,92105,1,2,0:0:0:0:
283,175,92305,6,0,B|269:159|269:159|245:191|221:199|221:199|197:183|185:151|185:151|168:166,1,167.999994873047,4|0,0:1|0:0,0:0:0:0:
168,166,93505,2,0,L|129:125,1,41.9999987182618,2|4,0:0|0:0,0:0:0:0:
168,36,93905,6,0,L|248:32,1,70,4|2,0:1|0:0,0:0:0:0:
320,84,94505,2,0,P|352:92|396:84,1,70
476,52,95105,1,2,0:0:0:0:
476,52,95505,5,4,0:0:0:0:
488,72,95905,1,2,0:0:0:0:
492,92,96305,1,0,0:0:0:0:
492,112,96705,1,2,0:0:0:0:
484,132,97105,1,2,0:3:0:0:
320,316,97905,1,0,0:0:0:0:
320,316,98705,6,0,L|236:304,1,70,4|2,0:3|0:0,0:0:0:0:
172,336,99505,2,0,L|88:344,2,70,0|2|2,0:0|0:0|0:3,0:0:0:0:
120,128,101105,1,2,0:0:0:0:
120,128,101905,5,2,0:3:0:0:
416,72,102705,2,0,P|432:128|424:180,1,105
416,212,103405,1,0,0:0:0:0:
416,212,103505,2,0,B|368:220|368:220|328:211|328:211|266:221,1,140,2|0,0:0|0:0,0:0:0:0:
384,108,104705,1,2,0:0:0:0:
384,108,105105,6,0,B|408:44|408:44|484:36,2,140,2|2|2,0:3|0:0|0:3,0:0:0:0:
124,176,107505,1,2,0:0:0:0:
124,176,108305,6,0,P|172:188|228:172,1,97.9999970092774,2|2,0:0|0:0,0:0:0:0:
280,100,108905,1,2,0:0:0:0:
359,42,109105,2,0,P|379:94|367:146,1,97.9999970092774,8|2,0:1|0:0,0:0:0:0:
292,316,109905,1,2,0:0:0:0:
292,316,110305,2,0,L|228:328,1,48.9999985046387,0|2,0:0|0:0,0:0:0:0:
148,320,110705,2,0,P|128:276|144:216,1,97.9999970092774,8|2,0:1|0:0,0:0:0:0:
260,76,111505,5,2,0:0:0:0:
260,76,111905,2,0,L|252:144,2,48.9999985046387,2|0|8,0:0|0:0|0:1,0:0:0:0:
352,40,112505,1,2,0:0:0:0:
420,108,112705,2,0,L|408:224,1,97.9999970092774,2|0,0:0|0:0,0:0:0:0:
244,308,113505,1,0,0:0:0:0:
88,188,113905,1,8,0:1:0:0:
220,44,114305,2,0,L|280:56,1,48.9999985046387,2|0,0:0|0:0,0:0:0:0:
363,30,114705,6,0,P|364:87|335:127,1,97.9999970092774,2|0,0:0|0:0,0:0:0:0:
280,196,115305,1,2,0:0:0:0:
208,132,115505,2,0,P|184:174|187:222,1,97.9999970092774,8|2,0:1|0:0,0:0:0:0:
264,80,116105,1,2,0:0:0:0:
264,80,116505,2,0,B|216:88|216:88|168:64,1,97.9999970092774,2|0,0:0|0:0,0:0:0:0:
76,36,117105,1,8,0:1:0:0:
76,36,117705,1,2,0:0:0:0:
16,112,117905,6,0,P|4:156|20:224,2,97.9999970092774,0|2|0,0:0|0:0|0:0,0:0:0:0:
204,164,119105,1,2,0:0:0:0:
204,164,119505,2,0,P|196:200|204:236,1,70,2|0,0:0|0:0,0:0:0:0:
360,320,120305,1,10,0:0:0:0:
369,161,120505,1,8,0:0:0:0:
428,272,120705,1,8,0:3:0:0:
300,204,120905,1,0,0:0:0:0:
432,352,121105,6,0,P|478:336|507:270,1,112,4|2,0:1|0:0,0:0:0:0:
464,192,121705,1,0,0:0:0:0:
377,141,121905,2,0,B|356:124|356:124|385:76|356:18,1,112,8|6,0:1|0:0,0:0:0:0:
267,70,122505,1,2,0:0:0:0:
228,164,122705,2,0,L|224:228,1,56,0|2,0:0|0:0,0:0:0:0:
144,96,123105,2,0,L|144:160,1,56,4|2,0:0|0:0,0:0:0:0:
252,140,123505,2,0,L|244:272,1,112,8|2,0:1|0:0,0:0:0:0:
300,336,124105,1,0,0:0:0:0:
376,268,124305,6,0,P|416:240|432:168,1,112,4|2,0:0|0:0,0:0:0:0:
420,80,124905,1,2,0:0:0:0:
420,80,125105,2,0,L|352:76,1,56,8|2,0:1|0:0,0:0:0:0:
283,139,125505,2,0,L|215:143,1,56,6|0,0:0|0:0,0:0:0:0:
151,79,125905,2,0,P|126:128|135:183,2,112,0|4|8,0:0|0:0|0:1,0:0:0:0:
268,244,127105,1,2,0:0:0:0:
172,280,127305,1,2,0:0:0:0:
135,183,127505,6,0,P|80:191|31:166,1,112,4|2,0:0|0:0,0:0:0:0:
0,72,128105,1,0,0:0:0:0:
0,72,128305,2,0,P|32:68|72:84,1,56,8|0,0:1|0:0,0:0:0:0:
152,96,128705,2,0,L|224:92,1,56,6|2,0:0|0:0,0:0:0:0:
288,32,129105,2,0,P|308:72|288:156,2,112,0|4|8,0:0|0:0|0:1,0:0:0:0:
216,220,130305,2,0,L|208:284,1,56,2|2,0:0|0:0,0:0:0:0:
288,340,130705,6,0,B|312:316|312:316|332:327|370:333|402:301,1,112,4|2,0:0|0:0,0:0:0:0:
355,194,131305,1,2,0:0:0:0:
355,194,131505,2,0,L|347:258,1,56,8|2,0:1|0:0,0:0:0:0:
256,120,131905,2,0,L|260:188,1,56,6|0,0:0|0:0,0:0:0:0:
328,90,132305,6,0,P|296:54|199:66,1,125.999996154785,4|4,0:0|0:0,0:0:0:0:
40,164,133105,2,0,B|22:192|22:192|40:200|40:200|12:243|36:288,1,125.999996154785,8|4,0:0|0:0,0:0:0:0:
132,252,133705,1,8,0:0:0:0:
140,268,133805,1,8,0:0:0:0:
148,284,133905,6,0,L|256:292,1,105,12|4,0:0|0:0,0:0:0:0:
272,292,134605,1,4,0:0:0:0:
292,292,134705,1,4,0:0:0:0:
248,196,134905,1,4,0:0:0:0:
384,332,135105,1,2,0:0:0:0:
336,156,135305,1,6,0:0:0:0:
336,156,135405,1,4,0:0:0:0:
336,156,135505,6,0,P|368:96|284:84,1,167.999994873047,4|2,0:1|0:0,0:0:0:0:
240,160,136105,1,0,0:0:0:0:
285,248,136305,2,0,B|232:272|190:251|165:224|165:224|136:264,1,167.999994873047,8|6,0:0|0:0,0:0:0:0:
63,311,136905,1,0,0:0:0:0:
64,212,137105,2,0,L|112:136,1,83.9999974365235,4|0,0:0|0:0,0:0:0:0:
20,56,137505,2,0,P|8:100|24:152,2,83.9999974365235,6|0|8,0:0|0:0|0:0,0:0:0:0:
184,32,138105,1,2,0:0:0:0:
184,32,138505,1,2,0:0:0:0:
276,72,138705,6,0,B|292:108|276:144|276:144|312:140|328:168|316:196|260:176,1,167.999994873047,4|2,0:0|0:0,0:0:0:0:
207,107,139305,1,2,0:0:0:0:
372,116,139505,2,0,P|386:182|298:255,2,167.999994873047,8|6|6,0:0|0:0|0:0,0:0:0:0:
192,224,140705,1,4,0:0:0:0:
80,288,140905,1,2,0:0:0:0:
132,172,141105,1,8,0:0:0:0:
160,296,141305,1,2,0:0:0:0:
60,208,141505,1,0,0:0:0:0:
112,364,141705,1,2,0:0:0:0:
74,127,141905,6,0,P|140:99|203:193,1,167.999994873047,4|2,0:0|0:0,0:0:0:0:
160,296,142505,1,2,0:0:0:0:
278,198,142705,2,0,B|298:222|298:222|242:222|242:222|197:244|148:211,1,167.999994873047,8|6,0:0|0:0,0:0:0:0:
272,104,143305,1,10,0:0:0:0:
272,104,143505,1,4,0:0:0:0:
144,260,143905,2,0,P|108:248|32:272,1,83.9999974365235,6|0,0:0|0:0,0:0:0:0:
96,164,144305,2,0,L|108:64,1,83.9999974365235,8|0,0:0|0:0,0:0:0:0:
216,240,144705,2,0,P|212:291|164:334,1,83.9999974365235,2|0,0:0|0:0,0:0:0:0:
176,172,145105,6,0,P|240:164|293:260,2,167.999994873047,4|2|8,0:0|0:0|0:0,0:0:0:0:
28,32,146305,1,2,0:0:0:0:
124,64,146505,1,8,0:0:0:0:
124,64,146605,1,8,0:0:0:0:
124,64,146705,1,8,0:0:0:0:
204,140,146905,5,8,0:3:0:0:
228,264,147105,1,2,0:0:0:0:
232,64,147305,1,8,0:0:0:0:
264,192,147505,5,10,0:0:0:0:
248,52,147705,1,0,0:0:0:0:
340,164,147905,1,8,0:3:0:0:
264,40,148105,1,8,0:3:0:0:
416,132,148305,6,0,P|417:193|313:242,1,167.999994873047,4|2,0:1|0:0,0:0:0:0:
236,216,148905,1,0,0:0:0:0:
92,223,149105,2,0,P|80:294|151:284,1,167.999994873047,8|6,0:0|0:0,0:0:0:0:
160,140,149705,1,0,0:0:0:0:
160,140,149905,2,0,B|200:128|200:128|244:136,1,83.9999974365235,4|0,0:3|0:0,0:0:0:0:
212,288,150305,2,0,P|200:232|212:196,1,83.9999974365235,6|0,0:0|0:0,0:0:0:0:
338,90,150705,1,8,0:0:0:0:
338,90,150905,2,0,B|339:137|315:169|315:169|267:169|239:133,1,167.999994873047,2|2,0:0|0:0,0:0:0:0:
400,160,151505,6,0,B|391:193|370:218|370:218|408:228|424:260|380:296|336:248,1,167.999994873047,4|2,0:3|0:0,0:0:0:0:
312,356,152105,1,0,0:0:0:0:
410,342,152305,2,0,P|472:289|472:208,1,167.999994873047,12|2,2:3|0:0,0:0:0:0:
458,108,152905,1,0,0:0:0:0:
368,61,153105,2,0,B|327:78|283:62|283:62|223:46|175:86,1,167.999994873047,4|0,0:3|0:0,0:0:0:0:
236,212,153905,2,0,P|224:140|288:192,1,167.999994873047,8|2,0:0|0:0,0:0:0:0:
192,280,154505,1,0,0:0:0:0:
192,280,154705,6,0,P|139:224|143:117,1,167.999994873047,4|2,0:0|0:0,0:0:0:0:
184,52,155305,1,0,0:0:0:0:
284,44,155505,1,8,0:0:0:0:
480,132,155905,1,6,0:0:0:0:
480,132,156105,1,8,0:0:0:0:
472,232,156305,6,0,P|440:296|344:316,1,167.999994873047,4|6,0:0|0:0,0:0:0:0:
256,288,156905,1,0,0:0:0:0:
232,192,157105,2,0,L|216:104,1,83.9999974365235,8|0,0:0|0:0,0:0:0:0:
76,205,157505,2,0,P|116:214|159:203,1,83.9999974365235,6|8,0:0|0:0,0:0:0:0:
307,184,157905,6,0,P|347:174|390:185,1,83.9999974365235,4|2,0:0|0:0,0:0:0:0:
232,192,158305,2,0,L|200:16,1,167.999994873047,2|8,0:0|0:0,0:0:0:0:
372,132,159105,1,6,0:0:0:0:
428,260,159305,1,8,0:0:0:0:
444,100,159505,5,4,0:0:0:0:
364,212,159705,1,8,0:0:0:0:
356,112,159905,1,6,0:0:0:0:
428,260,160105,1,4,0:0:0:0:
356,112,160305,2,0,P|268:100|184:112,1,167.999994873047,4|2,0:1|0:0,0:0:0:0:
88,120,160905,1,0,0:0:0:0:
56,216,161105,6,0,B|84:252|72:296|72:296|116:272|160:300,1,167.999994873047,4|0,0:1|0:0,0:0:0:0:
244,336,161705,1,0,0:0:0:0:
210,240,161905,2,0,P|174:218|105:209,1,83.9999974365235,8|0,0:0|0:0,0:0:0:0:
113,362,162305,1,0,0:0:0:0:
244,336,162505,2,0,P|294:296|297:193,1,167.999994873047,8|8,0:0|0:0,0:0:0:0:
208,172,163105,2,0,P|280:172|228:100,2,167.999994873047,4|8|4,0:0|0:0|0:0,0:0:0:0:
228,32,164105,1,8,0:0:0:0:
48,48,164305,5,4,0:1:0:0:
56,72,165105,1,4,0:1:0:0:
56,72,165505,2,0,P|44:120|60:172,1,83.9999974365235,4|8,0:0|0:0,0:0:0:0:
100,240,165905,2,0,L|16:248,2,83.9999974365235,4|8|4,0:0|0:0|0:0,0:0:0:0:
176,304,166505,1,8,0:0:0:0:
176,304,166605,1,8,0:0:0:0:
176,304,166705,2,0,L|260:312,1,83.9999974365235,8|8,0:0|0:0,0:0:0:0:
356,280,167105,2,0,P|372:240|364:176,1,83.9999974365235,8|8,0:3|0:3,0:0:0:0:
308,48,167505,5,4,0:1:0:0:
292,68,168305,1,10,0:0:0:0:
292,68,168705,1,4,0:0:0:0:
340,200,168905,1,8,0:0:0:0:
368,40,169105,1,6,0:0:0:0:
280,148,169305,1,8,0:0:0:0:
388,40,169505,1,4,0:0:0:0:
388,40,169905,2,0,B|436:136|436:136|436:200,1,167.999994873047,10|4,0:0|0:0,0:0:0:0:
392,288,170505,1,8,0:0:0:0:
392,288,170705,6,0,L|288:276,1,83.9999974365235,6|0,0:0|0:0,0:0:0:0:
306,177,171105,2,0,P|263:185|222:246,1,83.9999974365235,4|0,0:0|0:0,0:0:0:0:
184,300,171505,2,0,B|140:312|104:304|104:304|84:248|112:192,1,167.999994873047,10|4,0:0|0:0,0:0:0:0:
180,156,172105,1,8,0:0:0:0:
279,169,172305,1,2,0:0:0:0:
224,89,172505,2,0,P|192:116|180:156,1,83.9999974365235,8|10,0:0|0:0,0:0:0:0:
279,169,172905,1,2,0:0:0:0:
112,80,173105,2,0,B|68:76|68:76|32:96,2,83.9999974365235,8|8|6,0:0|0:0|0:0,0:0:0:0:
92,180,173705,1,0,0:0:0:0:
176,239,173905,6,0,L|180:156,1,83.9999974365235,6|0,0:0|0:0,0:0:0:0:
272,196,174305,2,0,P|312:188|376:212,1,83.9999974365235,4|0,0:0|0:0,0:0:0:0:
236,289,174705,2,0,P|152:313|97:239,1,167.999994873047,8|4,0:0|0:0,0:0:0:0:
148,160,175305,1,8,0:0:0:0:
286,77,175505,1,6,0:0:0:0:
224,180,175705,1,8,0:0:0:0:
140,56,175905,1,4,0:0:0:0:
140,56,176305,5,10,0:0:0:0:
169,237,176505,1,8,0:0:0:0:
156,44,176705,1,4,0:0:0:0:
300,157,176905,1,8,0:0:0:0:
168,36,177105,6,0,B|228:64|288:36|288:36|300:52|284:80,1,167.999994873047,6|4,0:0|0:0,0:0:0:0:
322,272,177905,2,0,B|346:236|346:236|280:264|218:228,1,167.999994873047,8|4,0:0|0:0,0:0:0:0:
112,216,178505,1,8,0:0:0:0:
112,216,178605,1,8,0:0:0:0:
112,216,178705,1,8,0:0:0:0:
176,120,178905,2,0,L|160:64,2,41.9999987182618,8|8|8,0:0|0:0|0:0,0:0:0:0:
204,304,179305,1,4,0:0:0:0:
320,264,179505,5,8,0:0:0:0:
436,320,179705,1,8,0:0:0:0:
348,188,179905,1,4,0:0:0:0:
356,336,180105,1,4,0:0:0:0:
328,168,180305,6,0,P|292:132|380:120,2,167.999994873047,4|8|8,0:1|0:0|0:0,0:0:0:0:
328,168,181505,2,0,B|288:188|240:160|240:160|180:156|148:180|148:208|152:256|176:264|196:268|240:296|260:208|224:220|196:212,1,335.999989746094,4|6,0:1|0:0,0:0:0:0:
87,208,182505,1,10,0:0:0:0:
87,208,182605,1,8,0:0:0:0:
87,208,182705,2,0,P|99:156|140:113,1,83.9999974365235,8|2,0:0|0:0,0:0:0:0:
215,216,183105,2,0,P|203:268|162:311,1,83.9999974365235,4|8,0:0|0:0,0:0:0:0:
116,132,183505,6,0,B|148:128|177:153|177:153|215:131|254:145|272:162|286:193,2,167.999994873047,4|8|8,0:1|0:0|0:3,0:0:0:0:
289,62,184705,2,0,P|329:30|345:114,1,167.999994873047,4|0,0:1|0:0,0:0:0:0:
269,166,185305,1,10,0:0:0:0:
269,166,185505,1,8,0:0:0:0:
204,248,185705,1,8,0:0:0:0:
204,248,185805,1,8,0:0:0:0:
204,248,185905,2,0,P|192:316|160:344,1,83.9999974365235,8|8,0:0|0:0,0:0:0:0:
88,144,186305,2,0,P|156:156|184:188,1,83.9999974365235,4|10,0:0|0:0,0:0:0:0:
57,77,186705,6,0,P|147:73|236:132,1,167.999994873047,4|4,0:0|0:0,0:0:0:0:
388,212,187505,1,8,0:0:0:0:
388,212,187905,2,0,B|430:181|482:201|482:201|448:244|448:292|482:333|482:333|420:368|365:306,1,335.999989746094,4|4,0:1|0:0,0:0:0:0:
200,256,189105,1,8,0:0:0:0:
200,256,189505,2,0,P|188:200|208:148,1,83.9999974365235,4|8,0:0|0:0,0:0:0:0:
124,104,189905,6,0,B|160:104|196:140|196:140|240:112|292:128,1,167.999994873047,4|4,0:1|0:0,0:0:0:0:
244,324,190705,2,0,B|208:324|172:288|172:288|128:316|76:300,1,167.999994873047,8|4,0:0|0:0,0:0:0:0:
20,232,191305,1,10,0:0:0:0:
16,208,191405,1,10,0:0:0:0:
20,184,191505,1,10,0:0:0:0:
44,32,191705,1,8,0:0:0:0:
48,56,191805,1,8,0:0:0:0:
44,80,191905,1,8,0:0:0:0:
168,40,192105,1,8,0:0:0:0:
228,152,192305,6,0,P|232:204|272:248,1,83.9999974365235,8|8,0:0|0:3,0:0:0:0:
264,248,192605,1,8,0:3:0:0:
284,260,192705,1,4,0:0:0:0:
308,264,192805,1,4,0:0:0:0:
332,260,192905,1,4,0:0:0:0:
356,248,193005,1,4,0:0:0:0:
376,232,193105,6,0,P|400:172|376:60,1,167.999994873047,4|4,0:1|0:0,0:0:0:0:
184,40,193905,2,0,B|128:47|128:47|72:40|72:40|-1:50,1,167.999994873047,8|6,0:0|0:0,0:0:0:0:
72,132,194505,1,0,0:0:0:0:
48,228,194705,2,0,L|131:217,1,83.9999974365235
176,344,195105,2,0,P|129:326|101:264,1,83.9999974365235,4|0,0:0|0:0,0:0:0:0:
216,216,195505,1,8,0:0:0:0:
348,356,195705,1,4,0:0:0:0:
348,356,196105,1,8,0:0:0:0:
372,344,196205,1,8,0:0:0:0:
396,332,196305,6,0,P|416:252|392:164,1,167.999994873047,6|6,0:0|0:0,0:0:0:0:
303,165,196905,1,2,0:0:0:0:
303,165,197105,2,0,P|257:176|199:133,1,83.9999974365235,8|2,0:0|0:0,0:0:0:0:
371,93,197505,2,0,B|395:129|395:129|395:185,1,83.9999974365235,6|10,0:0|0:0,0:0:0:0:
268,92,197905,2,0,P|276:48|312:11,1,83.9999974365235
351,228,198305,1,6,0:0:0:0:
351,228,198705,2,0,P|303:217|249:245,1,83.9999974365235,8|4,0:0|0:0,0:0:0:0:
287,372,199105,2,0,P|311:316|295:264,1,83.9999974365235,2|8,0:0|0:0,0:0:0:0:
308,294,199405,1,8,0:0:0:0:
308,294,199505,5,4,0:0:0:0:
108,320,199905,2,0,P|88:236|128:156,1,167.999994873047,6|8,0:0|0:0,0:0:0:0:
200,104,200505,1,0,0:0:0:0:
300,124,200705,2,0,B|304:160|304:160|300:168|300:168|310:221,1,83.9999974365235,6|8,0:0|0:0,0:0:0:0:
384,140,201105,2,0,P|432:148|464:196,1,83.9999974365235,2|4,0:0|0:0,0:0:0:0:
346,67,201505,2,0,P|306:51|254:67,1,83.9999974365235,6|0,0:0|0:0,0:0:0:0:
307,206,201905,2,0,B|300:168|300:168|304:160|304:160|300:124,1,83.9999974365235,10|4,0:0|0:0,0:0:0:0:
224,188,202305,1,2,0:0:0:0:
188,280,202505,1,8,0:0:0:0:
188,280,202605,1,8,0:0:0:0:
188,280,202705,6,0,P|128:280|96:256,1,83.9999974365235,4|2,0:0|0:0,0:0:0:0:
64,120,203105,2,0,B|76:160|76:160|56:208,1,83.9999974365235,2|4,0:0|0:0,0:0:0:0:
5,73,203505,2,0,P|36:49|110:62,1,83.9999974365235,8|2,0:0|0:0,0:0:0:0:
200,127,203905,2,0,B|128:127|120:55|120:55|196:23,1,167.999994873047,6|4,0:0|0:0,0:0:0:0:
272,88,204505,1,8,0:0:0:0:
272,88,204605,1,8,0:0:0:0:
272,88,204705,2,0,P|279:147|217:208,1,125.999996154785,8|0,0:0|0:0,0:0:0:0:
208,235,205105,1,8,0:0:0:0:
64,336,205305,1,8,0:0:0:0:
44,324,205705,1,4,0:0:0:0:
88,232,205905,6,0,B|80:208|52:200|52:200|76:172|80:136|68:104|36:80,1,167.999994873047,4|2,0:1|0:0,0:0:0:0:
148,68,206505,1,4,0:0:0:0:
166,148,206705,2,0,P|163:106|148:68,1,83.9999974365235,8|0,0:0|0:0,0:0:0:0:
260,188,207105,2,0,P|243:234|247:298,1,83.9999974365235,6|8,0:0|0:0,0:0:0:0:
392,228,207505,2,0,P|369:192|337:165,1,83.9999974365235,4|8,0:0|0:0,0:0:0:0:
374,302,207905,2,0,P|437:290|457:189,2,167.999994873047,6|8|2,0:0|0:0|0:0,0:0:0:0:
276,280,208905,1,8,0:0:0:0:
200,212,209105,6,0,B|208:192|236:180|236:180|212:152|208:116|220:84|252:60,1,167.999994873047,4|4,0:0|0:0,0:0:0:0:
370,124,209705,1,0,0:0:0:0:
370,124,209905,2,0,P|318:136|278:120,1,83.9999974365235,8|0,0:0|0:0,0:0:0:0:
420,56,210305,2,0,B|383:122|420:180|420:180|384:228,1,167.999994873047,4|0,0:1|0:0,0:0:0:0:
328,280,210905,1,8,0:0:0:0:
328,280,211105,2,0,L|240:256,1,83.9999974365235,4|4,0:0|0:0,0:0:0:0:
88,332,211505,1,8,0:0:0:0:
64,312,211905,2,0,P|56:272|80:212,1,83.9999974365235,6|10,0:0|0:0,0:0:0:0:
116,144,212305,5,4,0:0:0:0:
224,56,212505,1,2,0:0:0:0:
166,208,212705,1,0,0:0:0:0:
36,156,212905,1,2,0:0:0:0:
196,132,213105,1,8,0:0:0:0:
220,140,213505,1,6,0:0:0:0:
244,148,213905,1,6,0:0:0:0:
268,156,214305,2,0,P|328:168|416:108,2,167.999994873047,4|8|6,0:0|0:0|0:0,0:0:0:0:
87,67,215505,6,0,P|63:111|83:175,1,83.9999974365235,4|2,0:0|0:0,0:0:0:0:
186,186,215905,2,0,P|170:147|137:123,1,83.9999974365235,4|2,0:0|0:0,0:0:0:0:
153,261,216305,2,0,B|193:269|193:269|253:249,1,83.9999974365235,8|2,0:0|0:0,0:0:0:0:
234,123,216705,2,0,P|201:147|186:186,1,83.9999974365235,6|2,0:0|0:0,0:0:0:0:
296,212,217105,5,6,0:0:0:0:
424,132,217305,1,0,0:0:0:0:
352,268,217505,1,4,0:0:0:0:
324,76,217705,1,2,0:0:0:0:
360,284,217905,1,10,0:0:0:0:
272,136,218105,1,0,0:0:0:0:
232,260,218305,1,4,0:0:0:0:
348,152,218505,1,2,0:0:0:0:
368,300,218705,5,6,0:0:0:0:
428,112,218905,1,0,0:0:0:0:
296,212,219105,1,4,0:0:0:0:
248,60,219305,1,2,0:0:0:0:
348,152,219505,1,10,0:0:0:0:
196,120,219705,1,0,0:0:0:0:
360,172,219905,1,4,0:0:0:0:
152,184,220105,1,2,0:0:0:0:
372,192,220305,5,4,0:1:0:0:
256,192,220505,12,2,222705,0:0:0:0:
132,108,223505,6,0,P|124:144|132:188,1,70,4|2,0:3|0:0,0:0:0:0:
172,240,224105,2,0,B|220:236|220:236|224:244|224:244|280:240,1,105,0|2,0:0|0:0,0:0:0:0:
348,256,224905,1,0,0:0:0:0:
396,196,225105,2,0,P|404:136|388:84,1,105,2|0,0:0|0:0,0:0:0:0:
248,44,226105,2,0,B|220:68|220:68|180:72,1,70,2|0,0:0|0:0,0:0:0:0:
116,96,226705,6,0,P|96:120|88:168,1,70,2|2,0:0|0:0,0:0:0:0:
140,212,227305,2,0,L|132:296,1,70,0|2,0:0|0:0,0:0:0:0:
184,340,227905,2,0,L|268:336,1,70,2|2,0:0|0:0,0:0:0:0:
476,124,229105,1,2,0:0:0:0:
340,52,229505,2,0,L|296:40,1,35,2|0,0:0|0:0,0:0:0:0:
252,96,229905,6,0,L|176:104,1,70,2|2,0:0|0:0,0:0:0:0:
128,156,230505,2,0,L|16:172,1,105,0|2,0:0|0:0,0:0:0:0:
32,245,231305,1,0,0:0:0:0:
104,264,231505,2,0,P|144:260|216:336,1,140,2|2,0:0|0:0,0:0:0:0:
368,344,232705,1,2,0:0:0:0:
368,344,233105,6,0,L|360:264,2,70,2|2|0,0:0|0:0|0:0,0:0:0:0:
440,208,234305,2,0,L|432:128,1,70,2|2,0:0|0:0,0:0:0:0:
104,76,235505,1,4,0:3:0:0:
104,76,235905,5,2,0:0:0:0:
52,144,236105,1,2,0:0:0:0:
100,216,236305,2,0,P|112:280|88:344,2,125.999996154785,2|2|0,0:0|0:0|0:0,0:0:0:0:
96,132,237705,1,0,0:0:0:0:
112,120,237805,1,0,0:0:0:0:
128,108,237905,2,0,B|156:104|188:120|188:120|228:104|268:120,2,125.999996154785,2|2|0,0:0|0:0|0:0,0:0:0:0:
232,240,239505,6,0,B|276:240|300:284|300:284|336:268|352:216,2,167.999994873047,4|4|2,0:3|0:3|0:0,0:0:0:0:
223,324,241305,1,0,0:0:0:0:
156,276,241505,1,0,0:0:0:0:
160,192,241705,1,2,0:0:0:0:
232,148,241905,2,0,P|268:152|320:136,1,83.9999974365235,0|2,0:0|0:0,0:0:0:0:
396,116,242505,1,0,0:0:0:0:
396,116,242605,1,0,0:0:0:0:
396,116,242705,6,0,L|408:224,1,97.9999970092774,0|2,0:0|0:0,0:0:0:0:
404,296,243305,1,2,0:0:0:0:
328,332,243505,2,0,P|284:348|224:336,1,97.9999970092774,0|2,0:0|0:0,0:0:0:0:
160,300,244105,1,2,0:0:0:0:
148,216,244305,6,0,B|160:190|156:164|156:164|196:162|221:122,2,112,2|2|0,0:0|0:0|0:0,0:0:0:0:
143,47,245505,1,2,0:0:0:0:
304,76,245905,6,0,P|324:120|308:204,1,125.999996154785,4|2,0:0|0:0,0:0:0:0:
156,292,246705,2,0,B|108:284|108:284|82:292|82:292|23:282,1,125.999996154785,8|2,0:0|0:0,0:0:0:0:
72,196,247305,1,8,0:0:0:0:
72,196,247405,1,8,0:0:0:0:
72,196,247505,2,0,P|52:136|80:80,1,125.999996154785,12|8,0:0|0:0,0:0:0:0:
144,36,248105,1,8,0:0:0:0:
192,36,248205,1,8,0:0:0:0:
240,36,248305,2,0,L|308:44,1,62.9999980773926,8|0,0:0|0:0,0:0:0:0:
408,160,248705,2,0,L|340:168,1,62.9999980773926,8|0,0:3|0:0,0:0:0:0:
159,137,249105,38,0,B|144:170|144:170|156:200|156:200|128:265|174:324,1,167.999994873047,4|2,0:1|0:0,0:0:0:0:
260,360,249705,1,0,0:0:0:0:
296,256,249905,2,0,P|252:208|240:284,1,167.999994873047,8|4,0:0|0:0,0:0:0:0:
372,224,250505,1,10,0:0:0:0:
372,224,250705,2,0,P|354:180|294:138,1,83.9999974365235,4|8,0:0|0:0,0:0:0:0:
260,28,251105,2,0,P|240:71|250:143,1,83.9999974365235,6|2,0:0|0:0,0:0:0:0:
108,176,251505,2,0,P|151:195|223:185,2,83.9999974365235,8|2|0,0:0|0:0|0:0,0:0:0:0:
36,104,252105,1,10,0:0:0:0:
76,244,252305,6,0,P|133:266|248:256,1,167.999994873047,4|2,0:0|0:0,0:0:0:0:
327,209,252905,1,2,0:0:0:0:
302,111,253105,2,0,P|370:115|402:143,1,83.9999974365235,8|2,0:0|0:0,0:0:0:0:
239,154,253505,2,0,P|226:100|253:52,1,83.9999974365235,6|8,0:0|0:0,0:0:0:0:
327,209,253905,2,0,P|327:265|235:257,1,167.999994873047,6|4,0:0|0:0,0:0:0:0:
160,196,254505,1,0,0:0:0:0:
160,196,254705,1,8,0:0:0:0:
311,63,255105,2,0,P|357:56|407:71,1,83.9999974365235,6|8,0:0|0:0,0:0:0:0:
348,216,255505,6,0,P|308:184|392:160,1,167.999994873047,4|2,0:3|0:0,0:0:0:0:
440,228,256105,1,0,0:0:0:0:
349,290,256305,2,0,P|255:244|232:183,1,167.999994873047,8|6,0:0|0:0,0:0:0:0:
184,100,256905,1,10,0:0:0:0:
184,100,257105,2,0,P|132:92|92:104,1,83.9999974365235,4|8,0:0|0:0,0:0:0:0:
258,75,257505,2,0,P|230:38|172:23,1,83.9999974365235,6|0,0:0|0:0,0:0:0:0:
319,122,257905,2,0,P|335:70|311:18,1,83.9999974365235,8|0,0:0|0:0,0:0:0:0:
288,192,258305,2,0,P|364:184|384:160,1,83.9999974365235,6|8,0:0|0:0,0:0:0:0:
232,140,258705,6,0,P|212:192|308:268,2,167.999994873047,4|6|8,0:0|0:0|0:0,0:0:0:0:
60,36,259905,1,2,0:0:0:0:
136,148,260105,1,2,0:0:0:0:
24,178,260305,1,4,0:1:0:0:
24,178,260505,2,0,P|44:222|92:246,1,83.9999974365235,8|0,0:3|0:0,0:0:0:0:
148,308,260905,1,8,0:0:0:0:
172,304,261005,1,8,0:0:0:0:
196,300,261105,2,0,B|176:208,1,83.9999974365235,8|8,0:0|0:0,0:0:0:0:
117,89,261505,2,0,P|104:130|117:177,1,83.9999974365235,6|8,0:0|0:3,0:0:0:0:
216,296,261905,6,0,L|176:120,1,167.999994873047,4|2,0:1|0:0,0:0:0:0:
228,44,262505,1,2,0:0:0:0:
228,44,262705,2,0,P|282:39|328:68,1,83.9999974365235,8|0,0:0|0:0,0:0:0:0:
281,208,263105,2,0,L|263:125,1,83.9999974365235,6|10,0:0|0:0,0:0:0:0:
369,177,263505,2,0,P|374:231|345:277,1,83.9999974365235,4|8,0:0|0:0,0:0:0:0:
276,308,263905,1,6,0:0:0:0:
184,264,264105,1,0,0:0:0:0:
196,364,264305,1,8,0:0:0:0:
172,240,264505,2,0,B|164:212|164:212|227:246|300:216,1,167.999994873047,2|10,0:0|0:0,0:0:0:0:
294,125,265105,6,0,P|210:153|166:74,1,167.999994873047,4|2,0:3|0:0,0:0:0:0:
309,53,265705,1,0,0:0:0:0:
309,53,265905,2,0,P|360:93|363:147,1,83.9999974365235,4|2,0:3|0:0,0:0:0:0:
368,212,266305,2,0,B|356:248|356:248|360:260|360:260|348:300,1,83.9999974365235,6|8,0:0|0:0,0:0:0:0:
215,323,266705,2,0,P|255:275|359:303,1,167.999994873047,4|4,0:3|0:0,0:0:0:0:
424,364,267305,1,8,0:3:0:0:
492,292,267505,2,0,B|482:260|482:260|486:248|486:248|474:212,1,83.9999974365235,10|8,0:0|0:3,0:0:0:0:
440,64,267905,1,8,0:3:0:0:
392,152,268105,1,8,0:0:0:0:
424,36,268305,6,0,L|256:40,1,140,4|2,0:1|0:0,0:0:0:0:
188,68,268905,1,0,0:0:0:0:
148,156,269105,2,0,P|132:212|164:304,1,140,0|6,0:0|0:0,0:0:0:0:
236,344,269705,1,0,0:0:0:0:
316,284,269905,6,0,P|328:224|304:140,1,125.999996154785,4|2,0:1|0:0,0:0:0:0:
248,104,270505,1,0,0:0:0:0:
248,104,270705,2,0,P|316:112|380:64,1,125.999996154785,0|6,0:0|0:0,0:0:0:0:
452,36,271305,1,0,0:0:0:0:
464,136,271505,6,0,B|488:160|488:160|476:184|476:184|500:208|522:250|499:311|467:333|444:336,1,224,4|0,0:1|0:0,0:0:0:0:
248,336,272705,1,6,0:0:0:0:
180,264,272905,1,2,0:0:0:0:
216,172,273105,6,0,P|200:120|224:64,1,97.9999970092774,4|2,0:1|0:0,0:0:0:0:
296,29,273705,1,2,0:0:0:0:
296,29,273905,2,0,P|312:81|288:137,1,97.9999970092774,0|2,0:0|0:0,0:0:0:0:
292,220,274505,1,0,0:0:0:0:
212,264,274705,6,0,P|160:272|120:256,1,83.9999974365235,0|2,0:0|0:0,0:0:0:0:
32,128,275505,2,0,L|40:40,2,83.9999974365235,0|2|0,0:0|0:0|0:0,0:0:0:0:
360,64,277105,2,0,L|352:120,1,41.9999987182618,2|2,0:0|0:0,0:0:0:0:
432,132,277505,2,0,L|440:188,1,41.9999987182618,0|2,0:0|0:0,0:0:0:0:
380,236,277905,1,2,0:0:0:0:
296,252,278105,1,0,0:0:0:0:
212,268,278305,6,0,L|200:368,1,83.9999974365235,2|0,0:0|0:0,0:0:0:0:
164,188,279105,2,0,P|112:168|92:132,1,83.9999974365235,2|0,0:0|0:0,0:0:0:0:
468,64,280305,2,0,L|420:40,1,41.9999987182618,2|2,0:0|0:0,0:0:0:0:
384,116,280705,2,0,L|332:128,1,41.9999987182618,0|2,0:0|0:0,0:0:0:0:
272,84,281105,6,0,P|260:120|281:180,2,83.9999974365235,0|2|0,0:0|0:0|0:0,0:0:0:0:
52,336,282705,2,0,P|132:340|176:268,1,167.999994873047,2|0,0:0|0:0,0:0:0:0:
420,44,284305,2,0,B|392:68|392:68|432:120|396:200,1,167.999994873047,2|0,0:0|0:0,0:0:0:0:
292,316,285505,1,0,0:0:0:0:
156,220,285905,2,0,P|136:160|152:92,2,125.999996154785,2|2|0,0:0|0:0|0:0,0:0:0:0:
312,280,287505,6,0,P|320:252|304:184,1,83.9999974365235,2|2,0:3|0:0,0:0:0:0:
155,138,288305,2,0,P|147:179|156:220,1,83.9999974365235,0|2,0:0|0:0,0:0:0:0:
208,80,289105,2,0,B|172:96|172:96|72:64,1,125.999996154785
12,104,289905,2,0,L|4:160,1,41.9999987182618,0|2,0:0|0:0,0:0:0:0:
92,160,290305,2,0,L|100:216,1,41.9999987182618,0|2,0:0|0:0,0:0:0:0:
192,256,290705,6,0,L|180:156,2,83.9999974365235,2|2|0,0:3|0:0|0:0,0:0:0:0:
340,336,291905,1,2,0:0:0:0:
460,216,292305,2,0,P|472:136|440:72,1,146.999995513916
416,48,293105,1,0,0:0:0:0:
344,88,293305,1,2,0:0:0:0:
264,60,293505,1,0,0:0:0:0:
204,120,293705,1,2,0:0:0:0:
172,204,293905,54,0,L|164:256,2,41.9999987182618,0|0|2,0:0|0:0|0:0,0:0:0:0:
260,220,294530,1,0,0:0:0:0:
336,268,294738,2,0,L|344:328,2,41.9999987182618,0|0|2,0:0|0:0|0:0,0:0:0:0:
420,232,295394,1,0,0:0:0:0:
360,164,295613,1,0,0:0:0:0:
360,164,295822,2,0,P|344:108|380:52,1,125.999996154785,2|2,0:0|0:0,0:0:0:0:
225,216,296952,2,0,P|233:264|217:312,1,83.9999974365235,4|0,0:1|0:0,0:0:0:0:
108,228,297689,69,0,0:0:0:0:
108,228,297804,2,0,B|72:140|40:132|16:80|28:48|60:16|88:12|124:20|144:52|144:52|164:20|204:8|252:24|276:64|252:144|208:140|180:228|180:228|224:216|224:216|216:232|232:244|260:264|284:268|352:420|664:360|524:-108|148:108|328:372,1,1316,2|0,0:0|0:0,0:0:0:0:
