osu file format v14

[General]
AudioFilename: audio.mp3
AudioLeadIn: 0
PreviewTime: 131923
Countdown: 1
SampleSet: Soft
StackLeniency: 0.7
Mode: 2
LetterboxInBreaks: 0
WidescreenStoryboard: 0

[Editor]
DistanceSpacing: 3
BeatDivisor: 4
GridSize: 8
TimelineZoom: 2.899999

[Metadata]
Title:Kanade
TitleUnicode:奏
Artist:Fujimiya Kaori (CV:Amamiya Sora)
ArtistUnicode:藤宮香織 (CV:雨宮天)
Creator:[-naniwa-]
Version:Geranium
Source:一週間フレンズ。
Tags:Norihiko Machida 町田紀彥 friends one week ending ed full version
BeatmapID:2020956
BeatmapSetID:965447

[Difficulty]
HPDrainRate:6
CircleSize:4
OverallDifficulty:8.8
ApproachRate:8.8
SliderMultiplier:1.6
SliderTickRate:1

[Events]
//Background and Video events
0,0,"r1VhIsa.jpg",0,0
//Break Periods
2,94923,107294
//Storyboard Layer 0 (Background)
//Storyboard Layer 1 (Fail)
//Storyboard Layer 2 (Pass)
//Storyboard Layer 3 (Foreground)
//Storyboard Sound Samples

[TimingPoints]
740,400,4,2,1,20,1,0
26323,400,4,2,1,50,1,0
26323,-83.3333333333333,4,2,1,50,0,0
37523,-100,4,2,1,50,0,0
38723,-100,4,2,1,30,0,0
40323,-100,4,2,1,50,0,0
66323,-66.6666666666667,4,2,1,70,0,0
69523,-66.6666666666667,4,2,1,90,0,1
88723,-133.333333333333,4,2,1,50,0,0
93523,-100,4,2,1,60,0,0
107923,-100,4,2,1,50,0,0
120723,-76.9230769230769,4,2,1,60,0,0
131923,-76.9230769230769,4,2,1,70,0,0
135123,-66.6666666666667,4,2,1,90,0,1
157525,-76.9230769230769,4,2,1,80,0,1
167123,-100,4,2,1,60,0,0
192723,-100,4,2,1,80,0,1
219923,-100,4,2,1,80,0,0
220723,-100,4,2,1,60,0,0
221523,-100,4,2,1,40,0,0
222323,-100,4,2,1,20,0,0
223123,-100,4,2,1,40,0,0
245523,-100,4,2,1,80,0,0
248723,-66.6666666666667,4,2,1,100,0,1
250723,-100,4,2,1,100,0,1
251323,-66.6666666666667,4,2,1,100,0,1
259923,-100,4,2,1,100,0,1
261523,-100,4,2,1,100,0,1
267923,-133.333333333333,4,2,1,80,0,0
269523,-133.333333333333,4,2,1,70,0,0
271123,-133.333333333333,4,2,1,60,0,0
272723,-100,4,2,1,50,0,0
274323,-133.333333333333,4,2,1,30,0,0
293523,410.958904109589,4,2,1,30,1,0
293523,-100,4,2,1,30,0,0
293933,428.571428571429,4,2,1,30,1,0
294790,476.190476190476,4,2,1,30,1,0
295266,428.571428571429,4,2,1,50,1,0
296016,-100,4,2,1,40,0,0
296551,-100,4,2,1,30,0,0
297194,-100,4,2,1,50,0,8
298694,-100,4,2,1,40,0,8
300408,-100,4,2,1,30,0,8

[Colours]
Combo1 : 0,0,255
Combo2 : 255,128,255
Combo3 : 255,255,255
Combo4 : 255,128,0

[HitObjects]
368,240,740,5,2,0:0:0:0:
112,112,1540,1,0,0:0:0:0:
248,160,2340,5,0,0:0:0:0:
288,160,2540,1,0,0:0:0:0:
96,296,3140,1,0,0:0:0:0:
368,160,3940,5,2,0:0:0:0:
224,160,4740,1,0,0:0:0:0:
64,152,5538,5,0,0:0:0:0:
104,152,5740,1,0,0:0:0:0:
336,192,6340,1,0,0:0:0:0:
168,48,7140,5,2,0:0:0:0:
432,192,7940,1,0,0:0:0:0:
136,40,8740,5,0,0:0:0:0:
200,40,8940,1,0,0:0:0:0:
408,160,9540,1,0,0:0:0:0:
112,264,10340,5,2,0:0:0:0:
384,96,11140,1,0,0:0:0:0:
192,208,11940,5,2,0:0:0:0:
104,144,12340,1,0,0:0:0:0:
272,200,12740,1,0,0:0:0:0:
328,200,12924,1,0,0:0:0:0:
392,200,13140,1,0,0:0:0:0:
240,184,13540,5,2,0:0:0:0:
120,288,14340,1,0,0:0:0:0:
336,272,15140,5,0,0:0:0:0:
376,272,15340,1,0,0:0:0:0:
168,184,15940,1,0,0:0:0:0:
128,184,16740,5,2,0:0:0:0:
272,96,17540,1,0,0:0:0:0:
424,144,18340,5,0,0:0:0:0:
384,144,18540,1,0,0:0:0:0:
160,152,19140,1,0,0:0:0:0:
400,192,19940,5,2,0:0:0:0:
176,200,20740,1,0,0:0:0:0:
336,200,21540,5,0,0:0:0:0:
376,200,21740,1,0,0:0:0:0:
136,208,22340,1,0,0:0:0:0:
352,224,23140,5,2,0:0:0:0:
152,96,23940,1,0,0:0:0:0:
368,144,24740,5,2,0:0:0:0:
448,144,25148,1,0,0:0:0:0:
328,144,25340,5,8,0:3:0:0:
272,144,25441,1,8,0:3:0:0:
216,144,25541,1,8,0:3:0:0:
376,144,25740,2,0,L|472:144,2,80,4|4|8,0:3|0:3|0:3,0:0:0:0:
80,144,26323,6,0,P|24:224|104:256,1,191.999994140625,4|0,0:3|0:0,0:0:0:0:
208,264,26923,1,0,0:0:0:0:
336,264,27123,2,0,P|416:192|376:88,1,191.999994140625,8|0,0:3|0:0,0:0:0:0:
264,128,27923,5,2,0:3:0:0:
168,128,28123,1,0,0:0:0:0:
72,128,28323,2,0,P|40:192|152:248,1,191.999994140625,0|2,0:0|0:0,0:0:0:0:
256,256,28923,1,2,0:0:0:0:
104,256,29123,2,0,L|72:144,1,95.9999970703126
368,168,29523,6,0,P|432:192|376:296,1,191.999994140625,4|0,0:3|0:0,0:0:0:0:
264,296,30123,1,0,0:0:0:0:
432,128,30323,2,0,L|240:128,1,191.999994140625,8|0,0:3|0:0,0:0:0:0:
408,216,31123,5,2,0:3:0:0:
448,144,31323,1,0,0:0:0:0:
328,144,31523,2,0,P|256:144|136:144,1,191.999994140625,0|2,0:0|0:0,0:0:0:0:
256,208,32123,1,2,0:0:0:0:
128,208,32323,2,0,L|48:128,1,95.9999970703126
328,208,32723,6,0,P|232:176|256:80,1,191.999994140625,4|0,0:3|0:0,0:0:0:0:
328,208,33323,1,0,0:0:0:0:
456,208,33523,2,0,P|488:144|400:72,1,191.999994140625,8|0,0:3|0:0,0:0:0:0:
200,88,34323,5,2,0:3:0:0:
280,88,34523,1,0,0:0:0:0:
120,88,34723,2,0,P|88:136|144:264,1,191.999994140625,0|2,0:0|0:0,0:0:0:0:
272,264,35323,1,0,0:0:0:0:
416,272,35523,2,0,L|456:176,1,95.9999970703126,2|0,0:0|0:0,0:0:0:0:
144,336,35923,6,0,P|80:272|200:48,1,383.99998828125,4|0,0:3|0:0,0:0:0:0:
328,184,37123,1,0,0:0:0:0:
232,184,37323,2,0,L|160:184,1,47.9999985351563
344,208,37523,6,0,L|480:104,2,160,8|0|8,0:3|0:0|0:3,0:0:0:0:
256,192,38723,12,0,41923,0:0:0:0:
368,304,42323,6,0,L|400:128,1,160,4|0,0:3|0:0,0:0:0:0:
248,232,42923,2,0,P|160:208|200:72,1,240,0|2,0:0|0:0,0:0:0:0:
304,80,43723,1,0,0:0:0:0:
136,192,43923,6,0,L|312:192,1,160,8|0,0:3|0:0,0:0:0:0:
184,192,44523,1,0,0:0:0:0:
328,192,44723,2,0,P|344:272|256:304,1,160,0|2,0:0|0:0,0:0:0:0:
96,80,45523,5,2,0:3:0:0:
256,160,45923,2,0,L|344:160,1,80,0|2,0:0|0:0,0:0:0:0:
136,136,46523,2,0,L|48:136,1,80,0|2,0:0|0:0,0:0:0:0:
296,232,47123,6,0,L|424:128,2,160,0|4|0,0:0|0:3|0:0,0:0:0:0:
80,240,48323,2,0,L|64:160,1,80
288,272,48723,6,0,P|352:248|408:152,1,160,4|0,0:3|0:0,0:0:0:0:
288,128,49323,1,0,0:0:0:0:
160,144,49523,2,0,L|56:144,2,80
280,256,50123,1,0,0:0:0:0:
392,256,50323,6,0,P|456:168|416:112,1,160,2|0,0:0|0:0,0:0:0:0:
192,232,51123,2,0,P|160:192|280:88,1,240,2|0,0:0|0:0,0:0:0:0:
416,272,51923,6,0,L|240:272,1,160,4|0,0:3|0:0,0:0:0:0:
368,272,52523,1,0,0:0:0:0:
480,272,52723,2,0,P|496:192|416:144,1,160,0|2,0:0|0:0,0:0:0:0:
160,272,53523,6,0,P|112:240|160:152,1,160,4|0,0:3|0:0,0:0:0:0:
240,152,54123,1,0,0:0:0:0:
344,192,54323,2,0,L|424:192,1,80,2|0,0:0|0:0,0:0:0:0:
232,128,54723,2,0,L|136:128,1,80,2|0,0:0|0:0,0:0:0:0:
464,72,55123,6,0,P|496:112|416:200,1,160,8|0,0:3|0:0,0:0:0:0:
312,200,55723,1,0,0:0:0:0:
192,200,55923,2,0,P|152:136|224:80,1,160,0|2,0:0|0:0,0:0:0:0:
352,200,56723,6,0,L|240:200,1,80,4|0,0:3|0:0,0:0:0:0:
416,200,57123,2,0,L|456:96,1,80,4|0,0:3|0:0,0:0:0:0:
216,80,57523,2,0,P|152:112|168:216,1,160,0|2,0:0|0:0,0:0:0:0:
272,192,58123,1,0,0:0:0:0:
112,192,58323,6,0,P|104:248|256:336,1,240,2|0,0:0|0:0,0:0:0:0:
344,344,59123,2,0,P|451:306|468:193,1,240,2|0,0:0|0:0,0:0:0:0:
240,288,59923,5,2,0:0:0:0:
179,239,60123,1,0,0:0:0:0:
179,162,60323,1,0,0:0:0:0:
239,114,60523,1,0,0:0:0:0:
344,112,60723,2,0,L|432:112,1,80,2|0,0:0|0:0,0:0:0:0:
239,114,61123,2,0,L|151:114,1,80,2|0,0:0|0:0,0:0:0:0:
456,232,61523,6,0,P|488:168|424:112,1,160,4|0,0:3|0:0,0:0:0:0:
272,120,62123,1,0,0:0:0:0:
152,120,62323,2,0,L|40:120,2,80,2|0|0,0:0|0:0|0:0,0:0:0:0:
304,120,63123,6,0,P|328:200|272:224,1,160,8|0,0:3|0:0,0:0:0:0:
176,256,63723,1,0,0:0:0:0:
352,264,63923,2,0,P|416:232|432:144,1,160,2|0,0:0|0:0,0:0:0:0:
328,144,64523,1,0,0:0:0:0:
64,280,64723,6,0,P|48:168|96:160,1,160,4|0,0:3|0:0,0:0:0:0:
200,152,65323,1,0,0:0:0:0:
400,288,65523,2,0,L|432:184,1,80,2|0,0:0|0:0,0:0:0:0:
296,192,65923,1,2,0:0:0:0:
464,192,66123,1,0,0:0:0:0:
176,304,66323,6,0,P|112:224|184:120,1,240.000009155274,4|0,0:1|0:0,0:0:0:0:
400,304,67123,2,0,P|400:168|296:144,1,240.000009155274,4|4,0:3|0:3,0:0:0:0:
192,136,67723,2,0,L|128:136,1,60.0000022888184
336,296,67923,5,2,0:0:0:0:
431,232,68123,1,0,0:0:0:0:
430,117,68323,1,0,0:0:0:0:
332,56,68523,1,0,0:0:0:0:
96,144,68723,2,0,L|192:48,1,120.000004577637,2|0,0:0|0:0,0:0:0:0:
448,144,69123,2,0,L|352:48,1,120.000004577637,2|0,0:0|0:0,0:0:0:0:
96,288,69523,6,0,P|32:216|112:112,1,240.000009155274,4|0,0:0|0:0,0:0:0:0:
256,112,70123,1,0,0:0:0:0:
400,176,70323,2,0,L|480:56,2,120.000004577637,2|0|0,0:0|0:0|0:0,0:0:0:0:
272,176,70923,1,0,0:0:0:0:
440,88,71123,5,8,0:0:0:0:
472,198,71323,1,0,0:0:0:0:
393,281,71523,1,0,0:0:0:0:
281,257,71723,1,0,0:0:0:0:
432,280,71923,2,0,L|488:144,1,120.000004577637,2|0,0:0|0:0,0:0:0:0:
304,256,72323,2,0,L|184:192,1,120.000004577637
472,296,72723,6,0,P|504:184|400:104,1,240.000009155274,8|0,0:0|0:0,0:0:0:0:
264,104,73323,1,0,0:0:0:0:
384,272,73523,2,0,L|472:176,1,120.000004577637,2|0,0:0|0:0,0:0:0:0:
312,144,73923,2,0,L|176:144,1,120.000004577637,2|0,0:0|0:0,0:0:0:0:
280,144,74223,1,0,0:0:0:0:
456,280,74323,6,0,L|488:144,1,120.000004577637,2|0,0:3|0:0,0:0:0:0:
288,160,74723,2,0,L|408:160,1,120.000004577637,2|0,0:0|0:0,0:0:0:0:
248,160,75123,1,2,0:3:0:0:
384,248,75323,2,0,L|480:160,2,120.000004577637,2|0|0,0:0|0:0|0:0,0:0:0:0:
96,296,75923,6,0,P|64:272|104:104,1,240.000009155274,8|0,0:0|0:0,0:0:0:0:
248,128,76523,1,0,0:0:0:0:
400,128,76723,2,0,P|472:192|368:288,1,240.000009155274,2|0,0:0|0:0,0:0:0:0:
248,296,77323,1,0,0:0:0:0:
440,296,77523,6,0,P|480:208|352:144,1,240.000009155274,8|2,0:0|0:0,0:0:0:0:
256,192,78123,1,0,0:0:0:0:
128,312,78323,2,0,L|240:240,1,120.000004577637,2|0,0:0|0:0,0:0:0:0:
64,312,78723,2,0,L|16:184,1,120.000004577637,2|0,0:0|0:0,0:0:0:0:
320,320,79123,6,0,P|392:296|392:144,1,240.000009155274,8|0,0:0|0:0,0:0:0:0:
272,152,79723,1,0,0:0:0:0:
408,200,79923,2,0,L|456:152,1,60.0000022888184,2|0,0:0|0:0,0:0:0:0:
376,128,80123,2,0,L|280:256,1,120.000004577637
448,264,80523,1,0,0:0:0:0:
168,248,80723,6,0,L|80:160,1,120.000004577637,2|0,0:3|0:0,0:0:0:0:
248,208,81123,2,0,L|336:120,1,120.000004577637,2|0,0:0|0:0,0:0:0:0:
24,128,81523,2,0,L|144:128,1,120.000004577637,2|0,0:3|0:0,0:0:0:0:
488,128,81923,2,0,L|368:128,1,120.000004577637,2|0,0:3|0:0,0:0:0:0:
103,302,82323,6,0,P|50:243|114:115,1,240.000009155274,4|0,0:0|0:0,0:0:0:0:
272,112,82923,1,0,0:0:0:0:
113,115,83123,2,0,P|160:240|288:240,1,240.000009155274,2|0,0:0|0:0,0:0:0:0:
408,256,83723,1,0,0:0:0:0:
232,256,83923,6,0,L|176:144,1,120.000004577637,8|0,0:0|0:0,0:0:0:0:
352,160,84323,2,0,L|448:80,1,120.000004577637,2|0,0:0|0:0,0:0:0:0:
264,80,84723,1,2,0:0:0:0:
155,93,84923,1,2,0:0:0:0:
156,202,85123,1,0,0:0:0:0:
265,212,85323,1,0,0:0:0:0:
104,328,85523,6,0,P|56:248|160:104,1,240.000009155274,8|0,0:0|0:0,0:0:0:0:
368,304,86323,2,0,L|192:120,1,240.000009155274,2|0,0:0|0:0,0:0:0:0:
336,112,86923,1,0,0:0:0:0:
176,96,87123,6,0,P|112:144|184:272,1,240.000009155274,2|0,0:0|0:0,0:0:0:0:
328,272,87723,1,0,0:0:0:0:
208,272,87923,2,0,L|144:272,1,60.0000022888184,2|0,0:0|0:0,0:0:0:0:
80,272,88123,2,0,L|168:184,1,120.000004577637
360,272,88523,1,0,0:0:0:0:
168,269,88723,6,0,L|168:245,1,15.0000005722046,4|0,0:3|0:0,0:0:0:0:
384,200,89923,1,0,0:0:0:0:
160,168,90323,6,0,L|160:152,1,15.0000005722046,4|0,0:3|0:0,0:0:0:0:
400,304,91123,2,0,P|424:248|400:192,1,120.000004577637
288,192,91723,1,0,0:0:0:0:
144,88,91923,6,0,P|80:120|136:256,1,240.000009155274,4|0,0:3|0:0,0:0:0:0:
304,200,93123,2,0,L|392:200,1,60.0000022888184
176,208,93523,6,0,P|112:168|120:96,1,120,2|0,0:0|0:0,0:0:0:0:
208,96,93923,2,0,L|312:96,1,80
128,256,94323,2,0,L|32:256,2,80,2|0|2,0:0|0:0|0:0,0:0:0:0:
432,208,107923,6,0,L|288:328,2,160,2|0|2,0:0|0:0|0:0,0:0:0:0:
200,296,109523,6,0,P|128:208|160:152,1,160,2|0,0:0|0:0,0:0:0:0:
320,224,110123,2,0,P|392:168|280:128,1,240,0|2,0:0|0:0,0:0:0:0:
144,296,111123,6,0,P|104:240|176:104,1,240,2|0,0:0|0:0,0:0:0:0:
360,320,111923,2,0,P|424:256|336:144,1,240,2|0,0:0|0:0,0:0:0:0:
208,104,112723,5,2,0:0:0:0:
368,224,113123,2,2,L|264:224,1,80,0|2,0:0|0:0,0:0:0:0:
160,176,113523,2,0,L|248:176,1,80
400,224,113923,2,0,L|416:120,1,80
256,264,114323,6,0,P|200:240|200:128,1,160,2|0,0:3|0:0,0:0:0:0:
312,120,114923,1,0,0:0:0:0:
176,152,115123,2,0,P|152:160|200:256,1,160,8|0,0:1|0:0,0:0:0:0:
344,192,115923,6,0,L|456:56,2,160,2|0|2,0:0|0:0|0:0,0:0:0:0:
256,192,117523,12,0,119123,0:0:0:0:
344,232,119923,6,2,L|240:232,1,80,2|2,0:3|0:3,0:3:0:0:
416,224,120323,2,0,L|480:160,1,80
144,240,120723,6,0,P|104:208|192:112,1,207.999990478516,4|0,0:3|0:0,0:0:0:0:
280,112,121323,1,0,0:0:0:0:
136,104,121523,2,0,P|128:184|272:224,1,207.999990478516,8|0,0:3|0:0,0:0:0:0:
360,240,122123,1,0,0:0:0:0:
224,248,122323,6,0,P|168:152|256:112,1,207.999990478516,2|0,0:3|0:0,0:0:0:0:
376,160,123123,2,0,L|456:80,2,103.999995239258,2|0|2,0:0|0:0|0:0,0:0:0:0:
208,256,123923,6,0,P|136:224|176:120,1,207.999990478516,4|0,0:3|0:0,0:0:0:0:
304,120,124523,1,0,0:0:0:0:
440,120,124723,2,0,P|488:184|392:264,1,207.999990478516,8|0,0:3|0:0,0:0:0:0:
296,272,125523,6,0,L|376:192,1,103.999995239258,2|0,0:0|0:0,0:0:0:0:
232,272,125923,2,0,L|152:192,1,103.999995239258
352,272,126323,1,2,0:0:0:0:
444,239,126523,1,0,0:0:0:0:
445,141,126723,1,0,0:0:0:0:
355,105,126923,1,0,0:0:0:0:
176,200,127123,6,0,P|288:192|288:96,1,207.999990478516,4|0,0:3|0:0,0:0:0:0:
128,296,127923,2,0,P|72:248|144:152,1,207.999990478516,8|0,0:3|0:0,0:0:0:0:
256,152,128523,1,0,0:0:0:0:
392,296,128723,6,0,L|448:80,1,207.999990478516,2|0,0:3|0:0,0:0:0:0:
288,208,129523,1,2,0:3:0:0:
200,208,129723,1,0,0:0:0:0:
288,208,129923,1,0,0:0:0:0:
376,208,130123,1,0,0:0:0:0:
104,304,130323,6,0,P|56:224|120:120,1,207.999990478516,4|0,0:1|0:0,0:0:0:0:
256,128,130923,1,0,0:0:0:0:
136,128,131123,2,0,L|40:224,2,103.999995239258,2|0|2,0:0|0:0|0:0,0:0:0:0:
352,296,131923,6,0,P|408:256|360:112,1,207.999990478516,4|0,0:3|0:0,0:0:0:0:
256,192,132723,2,0,L|368:128,1,103.999995239258,8|0,0:3|0:0,0:0:0:0:
88,216,133123,1,4,0:3:0:0:
256,192,133323,2,0,L|312:136,1,51.999997619629,8|0,0:3|0:0,0:0:0:0:
72,104,133523,6,0,P|16:184|96:264,1,207.999990478516,4|2,0:1|0:3,0:0:0:0:
224,184,134123,2,0,L|296:184,1,51.999997619629,8|0,0:3|0:0,0:0:0:0:
112,184,134323,1,0,0:0:0:0:
276,184,134523,1,0,0:0:0:0:
80,184,134723,1,0,0:0:0:0:
224,184,134923,2,0,L|288:184,1,51.999997619629,8|0,0:3|0:0,0:0:0:0:
440,144,135123,6,0,L|344:48,2,120.000004577637,4|0|2,0:0|0:0|0:0,0:0:0:0:
256,112,135923,2,0,P|192:152|256:272,1,240.000009155274,2|0,0:0|0:0,0:0:0:0:
408,272,136523,1,0,0:0:0:0:
256,272,136723,6,0,L|168:184,1,120.000004577637,8|0,0:0|0:0,0:0:0:0:
320,272,137123,2,0,L|408:184,1,120.000004577637
176,280,137523,2,0,P|136:224|256:104,1,240.000009155274,2|0,0:0|0:0,0:0:0:0:
392,128,138123,1,0,0:0:0:0:
135,327,138323,6,0,P|61:240|98:132,1,240.000009155274,8|2,0:0|0:0,0:0:0:0:
256,128,138923,1,0,0:0:0:0:
412,131,139123,2,0,P|450:239|376:327,1,240.000009155274,2|0,0:0|0:0,0:0:0:0:
256,296,139723,2,0,L|192:296,1,60.0000022888184
376,296,139923,6,0,L|464:208,2,120.000004577637,2|0|2,0:3|0:0|0:0,0:0:0:0:
208,256,140523,2,0,P|152:208|232:80,1,240.000009155274,2|2,0:3|0:0,0:0:0:0:
376,80,141123,1,0,0:0:0:0:
176,64,141323,1,0,0:0:0:0:
448,80,141523,6,0,P|504:136|400:248,1,240.000009155274,8|0,0:0|0:0,0:0:0:0:
272,248,142123,1,0,0:0:0:0:
120,248,142323,2,0,L|208:160,2,120.000004577637,2|0|0,0:0|0:0|0:0,0:0:0:0:
272,248,142923,1,0,0:0:0:0:
88,56,143123,6,0,P|32:104|112:256,1,240.000009155274,8|2,0:0|0:0,0:0:0:0:
192,136,143723,1,0,0:0:0:0:
344,136,143923,2,0,L|440:232,1,120.000004577637,2|0,0:0|0:0,0:0:0:0:
280,136,144323,2,0,L|184:232,1,120.000004577637,2|0,0:0|0:0,0:0:0:0:
456,112,144723,6,0,P|496:224|368:288,1,240.000009155274,8|0,0:0|0:0,0:0:0:0:
256,288,145323,1,0,0:0:0:0:
384,288,145523,2,0,L|472:200,1,120.000004577637,2|0,0:0|0:0,0:0:0:0:
296,288,145923,2,0,L|208:200,1,120.000004577637,2|0,0:0|0:0,0:0:0:0:
472,192,146323,6,0,L|368:88,1,120.000004577637,2|0,0:3|0:0,0:0:0:0:
248,240,146723,2,0,L|360:128,1,120.000004577637,2|0,0:0|0:0,0:0:0:0:
32,208,147123,2,0,L|152:208,1,120.000004577637,2|0,0:3|0:0,0:0:0:0:
472,192,147523,2,0,L|344:192,1,120.000004577637,2|0,0:0|0:0,0:0:0:0:
80,320,147923,6,0,P|48:224|160:136,1,240.000009155274,4|2,0:0|0:0,0:0:0:0:
280,136,148523,1,0,0:0:0:0:
416,48,148723,1,2,0:0:0:0:
470,151,148923,1,2,0:0:0:0:
440,264,149123,1,2,0:0:0:0:
340,326,149323,1,0,0:0:0:0:
80,296,149523,6,0,L|272:104,1,240.000009155274,8|2,0:0|0:0,0:0:0:0:
120,112,150123,1,0,0:0:0:0:
280,128,150323,2,0,L|376:32,1,120.000004577637,2|2,0:0|0:0,0:0:0:0:
192,136,150723,2,0,L|96:232,1,120.000004577637
368,280,151123,6,0,P|432:248|344:136,1,240.000009155274,4|0,0:1|0:0,0:0:0:0:
160,256,151923,2,0,P|112:176|200:80,1,240.000009155274,2|2,0:0|0:0,0:0:0:0:
320,88,152523,1,0,0:0:0:0:
152,56,152723,5,2,0:0:0:0:
66,135,152923,1,0,0:0:0:0:
65,252,153123,1,0,0:0:0:0:
148,334,153323,1,0,0:0:0:0:
328,328,153523,2,0,L|232:232,1,120.000004577637,2|0,0:0|0:0,0:0:0:0:
400,240,153923,2,0,L|472:128,1,120.000004577637,2|0,0:0|0:0,0:0:0:0:
296,40,154323,6,0,L|296:288,1,240.000009155274,4|0,0:1|0:0,0:0:0:0:
168,192,155123,2,0,L|48:96,2,120.000004577637,2|0|2,0:0|0:0|0:0,0:0:0:0:
304,192,155723,1,0,0:0:0:0:
128,304,155923,6,0,P|72:232|160:120,1,240.000009155274,4|2,0:1|0:0,0:0:0:0:
280,120,156523,1,0,0:0:0:0:
416,288,156723,2,0,L|472:168,1,120.000004577637,2|0,0:0|0:0,0:0:0:0:
328,152,157123,1,0,0:0:0:0:
472,136,157323,1,0,0:0:0:0:
288,152,157523,6,0,L|184:256,1,103.999995239258,2|0,0:0|0:0,0:0:0:0:
360,152,157923,2,0,P|408:200|336:320,1,207.999990478516,2|0,0:0|0:0,0:0:0:0:
184,200,158723,2,0,L|88:296,1,103.999995239258
384,256,159123,6,0,L|464:176,2,103.999995239258,4|0|2,0:0|0:0|0:0,0:0:0:0:
256,256,159723,2,0,P|208:208|280:96,1,207.999990478516,2|0,0:0|0:0,0:0:0:0:
384,128,160323,2,0,L|488:128,1,103.999995239258,2|0,0:0|0:0,0:0:0:0:
144,280,160723,6,0,P|80:224|128:120,1,207.999990478516,4|2,0:1|0:0,0:0:0:0:
256,120,161323,1,0,0:0:0:0:
121,123,161523,2,0,L|41:43,1,103.999995239258,2|0,0:0|0:0,0:0:0:0:
256,120,161923,2,0,L|336:40,1,103.999995239258
152,120,162323,5,2,0:0:0:0:
60,153,162523,1,0,0:0:0:0:
58,251,162723,1,0,0:0:0:0:
148,288,162923,1,0,0:0:0:0:
320,256,163123,2,0,L|200:256,1,103.999995239258,2|0,0:0|0:0,0:0:0:0:
384,256,163523,2,0,L|464:176,1,103.999995239258
152,272,163923,6,0,P|80:224|104:88,1,207.999990478516,4|2,0:1|0:0,0:0:0:0:
208,112,164523,1,0,0:0:0:0:
360,272,164723,2,0,P|432:224|424:80,1,207.999990478516,4|2,0:1|0:0,0:0:0:0:
320,104,165323,1,0,0:0:0:0:
152,304,165523,5,2,0:0:0:0:
80,232,165723,1,2,0:0:0:0:
85,131,165923,1,0,0:0:0:0:
163,66,166123,1,2,0:0:0:0:
440,200,166323,2,0,L|352:288,1,103.999995239258,0|2,0:0|0:0,0:0:0:0:
72,200,166723,2,0,L|160:288,1,103.999995239258,0|2,0:0|0:0,0:0:0:0:
472,168,167123,6,0,L|280:168,2,160,2|0|0,0:3|0:0|0:0,0:0:0:0:
248,168,168323,2,0,L|144:168,1,80,2|0,0:0|0:0,0:0:0:0:
376,232,168723,6,0,L|472:232,2,80,2|0|2,0:3|0:0|0:0,0:0:0:0:
272,232,169323,1,0,0:0:0:0:
408,296,169523,1,2,0:3:0:0:
459,238,169723,1,0,0:0:0:0:
452,160,169923,1,2,0:0:0:0:
389,114,170123,1,0,0:0:0:0:
96,96,170323,6,0,L|256:96,2,160,2|0|2,0:3|0:0|0:0,0:0:0:0:
304,216,171523,2,0,L|208:216,1,80
368,216,171923,6,0,L|456:216,2,80,2|0|2,0:3|0:0|0:0,0:0:0:0:
264,216,172523,1,2,0:3:0:0:
144,152,172723,2,0,L|232:152,1,80
80,152,173123,2,0,L|0:72,1,80,2|0,0:0|0:0,0:0:0:0:
400,88,173523,6,2,P|456:136|392:208,1,160,4|2,0:1|0:0,0:0:0:0:
272,216,174323,2,0,L|192:216,1,80,2|0,0:0|0:0,0:0:0:0:
360,176,174723,2,0,L|464:176,1,80,2|0,0:0|0:0,0:0:0:0:
144,152,175123,6,0,L|40:152,2,80,4|0|0,0:1|0:0|0:0,0:0:0:0:
360,256,175923,2,0,L|448:256,1,80,4|0,0:1|0:0,0:0:0:0:
248,192,176323,1,0,0:0:0:0:
360,160,176523,2,0,L|408:160,1,40
144,288,176723,6,0,P|104:200|144:144,1,160,4|2,0:1|0:0,0:0:0:0:
320,256,177523,2,0,P|392:248|384:152,1,160,2|2,0:3|0:0,0:0:0:0:
312,128,178123,1,2,0:0:0:0:
192,128,178323,5,2,0:0:0:0:
344,128,178523,2,2,L|392:128,2,40,2|2|0,0:0|0:0|0:0,0:0:0:0:
160,128,178923,1,0,0:0:0:0:
424,128,179123,2,0,L|488:64,1,80,2|0,0:0|0:0,0:0:0:0:
112,200,179523,2,0,L|8:200,1,80,2|0,0:0|0:0,0:0:0:0:
392,128,179923,6,0,P|432:184|384:264,1,160,4|2,0:1|0:0,0:0:0:0:
256,256,180523,2,0,L|176:256,1,80,0|2,0:0|0:0,0:0:0:0:
368,280,181123,6,0,P|400:232|232:120,1,320,4|0,0:2|0:0,0:0:0:0:
392,72,182323,1,2,0:0:0:0:
450,122,182523,1,0,0:0:0:0:
448,199,182723,1,2,0:0:0:0:
386,246,182923,1,0,0:0:0:0:
112,280,183123,6,0,P|64:240|104:152,1,160,4|2,0:1|0:0,0:0:0:0:
224,152,183723,2,0,L|304:152,1,80,0|2,0:0|0:0,0:0:0:0:
144,248,184323,6,0,P|96:208|152:64,1,240,4|0,0:2|0:0,0:0:0:0:
272,64,185123,1,2,0:0:0:0:
120,64,185323,2,0,L|72:112,1,40
304,64,185523,2,0,L|384:64,1,80,2|0,0:0|0:0,0:0:0:0:
120,224,185923,2,0,L|16:224,1,80,2|0,0:0|0:0,0:0:0:0:
344,272,186323,6,0,L|408:208,1,80,4|0,0:1|0:0,0:0:0:0:
240,208,186723,2,0,L|424:208,1,160,2|2,0:3|0:0,0:0:0:0:
176,288,187523,6,0,P|96:240|200:168,1,240,2|0,0:3|0:0,0:0:0:0:
344,152,188323,2,0,L|176:152,1,160,2|2,0:0|0:0,0:0:0:0:
312,152,188923,1,0,0:0:0:0:
424,288,189123,2,0,L|496:216,1,80,2|0,0:0|0:0,0:0:0:0:
112,240,189523,6,0,L|32:240,2,80,2|0|2,0:3|0:0|0:0,0:0:0:0:
272,240,190323,2,0,L|344:168,1,80,2|0,0:3|0:0,0:0:0:0:
184,168,190723,2,0,L|96:168,1,80,2|0,0:0|0:0,0:0:0:0:
400,184,191123,5,2,0:0:0:0:
232,184,191323,2,0,L|184:184,1,40,2|0,0:0|0:0,0:0:0:0:
120,120,191523,2,0,L|216:120,1,80,2|0,0:0|0:0,0:0:0:0:
368,288,191923,1,2,0:0:0:0:
436,252,192123,1,0,0:0:0:0:
452,176,192323,1,2,0:0:0:0:
403,116,192523,1,0,0:0:0:0:
112,240,192723,6,0,L|288:240,1,160,4|4,0:1|0:3,0:0:0:0:
152,240,193323,1,0,0:0:0:0:
336,240,193523,2,0,L|336:152,1,80,2|0,0:0|0:0,0:0:0:0:
152,184,193923,2,0,L|152:88,1,80,2|0,0:0|0:0,0:0:0:0:
368,304,194323,6,0,P|416:280|384:176,1,160,2|0,0:3|0:0,0:0:0:0:
264,176,194923,1,2,0:0:0:0:
400,176,195123,2,0,L|480:176,2,80,2|0|0,0:3|0:0|0:0,0:0:0:0:
280,128,195723,2,0,L|224:128,1,40
64,128,195923,6,0,P|32:176|96:280,1,160,4|0,0:3|0:0,0:0:0:0:
184,264,196523,1,2,0:0:0:0:
304,264,196723,2,0,L|368:264,2,40,0|0|2,0:0|0:0|0:0,0:0:0:0:
176,272,197123,2,0,L|80:272,1,80
400,120,197523,6,0,L|496:120,2,80,2|0|2,0:3|0:0|0:0,0:0:0:0:
256,112,198123,2,0,L|192:112,1,40
296,112,198323,2,0,L|400:112,1,80,2|0,0:0|0:0,0:0:0:0:
216,112,198723,2,0,L|136:112,1,80,2|0,0:0|0:0,0:0:0:0:
400,112,199123,6,0,P|448:168|400:256,1,160,4|2,0:3|0:0,0:0:0:0:
304,248,199723,1,0,0:0:0:0:
184,248,199923,2,0,L|288:248,1,80,2|0,0:0|0:0,0:0:0:0:
384,248,200323,2,0,L|304:248,1,80,2|0,0:0|0:0,0:0:0:0:
440,208,200723,5,2,0:3:0:0:
494,153,200923,1,0,0:0:0:0:
483,76,201123,1,2,0:3:0:0:
415,39,201323,1,0,0:0:0:0:
264,40,201523,2,0,L|368:40,1,80,2|0,0:0|0:0,0:0:0:0:
72,184,201923,2,0,L|72:72,1,80,0|2,0:0|0:0,0:0:0:0:
344,232,202323,6,0,L|168:232,1,160,0|2,0:0|0:0,0:0:0:0:
312,232,202923,1,0,0:0:0:0:
144,232,203123,2,0,L|248:232,1,80,2|0,0:0|0:0,0:0:0:0:
368,232,203523,2,0,L|264:232,1,80,2|0,0:0|0:0,0:0:0:0:
144,120,203923,6,0,L|32:120,1,80,2|0,0:3|0:0,0:0:0:0:
144,120,204223,1,0,0:0:0:0:
240,120,204323,2,0,L|312:192,1,80,2|0,0:0|0:0,0:0:0:0:
64,280,204723,2,2,L|64:184,1,80,2|2,0:3|0:3,0:3:0:0:
176,208,205323,1,2,0:0:0:0:
448,128,205523,6,0,P|480:208|416:248,1,160,4|0,0:1|0:0,0:0:0:0:
312,248,206123,1,2,0:0:0:0:
192,248,206323,2,0,L|368:248,1,160,2|0,0:3|0:0,0:0:0:0:
232,248,206923,1,0,0:0:0:0:
112,248,207123,6,0,P|64:192|144:136,1,160,2|2,0:0|0:0,0:0:0:0:
232,128,207723,1,0,0:0:0:0:
112,248,207923,2,0,L|112:168,1,80,2|0,0:0|0:0,0:0:0:0:
232,248,208323,2,0,L|232:160,1,80,2|0,0:0|0:0,0:0:0:0:
400,248,208723,6,0,P|440:216|368:136,1,160,4|2,0:1|0:0,0:0:0:0:
272,128,209323,1,0,0:0:0:0:
432,136,209523,2,0,L|432:224,1,80,2|0,0:0|0:0,0:0:0:0:
152,288,209923,6,0,P|104:240|168:176,1,160,4|0,0:2|0:0,0:0:0:0:
272,176,210523,1,2,0:0:0:0:
112,176,210723,2,0,L|200:176,1,80,0|2,0:0|0:0,0:0:0:0:
304,176,211123,2,0,L|224:176,1,80,0|2,0:0|0:0,0:0:0:0:
32,176,211523,2,0,L|128:176,1,80,2|0,0:0|0:0,0:0:0:0:
376,272,211923,6,0,L|448:200,1,80,2|0,0:3|0:0,0:0:0:0:
312,272,212323,2,0,L|208:272,1,80
440,200,212723,2,0,P|464:152|368:88,1,160,2|0,0:0|0:0,0:0:0:0:
176,264,213523,6,0,P|136:192|200:128,1,160,2|0,0:0|0:0,0:0:0:0:
336,272,214323,2,0,L|256:272,1,80,2|0,0:0|0:0,0:0:0:0:
144,272,214723,2,0,L|56:272,1,80,2|0,0:0|0:0,0:0:0:0:
392,152,215123,6,0,P|456:192|440:280,1,160,2|2,0:3|0:0,0:0:0:0:
320,264,215723,2,0,P|400:232|376:152,1,160,2|2,0:3|0:0,0:0:0:0:
240,200,216323,2,0,L|320:200,1,80,2|0,0:0|0:0,0:0:0:0:
112,264,216723,5,2,0:0:0:0:
56,209,216923,1,0,0:0:0:0:
59,131,217123,1,2,0:0:0:0:
117,80,217323,1,0,0:0:0:0:
296,264,217523,2,0,L|216:264,3,80,2|0|0|0,0:0|0:0|0:0|0:0,0:0:0:0:
400,264,218323,5,2,0:0:0:0:
455,209,218523,1,0,0:0:0:0:
452,131,218723,1,2,0:0:0:0:
394,80,218923,1,0,0:0:0:0:
216,264,219123,2,0,L|296:264,3,80,2|0|0|0,0:0|0:0|0:0|0:0,0:0:0:0:
256,192,219923,12,0,222723,0:0:0:0:
304,208,223123,6,0,L|416:208,2,80,2|0|0,0:0|0:0|0:0,0:0:0:0:
144,208,223723,2,0,P|96:168|208:88,1,240,2|0,0:0|0:0,0:0:0:0:
352,272,224723,6,0,P|408:216|384:120,1,160,2|0,0:0|0:0,0:0:0:0:
280,136,225323,1,2,0:0:0:0:
128,136,225723,2,0,P|104:192|192:248,1,160
320,240,226323,6,0,L|240:240,2,80,2|0|0,0:0|0:0|0:0,0:0:0:0:
416,240,226923,2,0,P|472:184|400:56,1,240,2|0,0:0|0:0,0:0:0:0:
176,56,227923,5,2,0:0:0:0:
408,58,228723,1,2,0:0:0:0:
256,64,229123,2,0,L|152:64,1,80
320,64,229523,6,0,L|408:64,2,80,2|0|0,0:0|0:0|0:0,0:0:0:0:
200,64,230123,2,0,P|144:104|208:240,1,240,2|0,0:0|0:0,0:0:0:0:
360,240,231123,5,2,0:0:0:0:
208,240,231523,1,0,0:0:0:0:
432,240,231923,2,0,L|432:64,1,160,2|0,0:0|0:0,0:0:0:0:
192,80,232723,5,2,0:0:0:0:
376,80,233123,1,0,0:0:0:0:
128,80,233523,2,0,L|48:80,2,80,2|0|0,0:0|0:0|0:0,0:0:0:0:
256,80,234123,1,0,0:0:0:0:
392,248,234323,6,0,L|408:64,1,160,2|0,0:0|0:0,0:0:0:0:
168,176,235123,1,2,0:0:0:0:
360,128,235523,2,0,L|360:32,1,80
200,48,235923,6,0,L|120:48,2,80,2|0|0,0:0|0:0|0:0,0:0:0:0:
320,48,236523,2,0,P|384:88|304:208,1,240,2|0,0:0|0:0,0:0:0:0:
200,208,237523,6,0,L|304:208,2,80,2|0|0,0:0|0:0|0:0,0:0:0:0:
344,208,238123,1,2,0:0:0:0:
128,208,238523,2,0,L|128:112,1,80
360,304,239123,6,0,P|432:248|400:88,1,240,2|0,0:0|0:0,0:0:0:0:
296,304,239923,2,0,P|224:248|256:88,1,240,2|0,0:0|0:0,0:0:0:0:
368,304,240723,6,0,L|448:304,2,80,2|0|0,0:0|0:0|0:0,0:0:0:0:
248,304,241323,2,0,L|416:304,1,160,2|0,0:0|0:0,0:0:0:0:
248,240,241923,2,0,L|144:240,1,80
312,240,242323,6,0,L|416:240,2,80,2|0|0,0:0|0:0|0:0,0:0:0:0:
192,240,242923,2,0,P|128:192|208:80,1,240,2|0,0:0|0:0,0:0:0:0:
312,80,243923,6,0,L|208:80,2,80,2|0|0,0:0|0:0|0:0,0:0:0:0:
160,80,244523,2,0,L|336:80,1,160,2|0,0:0|0:0,0:0:0:0:
160,80,245123,1,2,0:1:0:0:
352,200,245523,6,0,L|192:256,2,160,4|0|4,0:3|0:0|0:3,0:0:0:0:
256,200,246723,1,0,0:0:0:0:
144,192,246923,2,0,L|88:192,1,40
376,192,247123,6,0,L|472:192,2,80,8|0|4,0:3|0:0|0:3,0:0:0:0:
184,192,247723,2,0,L|128:192,1,40,4|0,0:3|0:0,0:0:0:0:
368,56,247923,1,2,0:0:0:0:
456,112,248123,1,0,0:0:0:0:
458,190,248323,1,2,0:0:0:0:
374,252,248523,1,0,0:0:0:0:
104,288,248723,6,0,P|48:232|144:144,1,240.000009155274,4|2,0:0|0:0,0:0:0:0:
280,152,249323,1,0,0:0:0:0:
128,288,249523,2,0,P|80:224|144:80,1,240.000009155274,4|2,0:1|0:0,0:0:0:0:
312,152,250123,1,0,0:0:0:0:
168,88,250323,6,0,P|112:120|192:256,1,240.000009155274,8|2,0:0|0:0,0:0:0:0:
312,256,250923,2,0,L|144:256,1,160,8|0,0:3|0:0,0:0:0:0:
280,256,251523,2,0,L|368:168,1,120.000004577637,2|0,0:0|0:0,0:0:0:0:
192,200,251923,6,0,L|64:200,2,120.000004577637,8|0|2,0:0|0:0|0:0,0:0:0:0:
376,72,252523,2,0,P|440:128|368:248,1,240.000009155274,2|2,0:3|0:0,0:0:0:0:
224,248,253123,2,0,L|360:248,1,120.000004577637,2|0,0:0|0:0,0:0:0:0:
80,224,253523,6,0,L|176:128,1,120.000004577637,2|0,0:3|0:0,0:0:0:0:
296,136,253923,2,0,L|400:240,1,120.000004577637,2|2,0:0|0:3,0:0:0:0:
224,224,254323,2,0,P|160:184|240:72,1,240.000009155274,0|2,0:0|0:0,0:0:0:0:
352,64,254923,1,0,0:0:0:0:
56,240,255123,6,0,L|240:56,1,240.000009155274,8|2,0:0|0:0,0:0:0:0:
104,48,255723,1,0,0:0:0:0:
224,48,255923,2,0,L|384:256,1,240.000009155274,8|0,0:3|0:0,0:0:0:0:
248,240,256523,1,0,0:0:0:0:
454,153,256723,6,0,L|370:238,1,120.000004577637,2|0,0:3|0:0,0:0:0:0:
187,228,257123,2,0,L|272:144,1,120.000004577637,2|0,0:0|0:0,0:0:0:0:
357,228,257523,2,0,L|261:132,1,120.000004577637,2|0,0:3|0:0,0:0:0:0:
102,143,257923,2,0,L|214:255,1,120.000004577637,2|0,0:0|0:0,0:0:0:0:
448,240,258323,6,0,P|504:176|424:48,1,240.000009155274,8|2,0:0|0:0,0:0:0:0:
248,56,258923,1,0,0:0:0:0:
392,304,259123,1,8,0:1:0:0:
496,262,259323,1,0,0:0:0:0:
492,149,259523,1,2,0:0:0:0:
384,116,259723,1,0,0:0:0:0:
64,264,259923,6,0,L|144:264,1,80,4|0,0:1|0:0,0:0:0:0:
448,264,260323,2,0,L|368:264,1,80,4|0,0:1|0:0,0:0:0:0:
104,176,260723,2,0,L|24:176,1,80,4|0,0:1|0:0,0:0:0:0:
408,176,261123,2,0,L|488:176,1,80,4|0,0:1|0:0,0:0:0:0:
152,80,261523,6,0,P|96:120|128:224,1,160,4|2,0:0|0:0,0:0:0:0:
224,208,262123,1,0,0:0:0:0:
344,208,262323,2,0,L|160:208,1,160,4|2,0:1|0:0,0:0:0:0:
304,208,262923,1,0,0:0:0:0:
448,208,263123,6,0,P|480:160|400:112,1,160,8|2,0:0|0:0,0:0:0:0:
280,104,263723,1,0,0:0:0:0:
448,64,263923,1,8,0:1:0:0:
248,72,264123,2,0,P|192:112|216:208,1,160,2|0,0:0|0:0,0:0:0:0:
368,248,264723,6,0,L|192:248,1,160,2|2,0:3|0:0,0:0:0:0:
368,248,265323,2,0,P|408:224|344:144,1,160,2|2,0:3|0:0,0:0:0:0:
208,104,265923,2,0,L|304:104,1,80,2|0,0:0|0:0,0:0:0:0:
168,176,266323,6,0,L|104:112,1,80,8|0,0:3|0:0,0:0:0:0:
272,120,266723,2,0,L|368:120,1,80
128,120,267123,2,0,L|216:120,1,80,4|0,0:3|0:0,0:0:0:0:
392,64,267523,2,0,L|296:64,1,80
128,312,267923,6,0,P|80:272|144:128,1,240.000009155274,4|0,0:3|0:0,0:0:0:0:
256,320,269523,6,0,P|320:256|256:136,1,240.000009155274,4|0,0:3|0:0,0:0:0:0:
144,136,270723,1,0,0:0:0:0:
384,136,271123,6,0,P|432:192|384:344,1,240.000009155274,4|0,0:3|0:0,0:0:0:0:
152,336,272323,2,0,L|152:248,1,60.0000022888184
432,272,272723,6,0,P|464:224|400:120,1,160,2|2,0:3|0:0,0:0:0:0:
272,128,273323,2,0,P|208:128|176:224,1,160,2|2,0:3|0:0,0:0:0:0:
312,128,273923,2,0,L|424:128,1,80,2|0,0:0|0:0,0:0:0:0:
216,128,274323,5,2,0:0:0:0:
160,128,274723,1,0,0:0:0:0:
104,128,275123,1,0,0:0:0:0:
48,128,275523,1,0,0:0:0:0:
168,128,275923,5,2,0:0:0:0:
288,128,276723,1,0,0:0:0:0:
238,158,276923,1,0,0:0:0:0:
237,215,277123,1,0,0:0:0:0:
285,247,277323,1,0,0:0:0:0:
432,72,277523,5,2,0:0:0:0:
376,72,277923,1,0,0:0:0:0:
320,72,278323,1,0,0:0:0:0:
264,72,278723,1,0,0:0:0:0:
384,72,279123,5,2,0:0:0:0:
144,136,279923,1,0,0:0:0:0:
91,154,280123,1,0,0:0:0:0:
92,210,280323,1,0,0:0:0:0:
146,226,280523,1,0,0:0:0:0:
264,200,280723,6,0,L|400:200,2,120.000004577637,2|0|0,0:0|0:0|0:0,0:0:0:0:
128,280,282323,6,0,P|64:208|152:104,1,240.000009155274,2|0,0:0|0:0,0:0:0:0:
352,192,283923,6,0,L|216:192,1,120.000004577637,2|0,0:0|0:0,0:0:0:0:
320,192,284523,1,0,0:0:0:0:
424,192,284723,2,0,L|432:64,1,120.000004577637
200,272,285523,6,0,L|72:144,2,180.000006866455,2|0|0,0:0|0:0|0:0,0:0:0:0:
296,128,287123,5,2,0:0:0:0:
352,128,287523,1,0,0:0:0:0:
408,128,287923,1,0,0:0:0:0:
464,128,288323,1,0,0:0:0:0:
344,128,288723,5,2,0:0:0:0:
224,128,289523,1,0,0:0:0:0:
274,158,289723,1,0,0:0:0:0:
275,215,289923,1,0,0:0:0:0:
227,247,290123,1,0,0:0:0:0:
80,72,290323,5,2,0:0:0:0:
136,72,290723,1,0,0:0:0:0:
192,72,291123,1,0,0:0:0:0:
248,72,291523,1,0,0:0:0:0:
128,72,291923,5,2,0:0:0:0:
336,280,292723,1,0,0:0:0:0:
383,248,292923,1,0,0:0:0:0:
380,191,293123,1,0,0:0:0:0:
330,164,293323,1,0,0:0:0:0:
176,192,293523,6,0,L|96:192,1,80,2|0,0:0|0:0,0:0:0:0:
248,192,293933,2,0,L|248:104,1,80
400,104,294361,2,0,L|304:104,1,80,2|0,0:0|0:0,0:0:0:0:
472,104,294790,2,0,L|472:192,1,80
280,104,295266,5,2,0:0:0:0:
432,104,295480,1,2,0:0:0:0:
176,104,296016,1,2,0:0:0:0:
432,104,296551,1,2,0:0:0:0:
256,192,297194,12,0,302123,0:0:0:0:
