osu file format v14

[General]
AudioFilename: audio.mp3
AudioLeadIn: 0
PreviewTime: 46268
Countdown: 0
SampleSet: None
StackLeniency: 0.7
Mode: 1
LetterboxInBreaks: 0
WidescreenStoryboard: 0

[Editor]
DistanceSpacing: 1.6
BeatDivisor: 4
GridSize: 8
TimelineZoom: 2.7

[Metadata]
Title:Kanade (Shadren Remix)
TitleUnicode:奏 (かなで) (Shadren Remix)
Artist:Fujimiya Kaori (CV: Amamiya Sora)
ArtistUnicode:藤宮香織 (CV: 雨宮天)
Creator:Player-
Version:Memories
Source:一週間フレンズ。
Tags:one week friends good anime
BeatmapID:1902459
BeatmapSetID:911374

[Difficulty]
HPDrainRate:6
CircleSize:5
OverallDifficulty:5.3
ApproachRate:10
SliderMultiplier:1.4
SliderTickRate:1

[Events]
//Background and Video events
0,0,"1mage.png",0,0
//Break Periods
//Storyboard Layer 0 (Background)
//Storyboard Layer 1 (Fail)
//Storyboard Layer 2 (Pass)
//Storyboard Layer 3 (Foreground)
//Storyboard Sound Samples

[TimingPoints]
2685,333.333333333333,4,1,0,80,1,0
46684,-100,4,1,0,80,0,1
68018,-100,4,1,0,80,0,0
70684,-100,4,1,0,80,0,1
92018,-100,4,1,0,80,0,0
92351,-114.942528735632,4,1,0,80,0,0
102684,-100,4,1,0,80,0,0
114684,-100,4,1,0,80,0,1
136018,-100,4,1,0,80,0,0
138684,-100,4,1,0,80,0,1
160018,-100,4,1,0,80,0,0

[HitObjects]
331,76,2684,5,8,0:0:0:0:
221,95,3018,1,8,0:0:0:0:
293,157,3184,1,0,0:0:0:0:
242,86,3684,1,0,0:0:0:0:
174,93,4018,1,8,0:0:0:0:
194,109,4351,1,8,0:0:0:0:
155,113,4518,1,0,0:0:0:0:
259,148,5018,1,8,0:0:0:0:
180,162,5351,1,0,0:0:0:0:
264,111,5684,1,0,0:0:0:0:
228,62,5851,1,8,0:0:0:0:
151,125,6184,1,0,0:0:0:0:
98,128,6351,1,8,0:0:0:0:
245,244,6684,1,0,0:0:0:0:
101,135,7018,1,8,0:0:0:0:
203,141,7684,1,8,0:0:0:0:
173,140,7851,1,0,0:0:0:0:
370,107,8018,1,8,0:0:0:0:
180,156,8351,1,0,0:0:0:0:
247,163,8518,1,8,0:0:0:0:
83,107,8851,1,0,0:0:0:0:
244,145,9018,1,8,0:0:0:0:
223,143,9184,1,0,0:0:0:0:
151,145,9518,1,0,0:0:0:0:
95,147,9684,1,0,0:0:0:0:
308,203,10018,1,0,0:0:0:0:
217,176,10184,1,8,0:0:0:0:
210,174,10518,1,0,0:0:0:0:
207,173,10684,1,0,0:0:0:0:
139,138,11018,1,8,0:0:0:0:
251,145,11351,1,8,0:0:0:0:
188,126,11518,1,0,0:0:0:0:
164,123,11684,1,8,0:0:0:0:
358,266,11851,1,0,0:0:0:0:
118,107,12018,1,8,0:0:0:0:
209,108,12351,1,8,0:0:0:0:
134,105,12684,1,0,0:0:0:0:
123,142,12851,1,8,0:0:0:0:
382,293,12934,1,0,0:0:0:0:
256,151,13018,1,0,0:0:0:0:
342,254,13101,1,0,0:0:0:0:
171,135,13184,1,0,0:0:0:0:
177,135,13351,1,8,0:0:0:0:
259,157,13684,1,8,0:0:0:0:
227,95,13851,1,0,0:0:0:0:
140,131,14018,1,0,0:0:0:0:
179,103,14184,1,8,0:0:0:0:
318,174,14351,1,8,0:0:0:0:
192,202,14434,1,0,0:0:0:0:
203,246,14518,1,0,0:0:0:0:
145,248,14601,1,0,0:0:0:0:
235,177,14684,1,8,0:0:0:0:
326,236,14851,1,0,0:0:0:0:
262,248,15018,1,8,0:0:0:0:
250,225,15184,1,8,0:0:0:0:
239,220,15351,1,0,0:0:0:0:
315,193,15518,1,8,0:0:0:0:
208,165,15684,1,8,0:0:0:0:
141,191,15768,1,0,0:0:0:0:
373,190,15851,1,8,0:0:0:0:
253,128,15934,1,8,0:0:0:0:
148,193,16018,1,0,0:0:0:0:
140,104,16184,1,0,0:0:0:0:
238,90,16351,1,8,0:0:0:0:
333,191,16518,1,8,0:0:0:0:
323,193,16684,1,0,0:0:0:0:
215,76,16851,1,8,0:0:0:0:
187,172,16934,1,0,0:0:0:0:
187,152,17018,1,8,0:0:0:0:
214,83,17101,1,0,0:0:0:0:
174,104,17184,1,0,0:0:0:0:
112,133,17268,1,0,0:0:0:0:
119,258,17351,1,8,0:0:0:0:
271,223,17518,1,0,0:0:0:0:
240,189,17684,1,8,0:0:0:0:
231,187,18018,1,0,0:0:0:0:
231,187,18184,1,8,0:0:0:0:
231,187,18268,1,8,0:0:0:0:
167,196,18351,1,0,0:0:0:0:
204,176,18434,1,0,0:0:0:0:
131,132,18518,1,8,0:0:0:0:
162,120,18684,1,0,0:0:0:0:
275,80,18851,1,0,0:0:0:0:
214,92,19018,1,8,0:0:0:0:
204,98,19184,1,0,0:0:0:0:
135,139,19351,1,0,0:0:0:0:
201,98,19518,1,8,0:0:0:0:
334,228,19684,1,0,0:0:0:0:
334,228,19768,1,8,0:0:0:0:
183,231,19851,1,0,0:0:0:0:
183,231,19934,1,0,0:0:0:0:
183,231,20018,1,8,0:0:0:0:
203,190,20184,1,0,0:0:0:0:
132,179,20351,1,8,0:0:0:0:
230,117,20684,1,0,0:0:0:0:
139,124,20851,1,8,0:0:0:0:
127,124,21018,1,8,0:0:0:0:
150,176,21101,1,0,0:0:0:0:
117,195,21184,1,8,0:0:0:0:
205,154,21351,1,0,0:0:0:0:
187,134,21684,1,8,0:0:0:0:
156,145,21851,1,0,0:0:0:0:
198,272,21934,1,0,0:0:0:0:
101,181,22018,1,0,0:0:0:0:
153,203,22184,1,8,0:0:0:0:
190,238,22351,1,8,0:0:0:0:
230,164,22434,1,8,0:0:0:0:
187,134,22518,1,0,0:0:0:0:
187,134,22601,1,8,0:0:0:0:
212,129,22684,1,0,0:0:0:0:
205,139,22851,1,0,0:0:0:0:
275,101,23018,1,8,0:0:0:0:
310,182,23184,1,8,0:0:0:0:
251,214,23351,1,0,0:0:0:0:
366,219,23518,1,8,0:0:0:0:
296,248,23601,1,0,0:0:0:0:
167,205,23684,1,8,0:0:0:0:
169,174,23768,1,8,0:0:0:0:
267,176,23851,1,8,0:0:0:0:
239,149,24018,1,0,0:0:0:0:
217,154,24184,1,0,0:0:0:0:
150,179,24268,1,0,0:0:0:0:
104,240,24351,1,8,0:0:0:0:
47,195,24434,1,0,0:0:0:0:
47,195,24518,1,8,0:0:0:0:
157,194,24601,1,8,0:0:0:0:
151,144,24684,1,0,0:0:0:0:
284,131,24768,1,8,0:0:0:0:
225,180,24851,1,0,0:0:0:0:
208,138,24934,1,0,0:0:0:0:
191,97,25018,1,8,0:0:0:0:
109,75,25101,1,8,0:0:0:0:
204,131,25184,1,8,0:0:0:0:
198,134,25268,1,8,0:0:0:0:
204,119,25351,1,0,0:0:0:0:
303,265,25851,1,0,0:0:0:0:
259,204,26351,1,0,0:0:0:0:
211,218,26851,1,0,0:0:0:0:
275,174,27351,1,0,0:0:0:0:
220,241,28018,1,8,0:0:0:0:
247,273,28518,1,8,0:0:0:0:
226,260,29018,1,8,0:0:0:0:
227,252,29351,1,0,0:0:0:0:
273,200,29851,1,0,0:0:0:0:
273,200,30351,1,0,0:0:0:0:
219,238,30684,1,8,0:0:0:0:
200,216,31184,1,8,0:0:0:0:
232,241,31684,1,8,0:0:0:0:
232,241,32018,1,0,0:0:0:0:
232,241,32518,1,0,0:0:0:0:
239,251,33018,1,0,0:0:0:0:
188,225,33351,1,8,0:0:0:0:
291,177,33851,1,8,0:0:0:0:
187,154,34351,1,8,0:0:0:0:
292,183,34684,1,8,0:0:0:0:
184,192,35184,1,8,0:0:0:0:
213,192,35684,1,8,0:0:0:0:
258,204,36018,1,4,0:0:0:0:
317,225,36518,1,0,0:0:0:0:
270,207,37018,1,0,0:0:0:0:
231,196,37518,1,0,0:0:0:0:
143,186,38018,1,0,0:0:0:0:
226,217,38684,1,8,0:0:0:0:
239,129,39184,1,8,0:0:0:0:
245,133,39684,1,8,0:0:0:0:
212,227,40018,1,0,0:0:0:0:
212,227,40518,1,0,0:0:0:0:
212,227,41018,1,0,0:0:0:0:
233,205,41351,1,8,0:0:0:0:
244,195,41851,1,8,0:0:0:0:
222,188,42018,1,0,0:0:0:0:
182,202,42351,1,8,0:0:0:0:
279,214,42684,1,0,0:0:0:0:
200,176,43184,1,0,0:0:0:0:
197,190,43351,1,0,0:0:0:0:
248,272,43684,1,0,0:0:0:0:
236,194,44018,1,8,0:0:0:0:
208,222,44351,1,0,0:0:0:0:
157,216,44518,1,8,0:0:0:0:
160,174,44684,1,0,0:0:0:0:
222,221,45018,1,8,0:0:0:0:
242,207,45351,1,8,0:0:0:0:
181,197,45518,1,0,0:0:0:0:
226,207,45684,1,0,0:0:0:0:
129,162,45851,1,8,0:0:0:0:
233,209,46018,1,0,0:0:0:0:
298,265,46101,1,8,0:0:0:0:
281,269,46184,1,0,0:0:0:0:
273,275,46268,1,8,0:0:0:0:
214,229,46351,1,0,0:0:0:0:
212,178,46434,1,0,0:0:0:0:
326,149,46518,1,8,0:0:0:0:
331,156,46601,1,8,0:0:0:0:
293,212,46684,1,0,0:0:0:0:
144,217,47018,1,8,0:0:0:0:
206,225,47184,1,0,0:0:0:0:
250,198,47268,1,0,0:0:0:0:
252,205,47351,1,8,0:0:0:0:
358,205,47518,1,0,0:0:0:0:
213,153,47684,1,8,0:0:0:0:
259,167,47851,1,0,0:0:0:0:
286,176,47934,1,0,0:0:0:0:
330,318,48018,1,8,0:0:0:0:
224,198,48101,1,8,0:0:0:0:
220,225,48184,1,0,0:0:0:0:
139,175,48351,1,8,0:0:0:0:
204,151,48434,1,8,0:0:0:0:
203,168,48518,1,0,0:0:0:0:
247,256,48601,1,0,0:0:0:0:
221,284,48684,1,8,0:0:0:0:
299,192,48851,1,0,0:0:0:0:
231,232,49018,1,8,0:0:0:0:
203,237,49184,1,8,0:0:0:0:
213,210,49268,1,0,0:0:0:0:
213,210,49351,1,8,0:0:0:0:
256,124,49518,1,0,0:0:0:0:
316,136,49684,1,8,0:0:0:0:
271,156,49851,1,8,0:0:0:0:
312,220,49934,1,8,0:0:0:0:
288,246,50018,1,0,0:0:0:0:
268,242,50184,1,0,0:0:0:0:
181,195,50351,1,8,0:0:0:0:
237,172,50684,1,0,0:0:0:0:
268,161,50851,1,0,0:0:0:0:
279,169,50934,1,0,0:0:0:0:
249,178,51018,1,8,0:0:0:0:
233,208,51184,1,0,0:0:0:0:
230,193,51351,1,8,0:0:0:0:
157,173,51684,1,0,0:0:0:0:
229,188,51851,1,8,0:0:0:0:
219,137,52018,1,0,0:0:0:0:
308,184,52101,1,0,0:0:0:0:
313,184,52184,1,0,0:0:0:0:
256,317,52351,1,0,0:0:0:0:
251,227,52518,1,8,0:0:0:0:
167,189,52601,1,8,0:0:0:0:
306,206,52684,1,0,0:0:0:0:
219,167,52851,1,0,0:0:0:0:
108,130,53018,1,8,0:0:0:0:
160,152,53184,1,0,0:0:0:0:
286,181,53268,1,0,0:0:0:0:
280,205,53351,1,0,0:0:0:0:
208,189,53518,1,0,0:0:0:0:
197,214,53684,1,8,0:0:0:0:
169,198,53768,1,8,0:0:0:0:
203,207,53851,1,0,0:0:0:0:
278,198,53934,1,0,0:0:0:0:
253,229,54018,1,8,0:0:0:0:
244,173,54184,1,0,0:0:0:0:
191,160,54351,1,8,0:0:0:0:
254,170,54684,1,8,0:0:0:0:
251,191,54851,1,0,0:0:0:0:
246,193,54934,1,0,0:0:0:0:
270,202,55018,1,8,0:0:0:0:
317,240,55184,1,0,0:0:0:0:
246,230,55351,1,8,0:0:0:0:
317,240,55434,1,8,0:0:0:0:
198,184,55518,1,0,0:0:0:0:
278,188,55684,1,8,0:0:0:0:
261,106,55851,1,8,0:0:0:0:
367,173,56018,1,0,0:0:0:0:
302,138,56184,1,8,0:0:0:0:
192,135,56268,1,0,0:0:0:0:
278,163,56351,1,0,0:0:0:0:
247,192,56518,1,0,0:0:0:0:
278,199,56684,1,8,0:0:0:0:
264,197,57018,1,0,0:0:0:0:
249,203,57184,1,8,0:0:0:0:
313,197,57351,1,4,0:0:0:0:
204,210,57684,1,8,0:0:0:0:
244,219,57851,1,8,0:0:0:0:
239,219,57934,1,8,0:0:0:0:
294,189,58018,1,0,0:0:0:0:
198,200,58184,1,0,0:0:0:0:
263,200,58351,1,8,0:0:0:0:
252,189,58518,1,8,0:0:0:0:
222,193,58601,1,8,0:0:0:0:
214,209,58684,1,0,0:0:0:0:
192,266,58851,1,0,0:0:0:0:
277,228,59018,1,8,0:0:0:0:
132,235,59184,1,8,0:0:0:0:
183,239,59268,1,8,0:0:0:0:
222,164,59351,1,0,0:0:0:0:
305,149,59434,1,0,0:0:0:0:
298,161,59518,1,8,0:0:0:0:
186,212,59684,1,0,0:0:0:0:
210,196,59851,1,8,0:0:0:0:
210,196,60018,1,0,0:0:0:0:
182,165,60101,1,0,0:0:0:0:
195,189,60184,1,8,0:0:0:0:
213,199,60351,1,8,0:0:0:0:
258,218,60518,1,8,0:0:0:0:
263,230,60601,1,0,0:0:0:0:
263,231,60684,1,8,0:0:0:0:
192,186,60851,1,8,0:0:0:0:
240,145,60934,1,8,0:0:0:0:
316,192,61018,1,0,0:0:0:0:
252,144,61184,1,8,0:0:0:0:
261,166,61351,1,0,0:0:0:0:
293,185,61518,1,0,0:0:0:0:
293,188,61684,1,8,0:0:0:0:
302,185,62018,1,8,0:0:0:0:
157,129,62184,1,8,0:0:0:0:
219,187,62268,1,0,0:0:0:0:
233,190,62351,1,8,0:0:0:0:
235,232,62518,1,8,0:0:0:0:
264,224,62684,1,0,0:0:0:0:
233,176,62768,1,0,0:0:0:0:
244,115,62851,1,8,0:0:0:0:
246,183,63018,1,8,0:0:0:0:
331,204,63184,1,0,0:0:0:0:
332,258,63268,1,0,0:0:0:0:
252,255,63351,1,0,0:0:0:0:
260,266,63518,1,0,0:0:0:0:
332,275,63684,1,8,0:0:0:0:
136,104,63851,1,8,0:0:0:0:
116,163,63934,1,8,0:0:0:0:
78,222,64018,1,0,0:0:0:0:
268,185,64184,1,0,0:0:0:0:
142,190,64351,1,8,0:0:0:0:
207,209,64518,1,0,0:0:0:0:
411,296,64601,1,0,0:0:0:0:
231,171,64684,1,0,0:0:0:0:
214,165,64851,1,8,0:0:0:0:
301,205,65018,1,0,0:0:0:0:
198,179,65101,1,0,0:0:0:0:
198,179,65184,1,8,0:0:0:0:
177,181,65268,1,0,0:0:0:0:
95,195,65351,1,8,0:0:0:0:
142,155,65518,1,0,0:0:0:0:
113,137,65684,1,8,0:0:0:0:
100,129,66018,1,0,0:0:0:0:
306,234,66184,1,0,0:0:0:0:
113,130,66351,1,8,0:0:0:0:
279,181,66518,1,0,0:0:0:0:
248,104,66684,1,0,0:0:0:0:
233,137,66768,1,0,0:0:0:0:
252,129,66851,1,8,0:0:0:0:
99,180,66934,1,0,0:0:0:0:
146,173,67018,1,8,0:0:0:0:
76,158,67101,1,8,0:0:0:0:
85,121,67184,1,0,0:0:0:0:
178,122,67268,1,0,0:0:0:0:
138,93,67351,1,8,0:0:0:0:
143,122,67434,1,0,0:0:0:0:
203,97,67518,1,8,0:0:0:0:
220,97,67601,1,8,0:0:0:0:
180,107,67684,1,0,0:0:0:0:
183,203,67768,1,8,0:0:0:0:
197,195,67851,1,0,0:0:0:0:
80,221,67934,1,0,0:0:0:0:
51,175,68018,1,8,0:0:0:0:
241,180,68351,1,8,0:0:0:0:
377,209,68518,1,0,0:0:0:0:
361,288,68684,1,0,0:0:0:0:
329,256,68851,1,0,0:0:0:0:
173,148,69018,1,8,0:0:0:0:
267,195,69184,1,0,0:0:0:0:
374,224,69351,1,0,0:0:0:0:
306,207,69434,1,0,0:0:0:0:
271,183,69518,1,8,0:0:0:0:
306,207,69601,1,0,0:0:0:0:
173,148,69684,1,8,0:0:0:0:
271,183,69768,1,8,0:0:0:0:
271,183,69851,1,0,0:0:0:0:
268,183,69934,1,8,0:0:0:0:
186,244,70018,1,0,0:0:0:0:
150,196,70101,1,0,0:0:0:0:
150,196,70184,1,0,0:0:0:0:
90,210,70268,1,0,0:0:0:0:
263,143,70351,1,8,0:0:0:0:
348,205,70434,1,0,0:0:0:0:
284,224,70518,1,8,0:0:0:0:
287,165,70601,1,8,0:0:0:0:
168,211,70684,1,0,0:0:0:0:
286,205,70851,1,0,0:0:0:0:
309,129,71018,1,8,0:0:0:0:
273,126,71184,1,0,0:0:0:0:
248,131,71351,1,8,0:0:0:0:
355,276,71518,1,0,0:0:0:0:
474,231,71601,1,0,0:0:0:0:
474,231,71684,1,8,0:0:0:0:
222,236,71851,1,0,0:0:0:0:
176,230,72018,1,8,0:0:0:0:
176,230,72184,1,0,0:0:0:0:
105,189,72351,1,0,0:0:0:0:
125,187,72434,1,0,0:0:0:0:
273,197,72518,1,8,0:0:0:0:
347,276,72601,1,8,0:0:0:0:
273,197,72684,1,8,0:0:0:0:
236,198,72851,1,0,0:0:0:0:
247,145,73018,1,8,0:0:0:0:
253,135,73351,1,0,0:0:0:0:
171,149,73518,1,0,0:0:0:0:
369,338,73684,1,8,0:0:0:0:
273,140,73768,1,8,0:0:0:0:
261,164,73851,1,0,0:0:0:0:
253,182,74018,1,8,0:0:0:0:
253,182,74184,1,0,0:0:0:0:
210,185,74268,1,0,0:0:0:0:
171,149,74351,1,8,0:0:0:0:
118,131,74434,1,8,0:0:0:0:
114,128,74518,1,0,0:0:0:0:
283,139,74684,1,8,0:0:0:0:
251,113,74851,1,0,0:0:0:0:
251,113,75018,1,8,0:0:0:0:
185,150,75101,1,8,0:0:0:0:
150,194,75184,1,8,0:0:0:0:
72,162,75351,1,0,0:0:0:0:
72,162,75518,1,0,0:0:0:0:
63,116,75684,1,8,0:0:0:0:
205,146,76018,1,8,0:0:0:0:
205,146,76184,1,0,0:0:0:0:
205,146,76351,1,8,0:0:0:0:
219,148,76434,1,8,0:0:0:0:
219,150,76518,1,8,0:0:0:0:
174,129,76684,1,0,0:0:0:0:
243,193,76851,1,0,0:0:0:0:
243,193,76934,1,0,0:0:0:0:
135,198,77018,1,8,0:0:0:0:
233,163,77184,1,8,0:0:0:0:
157,185,77351,1,0,0:0:0:0:
187,171,77518,1,0,0:0:0:0:
187,171,77684,1,8,0:0:0:0:
187,171,77768,1,0,0:0:0:0:
187,171,77851,1,8,0:0:0:0:
249,167,78018,1,0,0:0:0:0:
196,171,78184,1,0,0:0:0:0:
187,171,78351,1,8,0:0:0:0:
222,168,78684,1,8,0:0:0:0:
256,155,78851,1,0,0:0:0:0:
193,147,79018,1,8,0:0:0:0:
193,147,79101,1,8,0:0:0:0:
193,147,79184,1,8,0:0:0:0:
110,168,79351,1,0,0:0:0:0:
140,164,79518,1,0,0:0:0:0:
140,164,79601,1,0,0:0:0:0:
140,164,79684,1,8,0:0:0:0:
257,172,79851,1,8,0:0:0:0:
225,105,80018,1,0,0:0:0:0:
134,93,80184,1,8,0:0:0:0:
153,95,80351,1,8,0:0:0:0:
182,126,80434,1,8,0:0:0:0:
146,148,80518,1,0,0:0:0:0:
169,148,80684,1,8,0:0:0:0:
217,157,80768,1,8,0:0:0:0:
165,179,80851,1,0,0:0:0:0:
159,184,80934,1,0,0:0:0:0:
258,201,81018,1,8,0:0:0:0:
258,201,81184,1,0,0:0:0:0:
231,165,81351,1,12,0:0:0:0:
147,221,81684,1,8,0:0:0:0:
146,209,81851,1,0,0:0:0:0:
110,143,82018,1,0,0:0:0:0:
246,149,82184,1,0,0:0:0:0:
219,156,82268,1,0,0:0:0:0:
195,160,82351,1,8,0:0:0:0:
250,79,82518,1,0,0:0:0:0:
233,87,82684,1,8,0:0:0:0:
218,90,82851,1,0,0:0:0:0:
146,103,83018,1,8,0:0:0:0:
146,103,83101,1,8,0:0:0:0:
117,101,83184,1,0,0:0:0:0:
195,160,83351,1,8,0:0:0:0:
184,159,83518,1,0,0:0:0:0:
271,182,83684,1,8,0:0:0:0:
137,99,84018,1,8,0:0:0:0:
137,99,84184,1,0,0:0:0:0:
184,101,84351,1,8,0:0:0:0:
184,101,84434,1,8,0:0:0:0:
264,109,84518,1,0,0:0:0:0:
213,139,84684,1,0,0:0:0:0:
211,142,84851,1,0,0:0:0:0:
220,132,84934,1,0,0:0:0:0:
177,143,85018,1,8,0:0:0:0:
156,168,85184,1,0,0:0:0:0:
156,168,85351,1,8,0:0:0:0:
237,139,85518,1,0,0:0:0:0:
266,124,85684,1,8,0:0:0:0:
170,152,85768,1,8,0:0:0:0:
346,93,85851,1,0,0:0:0:0:
315,103,86018,1,0,0:0:0:0:
149,156,86184,1,0,0:0:0:0:
168,153,86268,1,0,0:0:0:0:
168,153,86351,1,8,0:0:0:0:
237,139,86518,1,0,0:0:0:0:
169,123,86684,1,8,0:0:0:0:
154,156,87018,1,8,0:0:0:0:
125,161,87184,1,0,0:0:0:0:
80,219,87351,1,8,0:0:0:0:
153,186,87518,1,0,0:0:0:0:
348,197,87601,1,0,0:0:0:0:
270,201,87684,1,8,0:0:0:0:
172,214,87851,1,8,0:0:0:0:
190,165,88018,1,0,0:0:0:0:
165,152,88184,1,0,0:0:0:0:
174,116,88351,1,8,0:0:0:0:
264,151,88434,1,8,0:0:0:0:
264,151,88518,1,0,0:0:0:0:
361,188,88684,1,8,0:0:0:0:
288,208,88851,1,0,0:0:0:0:
162,228,89018,1,8,0:0:0:0:
281,211,89351,1,0,0:0:0:0:
220,190,89518,1,0,0:0:0:0:
169,163,89684,1,8,0:0:0:0:
168,118,89768,1,8,0:0:0:0:
49,105,89851,1,0,0:0:0:0:
387,156,90018,1,8,0:0:0:0:
315,125,90184,1,0,0:0:0:0:
236,126,90268,1,0,0:0:0:0:
218,144,90351,1,8,0:0:0:0:
124,104,90518,1,0,0:0:0:0:
147,102,90684,1,8,0:0:0:0:
186,121,90851,1,0,0:0:0:0:
186,121,91018,1,8,0:0:0:0:
235,178,91101,1,8,0:0:0:0:
115,191,91184,1,8,0:0:0:0:
299,158,91351,1,8,0:0:0:0:
296,161,91434,1,8,0:0:0:0:
227,186,91518,1,0,0:0:0:0:
211,186,91601,1,0,0:0:0:0:
144,199,91684,1,8,0:0:0:0:
165,122,91851,1,0,0:0:0:0:
244,104,92018,1,8,0:0:0:0:
268,224,92351,1,8,0:0:0:0:
268,224,92518,1,0,0:0:0:0:
210,198,93018,1,0,0:0:0:0:
298,132,93351,1,8,0:0:0:0:
187,149,93684,1,8,0:0:0:0:
185,168,93851,1,0,0:0:0:0:
225,83,94351,1,8,0:0:0:0:
245,171,94684,1,0,0:0:0:0:
145,173,95018,1,8,0:0:0:0:
157,148,95184,1,0,0:0:0:0:
141,148,95518,1,8,0:0:0:0:
237,125,95684,1,0,0:0:0:0:
147,86,96018,1,8,0:0:0:0:
270,152,96351,1,0,0:0:0:0:
223,118,97018,1,0,0:0:0:0:
157,145,97184,1,0,0:0:0:0:
99,148,97351,1,8,0:0:0:0:
227,193,97684,1,8,0:0:0:0:
244,126,97851,1,0,0:0:0:0:
250,201,98184,1,8,0:0:0:0:
250,201,98351,1,0,0:0:0:0:
193,130,98518,1,0,0:0:0:0:
188,131,98851,1,8,0:0:0:0:
144,162,99018,1,0,0:0:0:0:
203,103,99351,1,0,0:0:0:0:
161,98,99518,1,8,0:0:0:0:
311,153,99851,1,0,0:0:0:0:
214,169,100018,1,8,0:0:0:0:
245,83,100351,1,8,0:0:0:0:
191,125,100684,1,8,0:0:0:0:
191,125,100851,1,0,0:0:0:0:
270,69,101018,1,8,0:0:0:0:
241,95,101351,1,8,0:0:0:0:
187,98,101684,1,8,0:0:0:0:
187,98,102018,1,0,0:0:0:0:
203,145,102184,1,0,0:0:0:0:
241,168,102268,1,0,0:0:0:0:
203,145,102351,1,8,0:0:0:0:
285,65,102434,1,0,0:0:0:0:
162,179,102518,1,8,0:0:0:0:
292,135,102684,1,4,0:0:0:0:
233,304,103018,1,8,0:0:0:0:
125,241,103184,1,0,0:0:0:0:
227,191,103518,1,8,0:0:0:0:
180,164,103684,1,0,0:0:0:0:
204,163,103768,1,0,0:0:0:0:
199,163,103851,1,8,0:0:0:0:
130,164,103934,1,8,0:0:0:0:
179,175,104018,1,0,0:0:0:0:
278,155,104184,1,8,0:0:0:0:
193,118,104351,1,0,0:0:0:0:
193,140,104518,1,8,0:0:0:0:
119,128,104601,1,8,0:0:0:0:
104,117,104684,1,0,0:0:0:0:
184,126,104851,1,8,0:0:0:0:
233,79,104934,1,0,0:0:0:0:
227,79,105018,1,8,0:0:0:0:
180,82,105101,1,8,0:0:0:0:
167,91,105184,1,0,0:0:0:0:
151,152,105351,1,0,0:0:0:0:
299,186,105684,1,8,0:0:0:0:
221,186,105851,1,8,0:0:0:0:
139,115,106018,1,0,0:0:0:0:
71,119,106184,1,8,0:0:0:0:
114,121,106351,1,0,0:0:0:0:
114,121,106434,1,8,0:0:0:0:
146,124,106518,1,0,0:0:0:0:
220,156,106601,1,0,0:0:0:0:
198,170,106684,1,8,0:0:0:0:
198,170,106851,1,0,0:0:0:0:
107,181,107018,1,8,0:0:0:0:
177,131,107351,1,0,0:0:0:0:
153,133,107518,1,8,0:0:0:0:
250,116,107601,1,0,0:0:0:0:
227,115,107684,1,8,0:0:0:0:
150,126,107768,1,0,0:0:0:0:
150,126,107851,1,8,0:0:0:0:
148,126,107934,1,8,0:0:0:0:
438,93,108018,1,0,0:0:0:0:
221,271,108184,1,0,0:0:0:0:
85,274,108351,1,8,0:0:0:0:
287,174,108518,1,0,0:0:0:0:
298,132,108601,1,0,0:0:0:0:
241,219,108684,1,0,0:0:0:0:
198,148,108851,1,8,0:0:0:0:
128,207,109018,1,0,0:0:0:0:
217,209,109101,1,8,0:0:0:0:
224,156,109184,1,0,0:0:0:0:
232,97,109268,1,0,0:0:0:0:
135,122,109351,1,8,0:0:0:0:
123,90,109518,1,0,0:0:0:0:
260,101,109684,1,8,0:0:0:0:
368,84,110018,1,0,0:0:0:0:
360,85,110184,1,8,0:0:0:0:
299,139,110351,1,8,0:0:0:0:
243,168,110434,1,0,0:0:0:0:
243,168,110518,1,8,0:0:0:0:
144,171,110684,1,8,0:0:0:0:
237,150,110768,1,8,0:0:0:0:
210,118,110851,1,0,0:0:0:0:
108,149,111018,1,8,0:0:0:0:
289,159,111184,1,0,0:0:0:0:
262,173,111268,1,0,0:0:0:0:
235,201,111351,1,0,0:0:0:0:
95,195,111518,1,8,0:0:0:0:
95,195,111684,1,0,0:0:0:0:
126,186,111768,1,8,0:0:0:0:
102,185,111851,1,8,0:0:0:0:
238,156,111934,1,0,0:0:0:0:
353,153,112018,1,8,0:0:0:0:
317,163,112184,1,0,0:0:0:0:
258,183,112351,1,8,0:0:0:0:
428,259,112518,1,8,0:0:0:0:
395,275,112601,1,8,0:0:0:0:
244,250,112684,1,0,0:0:0:0:
125,215,112851,1,0,0:0:0:0:
146,117,113018,1,8,0:0:0:0:
128,135,113101,1,0,0:0:0:0:
210,193,113184,1,8,0:0:0:0:
234,161,113351,1,0,0:0:0:0:
280,94,113434,1,0,0:0:0:0:
219,133,113518,1,8,0:0:0:0:
219,133,113601,1,8,0:0:0:0:
214,139,113684,1,0,0:0:0:0:
82,149,113768,1,8,0:0:0:0:
85,157,113851,1,8,0:0:0:0:
85,157,113934,1,0,0:0:0:0:
189,232,114018,1,8,0:0:0:0:
163,123,114101,1,8,0:0:0:0:
154,138,114184,1,0,0:0:0:0:
168,126,114268,1,8,0:0:0:0:
259,190,114351,1,0,0:0:0:0:
263,165,114434,1,0,0:0:0:0:
244,172,114518,1,8,0:0:0:0:
205,200,114601,1,8,0:0:0:0:
198,140,114684,1,0,0:0:0:0:
144,217,115018,1,8,0:0:0:0:
206,225,115184,1,0,0:0:0:0:
250,198,115268,1,0,0:0:0:0:
252,205,115351,1,8,0:0:0:0:
358,205,115518,1,0,0:0:0:0:
213,153,115684,1,8,0:0:0:0:
259,167,115851,1,0,0:0:0:0:
286,176,115934,1,0,0:0:0:0:
330,318,116018,1,8,0:0:0:0:
224,198,116101,1,8,0:0:0:0:
220,225,116184,1,0,0:0:0:0:
139,175,116351,1,8,0:0:0:0:
204,151,116434,1,8,0:0:0:0:
203,168,116518,1,0,0:0:0:0:
247,256,116601,1,0,0:0:0:0:
221,284,116684,1,8,0:0:0:0:
299,192,116851,1,0,0:0:0:0:
231,232,117018,1,8,0:0:0:0:
203,237,117184,1,8,0:0:0:0:
213,210,117268,1,0,0:0:0:0:
213,210,117351,1,8,0:0:0:0:
256,124,117518,1,0,0:0:0:0:
316,136,117684,1,8,0:0:0:0:
271,156,117851,1,8,0:0:0:0:
312,220,117934,1,8,0:0:0:0:
288,246,118018,1,0,0:0:0:0:
268,242,118184,1,0,0:0:0:0:
181,195,118351,1,8,0:0:0:0:
237,172,118684,1,0,0:0:0:0:
268,161,118851,1,0,0:0:0:0:
279,169,118934,1,0,0:0:0:0:
249,178,119018,1,8,0:0:0:0:
233,208,119184,1,0,0:0:0:0:
230,193,119351,1,8,0:0:0:0:
157,173,119684,1,0,0:0:0:0:
229,188,119851,1,8,0:0:0:0:
219,137,120018,1,8,0:0:0:0:
308,184,120101,1,8,0:0:0:0:
313,184,120184,1,8,0:0:0:0:
256,317,120351,1,0,0:0:0:0:
251,227,120518,1,8,0:0:0:0:
167,189,120601,1,0,0:0:0:0:
306,206,120684,1,0,0:0:0:0:
219,167,120851,1,0,0:0:0:0:
108,130,121018,1,8,0:0:0:0:
160,152,121184,1,0,0:0:0:0:
286,181,121268,1,0,0:0:0:0:
280,205,121351,1,0,0:0:0:0:
208,189,121518,1,0,0:0:0:0:
197,214,121684,1,0,0:0:0:0:
169,198,121768,1,0,0:0:0:0:
203,207,121851,1,8,0:0:0:0:
278,198,121934,1,8,0:0:0:0:
253,229,122018,1,0,0:0:0:0:
244,173,122184,1,0,0:0:0:0:
191,160,122351,1,8,0:0:0:0:
254,170,122684,1,0,0:0:0:0:
251,191,122851,1,0,0:0:0:0:
246,193,122934,1,0,0:0:0:0:
270,202,123018,1,8,0:0:0:0:
317,240,123184,1,0,0:0:0:0:
246,230,123351,1,8,0:0:0:0:
317,240,123434,1,8,0:0:0:0:
198,184,123518,1,0,0:0:0:0:
278,188,123684,1,8,0:0:0:0:
261,106,123851,1,0,0:0:0:0:
367,173,124018,1,0,0:0:0:0:
302,138,124184,1,8,0:0:0:0:
192,135,124268,1,0,0:0:0:0:
278,163,124351,1,0,0:0:0:0:
247,192,124518,1,0,0:0:0:0:
278,199,124684,1,8,0:0:0:0:
264,197,125018,1,8,0:0:0:0:
249,203,125184,1,0,0:0:0:0:
313,197,125351,1,12,0:0:0:0:
204,210,125684,1,8,0:0:0:0:
244,219,125851,1,8,0:0:0:0:
239,219,125934,1,8,0:0:0:0:
294,189,126018,1,0,0:0:0:0:
198,200,126184,1,0,0:0:0:0:
263,200,126351,1,8,0:0:0:0:
252,189,126518,1,8,0:0:0:0:
222,193,126601,1,8,0:0:0:0:
214,209,126684,1,0,0:0:0:0:
192,266,126851,1,0,0:0:0:0:
277,228,127018,1,8,0:0:0:0:
132,235,127184,1,8,0:0:0:0:
183,239,127268,1,0,0:0:0:0:
222,164,127351,1,0,0:0:0:0:
305,149,127434,1,0,0:0:0:0:
298,161,127518,1,8,0:0:0:0:
186,212,127684,1,0,0:0:0:0:
210,196,127851,1,8,0:0:0:0:
210,196,128018,1,0,0:0:0:0:
182,165,128101,1,0,0:0:0:0:
195,189,128184,1,8,0:0:0:0:
213,199,128351,1,8,0:0:0:0:
258,218,128518,1,8,0:0:0:0:
263,230,128601,1,8,0:0:0:0:
263,231,128684,1,8,0:0:0:0:
192,186,128851,1,8,0:0:0:0:
316,192,129018,1,0,0:0:0:0:
261,166,129351,1,0,0:0:0:0:
293,185,129518,1,0,0:0:0:0:
293,188,129684,1,8,0:0:0:0:
302,185,130018,1,0,0:0:0:0:
157,129,130184,1,0,0:0:0:0:
219,187,130268,1,0,0:0:0:0:
233,190,130351,1,8,0:0:0:0:
235,232,130518,1,8,0:0:0:0:
264,224,130684,1,0,0:0:0:0:
233,176,130768,1,0,0:0:0:0:
244,115,130851,1,8,0:0:0:0:
246,183,131018,1,8,0:0:0:0:
331,204,131184,1,0,0:0:0:0:
332,258,131268,1,0,0:0:0:0:
252,255,131351,1,0,0:0:0:0:
260,266,131518,1,0,0:0:0:0:
332,275,131684,1,8,0:0:0:0:
136,104,131851,1,8,0:0:0:0:
116,163,131934,1,8,0:0:0:0:
78,222,132018,1,0,0:0:0:0:
268,185,132184,1,0,0:0:0:0:
142,190,132351,1,8,0:0:0:0:
207,209,132518,1,0,0:0:0:0:
411,296,132601,1,0,0:0:0:0:
231,171,132684,1,0,0:0:0:0:
214,165,132851,1,8,0:0:0:0:
301,205,133018,1,0,0:0:0:0:
198,179,133101,1,0,0:0:0:0:
198,179,133184,1,8,0:0:0:0:
177,181,133268,1,0,0:0:0:0:
95,195,133351,1,8,0:0:0:0:
142,155,133518,1,8,0:0:0:0:
113,137,133684,1,0,0:0:0:0:
100,129,134018,1,0,0:0:0:0:
306,234,134184,1,0,0:0:0:0:
113,130,134351,1,8,0:0:0:0:
279,181,134518,1,0,0:0:0:0:
248,104,134684,1,8,0:0:0:0:
146,173,135018,1,0,0:0:0:0:
85,121,135184,1,0,0:0:0:0:
178,122,135268,1,0,0:0:0:0:
138,93,135351,1,8,0:0:0:0:
203,97,135518,1,0,0:0:0:0:
180,107,135684,1,8,0:0:0:0:
197,195,135851,1,8,0:0:0:0:
51,175,136018,1,0,0:0:0:0:
241,180,136351,1,8,0:0:0:0:
377,209,136518,1,0,0:0:0:0:
361,288,136684,1,0,0:0:0:0:
329,256,136851,1,0,0:0:0:0:
173,148,137018,1,8,0:0:0:0:
267,195,137184,1,0,0:0:0:0:
374,224,137351,1,8,0:0:0:0:
306,207,137434,1,8,0:0:0:0:
271,183,137518,1,0,0:0:0:0:
306,207,137601,1,8,0:0:0:0:
173,148,137684,1,0,0:0:0:0:
271,183,137768,1,0,0:0:0:0:
271,183,137851,1,8,0:0:0:0:
268,183,137934,1,0,0:0:0:0:
186,244,138018,1,8,0:0:0:0:
150,196,138101,1,8,0:0:0:0:
150,196,138184,1,8,0:0:0:0:
90,210,138268,1,8,0:0:0:0:
263,143,138351,1,0,0:0:0:0:
348,205,138434,1,8,0:0:0:0:
284,224,138518,1,0,0:0:0:0:
287,165,138601,1,0,0:0:0:0:
168,211,138684,1,8,0:0:0:0:
286,205,138851,1,0,0:0:0:0:
309,129,139018,1,8,0:0:0:0:
273,126,139184,1,0,0:0:0:0:
248,131,139351,1,8,0:0:0:0:
355,276,139518,1,0,0:0:0:0:
474,231,139601,1,0,0:0:0:0:
474,231,139684,1,8,0:0:0:0:
222,236,139851,1,0,0:0:0:0:
176,230,140018,1,8,0:0:0:0:
176,230,140184,1,0,0:0:0:0:
105,189,140351,1,0,0:0:0:0:
125,187,140434,1,0,0:0:0:0:
273,197,140518,1,8,0:0:0:0:
347,276,140601,1,8,0:0:0:0:
273,197,140684,1,8,0:0:0:0:
236,198,140851,1,0,0:0:0:0:
247,145,141018,1,8,0:0:0:0:
253,135,141351,1,0,0:0:0:0:
171,149,141518,1,0,0:0:0:0:
369,338,141684,1,8,0:0:0:0:
273,140,141768,1,8,0:0:0:0:
261,164,141851,1,0,0:0:0:0:
253,182,142018,1,8,0:0:0:0:
253,182,142184,1,0,0:0:0:0:
210,185,142268,1,0,0:0:0:0:
171,149,142351,1,8,0:0:0:0:
118,131,142434,1,8,0:0:0:0:
114,128,142518,1,0,0:0:0:0:
283,139,142684,1,8,0:0:0:0:
251,113,142851,1,0,0:0:0:0:
251,113,143018,1,8,0:0:0:0:
185,150,143101,1,8,0:0:0:0:
150,194,143184,1,8,0:0:0:0:
72,162,143351,1,0,0:0:0:0:
72,162,143518,1,0,0:0:0:0:
63,116,143684,1,8,0:0:0:0:
205,146,144018,1,8,0:0:0:0:
205,146,144184,1,0,0:0:0:0:
205,146,144351,1,8,0:0:0:0:
219,148,144434,1,8,0:0:0:0:
219,150,144518,1,8,0:0:0:0:
174,129,144684,1,0,0:0:0:0:
243,193,144851,1,0,0:0:0:0:
243,193,144934,1,0,0:0:0:0:
135,198,145018,1,8,0:0:0:0:
233,163,145184,1,8,0:0:0:0:
157,185,145351,1,0,0:0:0:0:
187,171,145518,1,0,0:0:0:0:
187,171,145684,1,8,0:0:0:0:
187,171,145768,1,0,0:0:0:0:
187,171,145851,1,8,0:0:0:0:
249,167,146018,1,0,0:0:0:0:
196,171,146184,1,0,0:0:0:0:
187,171,146351,1,8,0:0:0:0:
222,168,146684,1,8,0:0:0:0:
256,155,146851,1,0,0:0:0:0:
193,147,147018,1,8,0:0:0:0:
193,147,147101,1,8,0:0:0:0:
193,147,147184,1,8,0:0:0:0:
110,168,147351,1,0,0:0:0:0:
140,164,147518,1,0,0:0:0:0:
140,164,147601,1,0,0:0:0:0:
140,164,147684,1,8,0:0:0:0:
257,172,147851,1,8,0:0:0:0:
225,105,148018,1,0,0:0:0:0:
134,93,148184,1,8,0:0:0:0:
153,95,148351,1,8,0:0:0:0:
182,126,148434,1,8,0:0:0:0:
146,148,148518,1,0,0:0:0:0:
169,148,148684,1,8,0:0:0:0:
217,157,148768,1,8,0:0:0:0:
165,179,148851,1,0,0:0:0:0:
159,184,148934,1,0,0:0:0:0:
258,201,149018,1,8,0:0:0:0:
258,201,149184,1,0,0:0:0:0:
231,165,149351,1,12,0:0:0:0:
147,221,149684,1,8,0:0:0:0:
146,209,149851,1,0,0:0:0:0:
110,143,150018,1,0,0:0:0:0:
246,149,150184,1,0,0:0:0:0:
219,156,150268,1,0,0:0:0:0:
195,160,150351,1,8,0:0:0:0:
250,79,150518,1,0,0:0:0:0:
233,87,150684,1,8,0:0:0:0:
218,90,150851,1,0,0:0:0:0:
146,103,151018,1,8,0:0:0:0:
146,103,151101,1,8,0:0:0:0:
117,101,151184,1,0,0:0:0:0:
195,160,151351,1,8,0:0:0:0:
184,159,151518,1,0,0:0:0:0:
271,182,151684,1,8,0:0:0:0:
137,99,152018,1,8,0:0:0:0:
137,99,152184,1,0,0:0:0:0:
184,101,152351,1,8,0:0:0:0:
184,101,152434,1,8,0:0:0:0:
264,109,152518,1,0,0:0:0:0:
213,139,152684,1,0,0:0:0:0:
211,142,152851,1,0,0:0:0:0:
220,132,152934,1,0,0:0:0:0:
177,143,153018,1,8,0:0:0:0:
156,168,153184,1,0,0:0:0:0:
156,168,153351,1,8,0:0:0:0:
237,139,153518,1,0,0:0:0:0:
266,124,153684,1,8,0:0:0:0:
170,152,153768,1,8,0:0:0:0:
346,93,153851,1,0,0:0:0:0:
315,103,154018,1,0,0:0:0:0:
149,156,154184,1,0,0:0:0:0:
168,153,154268,1,0,0:0:0:0:
168,153,154351,1,8,0:0:0:0:
237,139,154518,1,0,0:0:0:0:
169,123,154684,1,8,0:0:0:0:
154,156,155018,1,8,0:0:0:0:
125,161,155184,1,0,0:0:0:0:
80,219,155351,1,8,0:0:0:0:
153,186,155518,1,0,0:0:0:0:
348,197,155601,1,0,0:0:0:0:
270,201,155684,1,8,0:0:0:0:
172,214,155851,1,8,0:0:0:0:
190,165,156018,1,0,0:0:0:0:
165,152,156184,1,0,0:0:0:0:
174,116,156351,1,8,0:0:0:0:
264,151,156434,1,8,0:0:0:0:
264,151,156518,1,0,0:0:0:0:
361,188,156684,1,8,0:0:0:0:
288,208,156851,1,0,0:0:0:0:
162,228,157018,1,8,0:0:0:0:
281,211,157351,1,0,0:0:0:0:
220,190,157518,1,0,0:0:0:0:
169,163,157684,1,8,0:0:0:0:
168,118,157768,1,8,0:0:0:0:
49,105,157851,1,0,0:0:0:0:
387,156,158018,1,8,0:0:0:0:
315,125,158184,1,0,0:0:0:0:
236,126,158268,1,0,0:0:0:0:
218,144,158351,1,8,0:0:0:0:
124,104,158518,1,0,0:0:0:0:
147,102,158684,1,8,0:0:0:0:
186,121,158851,1,0,0:0:0:0:
186,121,159018,1,8,0:0:0:0:
235,178,159101,1,8,0:0:0:0:
115,191,159184,1,8,0:0:0:0:
299,158,159351,1,8,0:0:0:0:
296,161,159434,1,8,0:0:0:0:
227,186,159518,1,0,0:0:0:0:
211,186,159601,1,0,0:0:0:0:
144,199,159684,1,8,0:0:0:0:
165,122,159851,1,0,0:0:0:0:
256,192,160018,12,0,163351,0:0:0:0:
