osu file format v14

[General]
AudioFilename: audio.mp3
AudioLeadIn: 0
PreviewTime: 45277
Countdown: 0
SampleSet: Soft
StackLeniency: 0.2
Mode: 0
LetterboxInBreaks: 0
WidescreenStoryboard: 1

[Editor]
Bookmarks: 24558,48262
DistanceSpacing: 1
BeatDivisor: 8
GridSize: 32
TimelineZoom: 1.8

[Metadata]
Title:Kimi no namae (TV Size)
TitleUnicode:きみの名前 (TV Size)
Artist:Fujikawa Chiai
ArtistUnicode:藤川千愛
Creator:Net0
Version:Insane
Source:盾の勇者の成り上がり
Tags:3mplify Ataraxia j-rock j-pop anisong Japanese Anime Tate no Yuusha no Nariagari The Rising of the Shield Hero ed ending Raphtalia ラフタリア
BeatmapID:2072828
BeatmapSetID:991056

[Difficulty]
HPDrainRate:6
CircleSize:4
OverallDifficulty:8
ApproachRate:9
SliderMultiplier:2
SliderTickRate:1

[Events]
//Background and Video events
0,0,"tatetentativa.jpg",0,0
Video,-1800,"tentativa.mp4"
//Break Periods
//Storyboard Layer 0 (Background)
//Storyboard Layer 1 (Fail)
//Storyboard Layer 2 (Pass)
//Storyboard Layer 3 (Foreground)
//Storyboard Layer 4 (Overlay)
//Storyboard Sound Samples

[TimingPoints]
833,740.740740740741,4,2,1,70,1,0
833,-100,4,2,1,40,0,0
24536,-100,4,2,1,50,0,0
46758,-100,4,2,1,20,0,0
46805,-100,4,2,1,5,0,0
47129,-100,4,2,1,30,0,0
47175,-100,4,2,1,5,0,0
47499,-100,4,2,1,40,0,0
47545,-100,4,2,1,5,0,0
47870,-100,4,2,1,50,0,0
47916,-100,4,2,1,5,0,0
48240,-50,4,2,1,60,0,0
54166,-100,4,2,1,60,0,0
55277,-50,4,2,1,60,0,0
63055,-100,4,2,1,60,0,0
64166,-50,4,2,1,60,0,0
64536,-100,4,2,1,60,0,0
64907,-83.3333333333333,4,2,1,60,0,0
65277,-71.4285714285714,4,2,1,60,0,0
65647,-62.5,4,2,1,60,0,0
65740,-62.5,4,2,1,5,0,0
65833,-55.5555555555556,4,2,1,60,0,0
65925,-62.5,4,2,1,5,0,0
66018,-50,4,2,1,60,0,0
71944,-100,4,2,1,60,0,0
72684,-50,4,2,1,60,0,0
76018,-100,4,2,1,60,0,0
77129,-50,4,2,1,60,0,0
85277,-100,4,2,1,60,0,0
86203,-100,4,2,1,40,0,0

[Colours]
Combo1 : 236,100,54
Combo2 : 109,180,38

[HitObjects]
72,46,92,5,0,0:0:0:0:
77,67,277,1,0,0:0:0:0:
84,91,462,1,0,0:0:0:0:
91,112,647,1,0,0:0:0:0:
90,112,833,6,0,L|74:216,1,100,0|0,3:0|0:0,0:0:0:0:
200,181,1388,1,0,0:0:0:0:
200,181,1573,2,0,L|304:165,1,100,2|0,0:0|0:0,0:0:0:0:
364,294,2129,1,0,0:0:0:0:
364,294,2314,2,0,L|260:278,1,100,0|0,3:0|0:0,0:0:0:0:
149,296,2870,1,0,0:0:0:0:
410,188,3055,1,2,0:0:0:0:
410,188,3425,1,0,0:0:0:0:
265,278,3610,1,0,0:0:0:0:
356,366,3795,6,0,L|332:217,1,150,0|0,3:0|0:0,0:0:0:0:
309,82,4536,2,0,L|316:131,1,50,2|0,0:0|0:0,0:0:0:0:
171,221,4907,1,0,0:0:0:0:
145,210,5277,2,0,P|206:152|265:137,1,100,0|0,3:0|0:0,0:0:0:0:
219,146,6018,2,0,L|211:96,2,50,2|0|2,0:0|0:0|0:0,0:0:0:0:
131,59,6573,1,2,0:0:0:0:
324,172,6758,6,0,P|400:158|473:131,1,150,0|0,3:0|0:0,0:0:0:0:
257,244,7499,2,0,P|307:252|358:266,1,100,2|0,0:0|0:0,0:0:0:0:
152,220,8055,2,0,P|187:184|218:145,1,100,2|0,0:0|0:0,0:0:0:0:
306,72,8610,1,2,0:3:0:0:
301,104,8981,2,0,P|278:59|263:11,1,100,2|0,0:0|0:0,0:0:0:0:
417,202,9536,1,0,0:0:0:0:
154,68,9721,6,0,P|106:82|61:105,1,100,2|0,3:2|0:0,0:0:0:0:
22,192,10277,1,0,0:0:0:0:
195,66,10462,1,2,0:0:0:0:
176,102,10833,2,0,P|188:48|314:33,1,200,2|0,0:3|0:0,0:0:0:0:
250,195,11758,1,0,0:0:0:0:
250,195,11944,2,0,L|259:83,1,100,2|0,0:0|0:0,0:0:0:0:
188,254,12499,1,0,0:0:0:0:
128,315,12684,6,0,L|24:331,1,100,0|0,3:0|0:0,0:0:0:0:
274,282,13240,1,0,0:0:0:0:
274,282,13425,2,0,L|258:386,1,100,2|0,0:0|0:0,0:0:0:0:
188,254,13981,1,0,0:0:0:0:
331,209,14166,2,0,P|354:232|364:297,1,100,0|0,3:0|0:0,0:0:0:0:
445,310,14721,1,0,0:0:0:0:
250,195,14907,1,2,0:0:0:0:
250,195,15277,1,0,0:0:0:0:
116,308,15462,1,0,0:0:0:0:
56,242,15647,6,0,P|124:217|187:253,1,150,2|0,3:2|0:0,0:0:0:0:
134,108,16388,2,0,L|138:58,1,50,2|0,0:0|0:0,0:0:0:0:
40,167,16758,1,0,0:0:0:0:
10,176,17129,2,0,P|39:136|53:88,1,100,0|0,3:0|0:0,0:0:0:0:
458,296,17870,6,0,L|453:345,1,50,2|0,0:0|0:0,0:0:0:0:
326,228,18240,2,0,L|330:178,1,50,2|0,0:0|0:0,0:0:0:0:
184,155,18610,1,0,3:0:0:0:
184,155,19351,6,0,L|179:204,1,50,2|0,0:0|0:0,0:0:0:0:
326,228,19721,2,0,L|330:178,1,50,2|0,0:0|0:0,0:0:0:0:
458,296,20091,1,0,3:0:0:0:
184,155,20462,5,0,0:0:0:0:
326,228,20833,1,2,0:0:0:0:
53,88,21203,1,0,0:0:0:0:
61,235,21388,1,0,0:0:0:0:
184,155,21573,6,0,P|219:143|256:138,1,75,0|0,3:0|0:0,0:0:0:0:
329,218,21944,2,0,P|301:192|278:163,1,75,0|0,3:0|0:0,0:0:0:0:
312,61,22314,2,0,P|303:97|290:132,1,75,2|0,0:0|0:0,0:0:0:0:
231,242,22684,1,2,3:2:0:0:
512,30,23425,5,0,3:0:0:0:
152,55,23795,2,0,L|156:-5,1,50,2|0,0:0|0:0,0:0:0:0:
53,88,24166,1,2,0:0:0:0:
184,155,24351,1,2,0:0:0:0:
85,188,24536,6,0,P|182:173|273:212,1,200,2|0,3:2|0:0,0:0:0:0:
273,212,25647,1,0,3:0:0:0:
66,364,25833,2,0,P|146:306|245:300,1,200,2|0,0:0|0:0,0:0:0:0:
327,340,26758,1,2,0:0:0:0:
341,142,27129,1,2,0:3:0:0:
362,228,27314,1,2,0:3:0:0:
407,233,27407,1,2,0:3:0:0:
439,199,27499,2,0,P|395:222|358:256,1,100,0|0,3:0|0:0,0:0:0:0:
327,340,28240,1,2,0:0:0:0:
228,183,28610,1,2,3:2:0:0:
228,183,29721,1,2,0:0:0:0:
205,206,30092,2,0,L|151:195,1,50,0|0,3:0|3:0,0:0:0:0:
21,120,30462,6,0,P|35:217|-3:308,1,200,2|0,3:2|3:0,0:0:0:0:
354,320,31573,1,2,0:0:0:0:
280,359,31758,1,2,0:0:0:0:
354,320,31944,2,0,P|295:241|204:205,1,200,2|0,3:2|3:0,0:0:0:0:
73,200,32870,1,2,0:0:0:0:
0,309,33055,1,0,0:0:0:0:
73,200,33240,1,2,0:0:0:0:
204,205,33425,2,0,P|250:117|255:18,1,200,0|2,3:0|0:0,0:0:0:0:
132,321,34536,1,2,0:0:0:0:
132,321,35277,1,0,0:0:0:0:
255,18,35647,2,0,L|251:71,1,50,0|0,3:0|0:0,0:0:0:0:
236,214,36018,1,0,3:0:0:0:
157,130,36203,1,0,3:0:0:0:
338,149,36388,6,0,L|391:153,2,50,2|0|0,3:2|0:0|0:0,0:0:0:0:
134,279,36944,2,0,L|81:283,2,50,2|0|0,0:0|0:0|0:0,0:0:0:0:
315,298,37499,2,0,P|225:321|111:374,1,200,2|0,3:2|0:0,0:0:0:0:
157,130,38610,2,0,L|155:78,1,50,2|0,0:0|0:0,0:0:0:0:
158,179,38888,2,0,L|159:228,1,50,0|0,3:0|0:0,0:0:0:0:
154,43,39166,1,0,3:0:0:0:
285,108,39351,6,0,L|327:81,1,50,2|0,3:2|0:0,0:0:0:0:
410,29,39721,1,0,0:0:0:0:
491,152,39907,2,0,L|465:110,1,50,2|0,0:0|0:0,0:0:0:0:
410,29,40277,1,0,0:0:0:0:
382,170,40462,2,0,L|358:273,1,100,2|0,3:2|0:0,0:0:0:0:
157,130,41203,1,0,0:0:0:0:
359,267,41573,1,2,0:0:0:0:
157,130,41944,1,0,3:0:0:0:
258,198,42129,1,0,3:0:0:0:
238,118,42314,6,0,P|239:217|218:315,1,200,2|0,3:2|0:0,0:0:0:0:
117,384,43425,1,0,3:0:0:0:
96,288,43610,2,0,B|216:273|163:383|326:353,1,250,2|2,0:0|0:0,0:0:0:0:
324,353,44907,1,0,3:0:0:0:
344,157,45092,1,0,3:0:0:0:
334,255,45277,1,2,3:2:0:0:
168,135,46758,6,0,P|149:167|143:203,1,75,2|0,0:0|0:0,0:0:0:0:
303,128,47129,2,0,P|266:108|220:105,1,75,2|0,0:0|0:0,0:0:0:0:
310,266,47499,2,0,P|330:231|334:193,1,75,2|0,0:0|0:0,0:0:0:0:
176,272,47870,2,0,P|208:290|245:296,1,75,2|0,0:0|0:0,0:0:0:0:
99,273,48240,6,0,B|94:326|94:326|99:375,1,100,6|0,0:1|0:0,0:0:0:0:
17,168,48610,2,0,B|21:114|21:114|17:66,1,100,2|0,0:2|0:0,0:0:0:0:
240,63,48981,2,0,P|196:66|115:143,1,150,2|0,0:1|0:0,0:0:0:0:
186,252,49351,2,0,P|161:209|121:180,1,100,0|0,3:2|0:0,0:0:0:0:
361,195,49721,6,0,B|409:217|409:217|449:246,1,100,2|0,0:0|0:0,0:0:0:0:
98,372,50091,2,0,B|49:348|49:348|9:321,1,100,4|0,3:3|0:0,0:0:0:0:
208,344,50462,2,0,P|239:305|277:273,1,100,0|0,1:0|0:0,0:0:0:0:
374,320,50833,1,0,3:0:0:0:
361,195,51018,5,0,3:0:0:0:
341,168,51110,1,0,3:0:0:0:
310,154,51203,2,0,P|358:166|407:159,1,100,6|0,3:2|0:0,0:0:0:0:
188,189,51573,2,0,P|139:176|90:183,1,100,2|0,0:0|0:0,0:0:0:0:
363,71,51944,1,0,3:0:0:0:
133,276,52314,1,2,0:0:0:0:
363,71,52684,2,0,P|280:72|310:155,1,200,2|4,0:1|0:3,0:0:0:0:
395,152,53240,1,0,0:0:0:0:
187,121,53425,2,0,B|279:66|279:66|332:34|363:72,1,200,0|0,1:0|3:0,0:0:0:0:
421,168,53981,1,0,3:0:0:0:
324,262,54166,6,0,B|233:318|233:318|180:350|149:312,1,200,4|0,0:0|0:0,0:0:0:0:
43,59,55277,6,0,B|41:115|27:157|27:157|61:234|61:234|43:283|44:347,1,300,2|0,0:0|0:0,0:0:0:0:
278,110,56018,2,0,L|265:11,1,100,4|0,0:3|0:0,0:0:0:0:
424,155,56388,2,0,P|350:164|289:207,1,150,0|0,1:0|0:0,0:0:0:0:
145,192,56758,2,0,P|218:183|289:207,1,150,2|0,3:2|0:0,0:0:0:0:
302,306,57129,6,0,L|289:206,1,100,2|0,0:3|0:0,0:0:0:0:
0,150,57499,1,0,3:0:0:0:
45,205,57684,2,0,L|144:192,1,100,2|0,0:3|0:0,0:0:0:0:
271,90,58055,1,0,3:0:0:0:
226,35,58240,2,0,L|27:62,2,200,2|0|0,3:1|0:0|3:0,0:0:0:0:
144,191,59351,5,0,1:0:0:0:
185,114,59536,1,8,0:1:0:0:
226,35,59721,1,0,1:0:0:0:
185,114,59907,1,8,0:1:0:0:
144,191,60092,6,0,B|121:259|121:259|157:393,1,200,4|0,0:0|0:0,0:0:0:0:
339,362,60647,1,2,0:0:0:0:
237,283,60833,2,0,P|278:256|327:249,1,100,2|0,0:0|0:0,0:0:0:0:
419,297,61203,1,2,3:2:0:0:
503,357,61388,2,0,P|469:295|511:150,1,200,2|0,0:1|0:0,0:0:0:0:
408,3,61944,2,0,L|425:107,1,100,4|0,0:3|0:0,0:0:0:0:
327,249,62314,2,0,L|344:145,1,100,0|0,1:0|0:0,0:0:0:0:
339,362,62684,1,0,3:0:0:0:
224,296,62870,1,0,3:0:0:0:
139,378,63055,6,0,P|107:281|164:194,1,200,6|0,3:3|0:0,0:0:0:0:
225,108,64166,5,4,0:3:0:0:
225,108,64536,2,0,P|190:102|134:114,1,75,2|0,1:3|0:0,0:0:0:0:
313,185,64907,2,0,P|288:148|254:120,1,89.9999972534181,8|0,0:3|0:0,0:0:0:0:
302,318,65277,2,0,P|322:270|324:218,1,104.999996795654,2|0,1:3|0:0,0:0:0:0:
248,367,65647,6,0,P|265:357|281:345,1,40,0|0,3:0|0:0,0:0:0:0:
194,239,65833,2,0,P|176:248|157:266,1,44.999998626709,0|0,3:0|0:0,0:0:0:0:
404,158,66018,6,0,L|323:217,1,100,4|0,0:1|0:0,0:0:0:0:
403,45,66388,2,0,P|489:90|512:185,1,200,2|0,0:2|3:0,0:0:0:0:
427,253,66944,1,0,0:0:0:0:
225,43,67129,2,0,L|306:102,1,100,2|0,3:1|0:0,0:0:0:0:
289,360,67499,6,0,P|313:289|323:215,1,150,2|0,0:0|0:0,0:0:0:0:
177,249,67870,2,0,P|251:239|322:215,1,150,6|0,0:3|0:0,0:0:0:0:
492,343,68240,2,0,L|378:340,1,100,0|0,1:0|0:0,0:0:0:0:
289,360,68610,1,0,3:0:0:0:
177,249,68795,5,0,3:0:0:0:
147,208,68888,1,0,3:0:0:0:
103,201,68981,2,0,B|89:249|89:249|91:319,1,100,6|0,3:2|0:0,0:0:0:0:
48,121,69351,2,0,B|49:71|49:71|35:23,1,100,2|0,0:3|0:0,0:0:0:0:
148,114,69722,1,0,3:0:0:0:
87,298,70092,1,2,0:0:0:0:
148,113,70462,6,0,P|244:93|337:126,1,200,6|4,0:3|0:3,0:0:0:0:
106,29,71018,1,0,0:0:0:0:
430,131,71203,1,0,1:0:0:0:
460,157,71573,1,0,1:0:0:0:
209,164,71759,1,8,0:1:0:0:
244,94,71944,6,0,P|254:162|247:303,1,200,4|0,0:0|3:0,0:0:0:0:
167,355,72870,5,2,0:0:0:0:
248,292,73055,1,2,3:2:0:0:
318,365,73240,2,0,P|357:377|521:346,1,200,0|0,0:0|0:0,0:0:0:0:
400,167,73795,2,0,L|409:267,1,100,4|0,0:3|0:0,0:0:0:0:
111,216,74166,2,0,L|103:117,1,100,0|0,1:0|0:0,0:0:0:0:
256,191,74536,1,0,3:0:0:0:
256,191,74721,1,0,3:0:0:0:
101,345,74907,6,0,P|52:354|1:353,1,100,2|0,3:2|0:0,0:0:0:0:
399,355,75277,1,0,0:0:0:0:
399,355,75462,2,0,P|448:346|498:346,1,100,2|0,0:1|0:0,0:0:0:0:
320,296,75833,1,0,0:0:0:0:
253,222,76018,6,0,L|255:15,1,200,2|4,3:1|0:3,0:0:0:0:
253,222,77129,6,0,P|245:271|245:321,1,100,0|0,1:0|0:0,0:0:0:0:
399,355,77499,1,0,1:0:0:0:
245,321,77684,1,0,1:0:0:0:
101,345,77870,6,0,P|67:328|38:217,1,150,6|0,0:0|0:0,0:0:0:0:
0,83,78240,2,0,P|33:99|62:210,1,150,2|0,0:0|0:0,0:0:0:0:
34,228,78610,1,0,3:0:0:0:
34,228,78981,2,0,L|156:235,1,100,0|0,3:2|0:0,0:0:0:0:
334,295,79351,2,0,P|300:278|271:167,1,150,2|0,0:1|0:0,0:0:0:0:
234,33,79721,2,0,P|267:49|296:160,1,150,2|0,0:2|0:0,0:0:0:0:
267,178,80091,1,0,1:0:0:0:
267,178,80462,5,0,3:0:0:0:
334,295,80647,1,0,3:0:0:0:
208,366,80833,2,0,P|216:317|238:272,1,100,2|0,3:1|0:0,0:0:0:0:
430,316,81203,1,0,3:0:0:0:
355,176,81388,2,0,P|347:126|325:82,1,100,2|0,0:1|0:0,0:0:0:0:
334,295,81758,1,0,3:0:0:0:
52,159,81944,6,0,P|146:130|239:160,2,200,6|0|4,3:2|0:0|0:3,0:0:0:0:
238,272,82870,1,0,0:0:0:0:
93,354,83055,2,0,L|71:250,1,100,0|0,1:0|0:0,0:0:0:0:
52,159,83425,1,0,1:0:0:0:
239,160,83610,1,0,1:0:0:0:
238,273,83795,6,0,B|346:311|444:263|444:263|407:266|350:240,1,300,2|0,3:1|0:0,0:0:0:0:
498,103,84536,2,0,P|453:125|423:164,1,100,6|0,0:3|0:0,0:0:0:0:
359,243,84907,1,8,0:3:0:0:
512,198,85092,1,4,0:3:0:0:
321,145,85277,6,0,P|222:159|124:140,1,200,6|0,0:2|0:0,0:0:0:0:
125,141,86434,6,0,P|152:170|177:214,1,87.5,2|2,0:0|0:1,0:0:0:0:
