osu file format v14

[General]
AudioFilename: audio.mp3
AudioLeadIn: 0
PreviewTime: 249635
Countdown: 0
SampleSet: Soft
StackLeniency: 0.4
Mode: 0
LetterboxInBreaks: 0
WidescreenStoryboard: 0

[Editor]
Bookmarks: 60006,98524,110376,157784,196302
DistanceSpacing: 1.5
BeatDivisor: 8
GridSize: 4
TimelineZoom: 1.4

[Metadata]
Title:Kimi no namae
TitleUnicode:きみの名前
Artist:Fujikawa Chiai
ArtistUnicode:藤川千愛
Creator:Kibbleru
Version:Compassion
Source:盾の勇者の成り上がり
Tags:Tate no Yuusha no Nariagari The Rising of the Shield Hero ed ending full raphtalia iwatani naofumi anime japanese raccoon girl
BeatmapID:1954030
BeatmapSetID:935269

[Difficulty]
HPDrainRate:5
CircleSize:4
OverallDifficulty:7
ApproachRate:8.8
SliderMultiplier:3.39999990463257
SliderTickRate:1

[Events]
//Background and Video events
0,0,"raphtaliaaaaa.jpg",0,0
//Break Periods
2,251117,265302
//Storyboard Layer 0 (Background)
//Storyboard Layer 1 (Fail)
//Storyboard Layer 2 (Pass)
//Storyboard Layer 3 (Foreground)
//Storyboard Sound Samples

[TimingPoints]
747,740.740740740741,4,2,1,25,1,0
747,-238.095238095238,4,2,1,25,0,0
5932,-161.290322580645,4,2,1,25,0,0
6024,-161.290322580645,4,2,1,15,0,0
6302,-238.095238095238,4,2,1,15,0,0
6672,-238.095238095238,4,2,1,25,0,0
12598,-133.333333333333,4,2,1,30,0,0
18524,-117.647058823529,4,2,1,35,0,0
20747,-117.647058823529,4,2,1,30,0,0
22598,-166.666666666667,4,2,1,30,0,0
23709,-181.818181818182,4,2,1,30,0,0
24450,-133.333333333333,4,2,1,30,0,0
29635,-133.333333333333,4,2,1,35,0,0
34450,-166.666666666667,4,2,1,35,0,0
35561,-200,4,2,1,35,0,0
36302,-200,4,2,1,40,0,0
44635,-175.438596491228,4,2,1,40,0,0
45191,-200,4,2,1,40,0,0
57413,-200,4,2,1,30,0,0
58524,-200,4,2,1,40,0,0
60006,-100,4,2,1,60,0,0
62691,-100,4,2,1,50,0,0
62969,-100,4,2,1,60,0,0
65654,-100,4,2,1,50,0,0
65932,-100,4,2,1,60,0,0
66302,-125,4,2,1,60,0,0
67043,-166.666666666667,4,2,1,60,0,0
68895,-111.111111111111,4,2,1,60,0,0
74821,-166.666666666666,4,2,1,60,0,0
77784,-100,4,2,1,60,0,0
80469,-100,4,2,1,50,0,0
80747,-100,4,2,1,60,0,0
84450,-125,4,2,1,60,0,0
84821,-166.666666666667,4,2,1,60,0,0
86672,-111.111111111111,4,2,1,60,0,0
89635,-100,4,2,1,60,0,0
92321,-111.111111111111,4,2,1,50,0,0
92598,-100,4,2,1,60,0,0
96858,-111.111111111111,4,2,1,50,0,0
97043,-166.666666666667,4,2,1,60,0,0
98524,-111.111111111111,4,2,1,60,0,0
99635,-142.857142857143,4,2,1,60,0,0
100747,-111.111111111111,4,2,1,60,0,0
101209,-111.111111111111,4,2,1,50,0,0
101487,-111.111111111111,4,2,1,60,0,0
105561,-142.857142857143,4,2,1,60,0,0
105932,-142.857142857143,4,2,1,50,0,0
106302,-142.857142857143,4,2,1,55,0,0
107598,-142.857142857143,4,2,1,40,0,0
109635,-142.857142857143,4,2,1,50,0,0
110376,-125,4,2,1,50,0,0
116024,-125,4,2,1,35,0,0
116302,-111.111111111111,4,2,1,50,0,0
120376,-166.666666666667,4,2,1,50,0,0
122228,-125,4,2,1,50,0,0
134080,-200,4,2,1,55,0,0
142413,-175.438596491228,4,2,1,55,0,0
142969,-200,4,2,1,55,0,0
145932,-111.111111111111,4,2,1,55,0,0
153709,-111.111111111111,4,2,1,45,0,0
154080,-111.111111111111,4,2,1,55,0,0
155932,-111.111111111111,4,2,1,60,0,0
157784,-100,4,2,1,65,0,0
160469,-100,4,2,1,55,0,0
160747,-100,4,2,1,65,0,0
166673,-111.111111111111,4,2,1,65,0,0
172321,-100,4,2,1,55,0,0
172598,-111.111111111111,4,2,1,65,0,0
174821,-90.9090909090908,4,2,1,65,0,0
175562,-100,4,2,1,65,0,0
184450,-111.111111111111,4,2,1,65,0,0
187413,-100,4,2,1,65,0,0
190098,-100,4,2,1,55,0,0
190376,-100,4,2,1,65,0,0
196302,-111.111111111111,4,2,1,65,0,0
196672,-111.111111111111,4,2,1,60,0,0
200376,-142.857142857143,4,2,1,60,0,0
204265,-111.111111111111,4,2,1,60,0,0
216672,-111.111111111111,4,2,1,50,0,0
217043,-100,4,2,1,65,0,0
218895,-100,4,2,1,50,0,0
219265,-100,4,2,1,65,0,0
220006,-100,4,2,1,60,0,0
221117,-142.857142857143,4,2,1,60,0,0
222969,-100,4,2,1,60,0,0
224080,-142.857142857143,4,2,1,60,0,0
225932,-100,4,2,1,60,0,0
227043,-142.857142857143,4,2,1,60,0,0
228895,-100,4,2,1,60,0,0
230006,-142.857142857143,4,2,1,60,0,0
231858,-100,4,2,1,60,0,0
232969,-142.857142857143,4,2,1,60,0,0
234821,-100,4,2,1,60,0,0
235932,-142.857142857143,4,2,1,60,0,0
237784,-100,4,2,1,60,0,0
242228,-100,4,2,1,65,0,0
244450,-100,4,2,1,60,0,0
245191,-158.730158730159,4,2,1,60,0,0
245376,-163.934426229508,4,2,1,5,0,0
251117,740.740740740741,4,2,1,5,1,0
265931,-200,4,2,1,50,0,0
266672,-142.857142857143,4,2,1,55,0,0
267413,-83.3333333333333,4,2,1,65,0,0
268894,-100,4,2,1,65,0,0
271579,-100,4,2,1,55,0,0
271857,-100,4,2,1,65,0,0
277505,-100,4,2,1,55,0,0
277783,-111.111111111111,4,2,1,65,0,0
279728,-100,4,2,1,55,0,0
280006,-100,4,2,1,65,0,0
280746,-100,4,2,1,65,0,0
283431,-100,4,2,1,55,0,0
283709,-100,4,2,1,65,0,0
286672,-166.666666666667,4,2,1,65,0,0
287783,-166.666666666667,4,2,1,50,0,0
288154,-200,4,2,1,65,0,0
289635,-270.27027027027,4,2,1,65,0,0
289820,-270.27027027027,4,2,1,5,0,0

[Colours]
Combo1 : 189,158,252
Combo2 : 249,175,132

[HitObjects]
120,172,747,5,2,0:0:0:0:
257,111,1117,1,0,0:0:0:0:
153,23,1487,2,0,P|162:57|167:100,1,71.399995818329,2|0,0:0|0:0,0:0:0:0:
204,180,2228,1,2,0:0:0:0:
362,263,2598,1,0,0:0:0:0:
259,316,2969,2,0,P|264:280|274:241,1,71.399995818329,2|0,0:0|0:0,0:0:0:0:
406,165,3709,6,0,L|317:180,2,71.399995818329,2|0|0,0:0|0:0|0:0,0:0:0:0:
436,77,4821,2,0,P|378:73|295:6,1,142.799991636658,2|0,0:0|0:0,0:0:0:0:
174,59,5932,2,0,L|120:47,2,35.1333309540305,2|2|0,0:0|0:0|0:0,0:0:0:0:
189,80,6302,1,2,0:0:0:0:
189,80,6672,6,0,L|180:174,1,71.399995818329,2|0,0:0|0:0,0:0:0:0:
236,216,7413,1,0,0:0:0:0:
265,309,7784,2,0,P|270:247|314:168,1,142.799991636658,2|2,0:0|0:0,0:0:0:0:
306,176,8895,2,0,P|342:184|380:190,1,71.399995818329
392,301,9635,6,0,B|241:261|346:173|165:146,1,285.599983273316,2|0,0:0|0:0,0:0:0:0:
168,146,12598,6,0,P|212:97|298:89,1,127.50000128746,2|0,0:0|0:0,0:0:0:0:
352,91,13154,1,0,0:0:0:0:
318,166,13339,2,0,L|328:232,1,63.7500006437302,2|0,0:0|0:0,0:0:0:0:
312,356,13709,1,0,0:0:0:0:
260,284,13895,1,2,0:0:0:0:
383,300,14080,6,0,L|514:315,1,127.50000128746,2|0,0:0|0:0,0:0:0:0:
483,194,14635,2,0,L|405:216,1,63.7500006437302,0|2,0:0|0:0,0:0:0:0:
256,85,15191,1,2,0:0:0:0:
216,179,15376,1,0,0:0:0:0:
134,140,15561,6,0,P|123:78|98:18,1,127.50000128746,2|0,0:0|0:0,0:0:0:0:
256,85,16117,1,0,0:0:0:0:
378,140,16302,1,2,0:0:0:0:
378,140,16672,2,0,P|381:108|388:78,1,63.7500006437302
511,288,17043,6,0,P|462:247|400:232,1,127.50000128746,2|0,0:0|0:0,0:0:0:0:
401,233,17784,1,0,0:0:0:0:
246,307,17969,1,2,0:0:0:0:
289,191,18154,1,0,0:0:0:0:
357,347,18339,1,2,0:0:0:0:
318,269,18524,6,0,B|266:280|266:280|242:299|242:299|176:313,1,144.499998703003,2|0,0:0|0:0,0:0:0:0:
96,301,19080,1,0,0:0:0:0:
67,162,19265,2,0,P|136:167|191:224,1,144.499998703003,2|0,0:0|0:0,0:0:0:0:
183,312,19821,2,0,P|190:350|198:382,1,72.2499993515015,0|2,0:0|0:0,0:0:0:0:
469,234,20376,6,0,P|462:196|454:164,1,72.2499993515015
343,78,20747,2,0,L|375:233,1,144.499998703003,2|0,0:0|0:0,0:0:0:0:
244,90,21302,1,0,0:0:0:0:
145,208,21487,6,0,B|182:218|220:218|220:218|258:198|290:159,1,144.499998703003,2|0,0:0|0:0,0:0:0:0:
342,79,22043,1,0,0:0:0:0:
457,258,22228,1,2,0:0:0:0:
457,258,22598,6,0,B|317:247|392:320|253:309,1,203.999988052369,2|0,0:0|0:0,0:0:0:0:
268,310,23709,2,0,L|251:207,1,93.5000002307892,2|0,0:0|0:0,0:0:0:0:
181,278,24265,1,0,0:0:0:0:
134,98,24450,6,0,B|201:102|187:132|256:138,1,127.50000128746,2|0,0:0|0:0,0:0:0:0:
326,176,25006,1,0,0:0:0:0:
374,110,25191,2,0,P|379:79|380:47,1,63.7500006437302,2|0,0:0|0:0,0:0:0:0:
467,157,25561,2,0,P|461:187|460:236,1,63.7500006437302
499,299,25932,6,0,P|448:262|382:253,1,127.50000128746,2|0,0:0|0:0,0:0:0:0:
325,307,26487,2,0,L|318:372,1,63.7500006437302,0|2,0:0|0:0,0:0:0:0:
256,72,27043,1,2,0:0:0:0:
211,171,27228,1,0,0:0:0:0:
147,114,27413,6,0,L|9:97,1,127.50000128746,2|0,0:0|0:0,0:0:0:0:
256,72,27969,1,0,0:0:0:0:
365,114,28154,2,0,L|434:108,1,63.7500006437302,2|0,0:0|0:0,0:0:0:0:
511,97,28524,1,0,0:0:0:0:
445,298,28895,6,0,B|378:265|378:265|316:288,1,127.50000128746,2|0,0:0|0:0,0:0:0:0:
282,353,29450,1,0,0:0:0:0:
264,139,29635,1,2,0:0:0:0:
264,139,30006,1,2,0:0:0:0:
282,353,30376,6,0,L|272:222,1,127.50000128746
264,139,31117,1,2,0:0:0:0:
264,139,31487,1,2,0:0:0:0:
194,335,31672,1,0,0:0:0:0:
113,261,31858,6,0,B|165:256|165:256|188:242|188:242|246:238,1,127.50000128746,2|0,0:0|0:0,0:0:0:0:
492,170,32598,2,0,L|363:148,1,127.50000128746,2|0,0:0|0:0,0:0:0:0:
174,36,33339,6,0,L|191:122,1,63.7500006437302,2|0,0:0|0:0,0:0:0:0:
216,265,33709,1,0,0:0:0:0:
95,138,34080,1,2,0:0:0:0:
286,86,34450,2,0,B|273:157|273:157|230:186|230:186|215:264,1,203.999988052369,2|0,0:0|0:0,0:0:0:0:
64,221,35561,2,0,P|58:176|48:134,1,84.9999976158143,2|0,0:0|0:0,0:0:0:0:
37,306,36117,1,0,0:0:0:0:
7,53,36302,6,0,P|65:105|169:114,1,169.999995231629,2|2,0:0|0:3,0:0:0:0:
227,83,37413,2,0,L|239:181,1,84.9999976158143,2|0,0:0|0:0,0:0:0:0:
302,224,38154,1,2,0:3:0:0:
405,145,38524,2,0,L|389:249,1,84.9999976158143,2|0,0:0|0:0,0:0:0:0:
427,307,39080,1,2,0:0:0:0:
319,364,39265,6,0,P|300:311|299:274,2,84.9999976158143,2|0|2,0:3|0:0|0:3,0:0:0:0:
126,247,40376,2,0,P|201:241|258:149,1,169.999995231629,2|0,0:0|0:0,0:0:0:0:
216,96,41487,2,0,L|120:78,1,84.9999976158143,2|0,0:0|0:0,0:0:0:0:
39,90,42043,1,2,0:0:0:0:
44,177,42228,6,0,B|132:198|81:235|184:267,1,169.999995231629,2|2,0:0|0:0,0:0:0:0:
71,298,43339,1,2,0:3:0:0:
184,176,43524,1,0,0:0:0:0:
261,295,43709,2,0,P|298:220|289:126,1,169.999995231629,2|0,0:0|0:0,0:0:0:0:
227,83,44635,2,0,L|218:30,2,48.4499980495835,0|2|0,0:0|0:0|0:0,0:0:0:0:
387,113,45191,6,0,L|409:20,2,84.9999976158143,2|0|2,0:3|0:0|0:3,0:0:0:0:
455,256,46302,2,0,B|428:226|392:202|392:202|349:202|304:215,1,169.999995231629,2|0,0:0|0:0,0:0:0:0:
230,245,47413,2,0,P|212:208|206:162,1,84.9999976158143,2|0,0:0|0:0,0:0:0:0:
256,99,47969,1,0,0:0:0:0:
133,250,48154,6,0,L|108:347,1,84.9999976158143,2|0,0:0|0:0,0:0:0:0:
256,272,48709,1,0,0:0:0:0:
406,356,48895,1,2,0:3:0:0:
406,356,49265,2,0,B|392:298|392:298|362:268|362:268|349:202,1,169.999995231629,2|2,0:0|0:3,0:0:0:0:
280,66,50376,2,0,P|264:114|271:163,1,84.9999976158143,2|0,0:0|0:0,0:0:0:0:
182,188,50932,1,0,0:0:0:0:
49,128,51117,6,0,L|133:113,1,84.9999976158143,2|0,0:0|0:0,0:0:0:0:
259,238,51672,1,0,0:0:0:0:
429,116,51858,1,2,0:3:0:0:
429,116,52228,2,0,B|363:103|363:103|340:77|340:77|270:65,1,169.999995231629,2|0,0:0|0:0,0:0:0:0:
259,238,53339,2,0,L|267:334,1,84.9999976158143,2|0,0:3|0:0,0:0:0:0:
187,358,53895,1,0,0:0:0:0:
9,197,54080,6,0,P|49:153|154:152,1,169.999995231629,2|2,0:0|0:3,0:0:0:0:
232,187,55191,2,0,P|249:148|255:100,1,84.9999976158143,2|2,0:0|0:3,0:0:0:0:
150,234,55932,1,0,0:0:0:0:
235,271,56302,2,0,P|275:266|317:247,1,84.9999976158143,2|0,0:0|0:0,0:0:0:0:
346,170,56858,1,2,0:3:0:0:
459,353,57043,5,2,0:0:0:0:
459,353,57413,2,0,L|474:248,1,84.9999976158143
75,56,58524,5,0,0:0:0:0:
133,132,58895,1,0,0:0:0:0:
43,222,59265,1,0,0:0:0:0:
162,329,59635,1,0,0:0:0:0:
10,363,60006,6,0,P|79:303|180:313,1,169.999995231629,4|0,3:2|0:0,0:0:0:0:
210,220,60561,1,0,0:0:0:0:
390,225,60747,2,0,P|345:218|296:204,1,84.9999976158143,2|0,0:0|0:0,0:0:0:0:
132,67,61117,6,0,L|150:167,1,84.9999976158143,2|0,3:2|0:0,0:0:0:0:
249,362,61487,2,0,B|263:298|263:298|294:270|294:270|308:201,1,169.999995231629,0|0,0:0|3:2,0:0:0:0:
249,130,62043,1,0,0:0:0:0:
393,48,62228,2,0,B|383:89|383:89|397:143,1,84.9999976158143,8|0,0:0|0:0,0:0:0:0:
478,166,62598,1,2,0:0:0:0:
313,300,62784,1,2,0:3:0:0:
447,279,62969,6,0,P|365:210|288:214,1,169.999995231629,2|0,3:2|0:0,0:0:0:0:
37,89,63709,2,0,P|78:84|130:71,1,84.9999976158143,2|0,0:0|0:0,0:0:0:0:
204,45,64080,2,0,P|215:88|218:135,1,84.9999976158143,0|0,3:2|0:0,0:0:0:0:
265,295,64450,6,0,B|262:198|316:232|308:134,1,169.999995231629,2|0,3:2|3:2,0:0:0:0:
498,347,65191,2,0,P|411:339|358:275,1,169.999995231629,8|2,0:0|0:0,0:0:0:0:
434,209,65747,1,2,0:3:0:0:
406,111,65932,6,0,L|500:94,1,84.9999976158143,4|0,3:2|0:0,0:0:0:0:
435,19,66302,2,0,L|301:42,1,135.999996185303,0|2,0:0|0:0,0:0:0:0:
75,96,67043,6,0,B|150:112|150:112|179:156|179:156|251:173,1,203.999988052369,2|0,3:2|3:2,0:0:0:0:
113,294,68154,2,0,P|90:239|92:195,1,101.999994026184,8|2,0:0|0:0,0:0:0:0:
242,76,68709,1,0,0:0:0:0:
289,159,68895,6,0,L|270:316,1,152.999991039276,2|0,3:2|0:0,0:0:0:0:
358,364,69450,2,0,B|370:324|370:324|365:289,1,76.4999955196382,0|2,0:0|0:0,0:0:0:0:
289,159,69821,1,0,0:0:0:0:
87,247,70006,6,0,B|131:265|165:268|165:268|204:255|234:226,1,152.999991039276,2|0,3:2|0:0,0:0:0:0:
154,45,70561,1,0,0:0:0:0:
189,147,70747,2,0,L|98:127,1,76.4999955196382,2|0,3:2|0:0,0:0:0:0:
367,76,71117,5,8,0:0:0:0:
451,162,71302,1,2,0:0:0:0:
474,55,71487,5,8,0:0:0:0:
342,195,71672,1,8,0:0:0:0:
461,360,71858,6,0,P|405:308|331:294,1,152.999991039276,4|0,3:2|0:0,0:0:0:0:
246,329,72413,2,0,P|234:292|230:254,1,76.4999955196382,0|2,0:0|0:0,0:0:0:0:
36,189,72784,1,0,0:0:0:0:
97,113,72969,6,0,B|130:162|130:162|111:256,2,152.999991039276,2|0|0,3:2|0:0|3:2,0:0:0:0:
39,372,74080,2,0,P|73:354|110:349,1,76.4999955196382,8|0,0:0|0:0,0:0:0:0:
203,266,74450,1,2,0:3:0:0:
257,384,74635,1,2,0:0:0:0:
512,359,74821,6,0,B|388:352|454:296|324:291,1,203.999988052369,4|0,3:2|0:0,0:0:0:0:
119,325,75932,2,0,B|99:285|99:285|110:223,1,101.999994026184,0|8,3:2|0:0,0:0:0:0:
439,36,76672,5,8,0:3:0:0:
439,36,76858,1,0,0:0:0:0:
346,96,77043,5,8,0:0:0:0:
335,181,77229,1,2,0:3:0:0:
477,358,77413,5,4,0:3:0:0:
437,197,77598,1,4,0:3:0:0:
403,287,77784,6,0,B|362:271|322:265|322:265|283:283|251:316,1,169.999995231629,4|0,3:2|0:0,0:0:0:0:
343,356,78339,1,0,0:0:0:0:
168,360,78524,2,0,P|153:320|150:267,1,84.9999976158143,2|0,0:0|0:0,0:0:0:0:
244,51,78895,6,0,P|258:90|262:144,1,84.9999976158143,2|0,3:2|0:0,0:0:0:0:
116,145,79265,2,0,B|222:170|153:209|293:244,1,169.999995231629,0|0,0:0|3:2,0:0:0:0:
344,189,79821,1,0,0:0:0:0:
149,278,80006,2,0,P|106:283|66:296,1,84.9999976158143,8|0,0:0|0:0,0:0:0:0:
266,345,80376,1,2,0:0:0:0:
266,345,80469,1,2,0:3:0:0:
266,345,80561,1,2,0:3:0:0:
397,277,80747,6,0,P|443:211|424:111,1,169.999995231629,2|0,3:2|0:0,0:0:0:0:
132,16,81487,2,0,P|134:58|143:99,1,84.9999976158143,2|0,0:0|0:0,0:0:0:0:
244,114,81858,1,2,3:2:0:0:
99,184,82043,1,0,0:0:0:0:
144,357,82228,6,0,B|153:293|153:293|184:263|184:263|192:201,1,169.999995231629,2|0,3:2|3:2,0:0:0:0:
421,51,82969,2,0,B|434:90|434:90|427:133,1,84.9999976158143,8|0,0:0|0:0,0:0:0:0:
378,299,83339,1,8,0:0:0:0:
333,105,83524,1,8,0:0:0:0:
469,269,83709,6,0,P|406:213|323:212,1,169.999995231629,4|0,3:2|0:0,0:0:0:0:
323,212,84450,2,0,L|332:122,1,67.9999980926514,2|0,0:0|0:0,0:0:0:0:
90,31,84821,6,0,B|74:147|141:100|122:228,1,203.999988052369,2|0,3:2|3:2,0:0:0:0:
43,291,85932,2,0,B|20:246|20:246|41:167,1,101.999994026184,8|2,0:0|0:0,0:0:0:0:
180,69,86487,1,0,0:0:0:0:
241,142,86672,6,0,L|392:164,1,152.999991039276,2|0,3:2|0:0,0:0:0:0:
476,203,87228,2,0,L|495:104,1,76.4999955196382,0|2,0:0|0:0,0:0:0:0:
408,74,87598,1,0,0:0:0:0:
314,239,87784,6,0,B|356:269|356:269|367:375,2,152.999991039276,2|0|0,3:2|0:0|3:2,0:0:0:0:
59,119,88895,2,0,L|138:102,1,76.4999955196382,8|0,0:0|0:0,0:0:0:0:
61,28,89265,5,8,0:0:0:0:
149,195,89450,1,10,0:0:0:0:
14,348,89635,6,0,P|77:291|167:290,1,169.999995231629,4|0,3:2|0:0,0:0:0:0:
261,364,90376,1,2,0:0:0:0:
460,96,90747,2,0,P|420:111|378:117,1,84.9999976158143,2|0,3:2|0:0,0:0:0:0:
280,99,91117,6,0,B|291:160|291:160|322:192|322:192|336:275,1,169.999995231629,0|0,0:0|3:2,0:0:0:0:
103,364,91858,2,0,B|93:320|93:320|105:281,1,84.9999976158143,8|0,0:0|0:0,0:0:0:0:
162,172,92228,1,2,0:0:0:0:
162,172,92321,1,2,0:3:0:0:
162,172,92413,1,2,0:3:0:0:
66,202,92598,6,0,B|92:236|126:262|126:262|164:263|213:251,1,169.999995231629,2|0,3:2|0:0,0:0:0:0:
296,288,93154,2,0,P|312:248|315:206,1,84.9999976158143,0|2,0:0|0:0,0:0:0:0:
214,341,93524,1,0,0:0:0:0:
341,122,93709,6,0,P|410:137|464:235,2,169.999995231629,2|0|0,3:2|0:0|3:2,0:0:0:0:
49,239,94821,5,8,0:0:0:0:
156,324,95006,1,2,0:0:0:0:
30,365,95191,5,8,0:0:0:0:
171,199,95376,1,8,0:0:0:0:
23,34,95561,6,0,B|84:50|84:50|103:89|103:89|169:111,1,169.999995231629,4|0,3:2|0:0,0:0:0:0:
477,172,96302,2,0,P|396:154|319:224,1,169.999995231629,8|4,0:3|0:3,0:0:0:0:
181,326,96858,1,2,0:3:0:0:
269,361,97043,6,0,B|290:243|219:284|238:166,1,203.999988052369,10|0,0:0|0:0,0:0:0:0:
238,165,98524,6,0,L|87:136,1,152.999991039276,4|0,3:2|0:0,0:0:0:0:
58,227,99080,1,2,0:0:0:0:
189,63,99265,1,8,0:0:0:0:
189,63,99635,6,0,B|182:157|182:157|149:199|149:199|142:307,1,237.999986061097,2|0,3:2|3:2,0:0:0:0:
414,350,100747,2,0,P|415:311|405:274,1,76.4999955196382,8|0,0:0|0:0,0:0:0:0:
335,215,101117,1,2,0:0:0:0:
335,215,101209,1,2,0:3:0:0:
335,215,101302,1,2,0:3:0:0:
373,107,101487,6,0,P|324:164|230:173,1,152.999991039276
188,111,102043,2,0,L|116:84,1,76.4999955196382,2|8,0:0|0:0,0:0:0:0:
161,192,102413,1,0,0:0:0:0:
40,303,102598,6,0,B|130:275|130:275|200:315,1,152.999991039276,2|0,3:2|3:0,0:0:0:0:
181,304,103339,2,0,L|168:218,1,76.4999955196382,0|2,3:0|0:0,0:0:0:0:
239,80,103709,2,0,B|248:119|248:119|241:154,1,76.4999955196382,8|0,0:0|0:0,0:0:0:0:
268,241,104080,1,8,0:3:0:0:
153,139,104265,1,8,0:3:0:0:
341,126,104450,6,0,L|497:111,1,152.999991039276,4|0,3:2|0:0,0:0:0:0:
415,11,105006,1,2,0:0:0:0:
411,212,105191,1,8,0:0:0:0:
411,212,105561,2,0,B|392:169|392:169|404:98,1,118.999993030548,2|4,3:2|0:0,0:0:0:0:
86,45,106302,5,8,0:0:0:0:
194,255,106487,1,8,0:0:0:0:
200,83,106672,5,8,0:3:0:0:
79,212,106858,1,8,0:3:0:0:
139,152,107043,5,4,0:3:0:0:
139,152,107228,1,4,0:3:0:0:
115,352,107413,6,0,B|228:347|263:272|245:224|245:224|207:312|291:359,1,356.999979091645,4|0,0:0|0:0,0:0:0:0:
372,370,108709,1,0,0:0:0:0:
386,354,108802,1,2,0:3:0:0:
393,334,108895,1,2,0:0:0:0:
362,117,109265,5,0,1:0:0:0:
362,117,109358,1,0,1:0:0:0:
362,117,109450,1,0,1:0:0:0:
464,89,109635,5,8,0:3:0:0:
256,134,109821,1,4,0:3:0:0:
460,114,110006,5,4,0:3:0:0:
260,109,110192,1,8,0:0:0:0:
345,37,110376,6,0,P|357:103|361:171,1,135.999996185303,4|0,3:1|0:0,0:0:0:0:
416,264,110932,1,0,0:0:0:0:
416,264,111117,2,0,L|489:277,1,67.9999980926514,10|0,0:0|0:0,0:0:0:0:
361,171,111487,1,0,0:0:0:0:
297,278,111672,1,2,0:0:0:0:
243,197,111858,6,0,B|173:197|184:235|114:237,1,135.999996185303,2|0,3:2|3:2,0:0:0:0:
31,292,112413,2,0,P|56:314|87:327,1,67.9999980926514,0|8,0:0|0:0,0:0:0:0:
255,80,112969,1,2,0:0:0:0:
325,180,113154,1,0,0:0:0:0:
379,7,113339,6,0,P|412:65|409:132,1,135.999996185303,2|0,3:2|0:0,0:0:0:0:
255,80,113895,1,0,0:0:0:0:
102,132,114080,1,10,0:0:0:0:
102,132,114450,2,0,P|98:98|104:65,1,67.9999980926514,0|2,0:0|0:0,0:0:0:0:
127,224,114821,6,0,P|65:264|-23:266,1,135.999996185303,2|0,3:2|3:2,0:0:0:0:
4,271,115561,1,8,0:0:0:0:
125,354,115747,1,0,0:0:0:0:
212,282,115932,1,2,0:3:0:0:
212,282,116024,1,2,0:3:0:0:
212,282,116117,1,2,0:3:0:0:
284,332,116302,6,0,B|365:330|343:368|439:377,1,152.999991039276,2|0,3:2|0:0,0:0:0:0:
500,325,116858,1,0,0:0:0:0:
475,188,117043,2,0,P|403:192|350:266,1,152.999991039276,10|2,0:0|0:0,0:0:0:0:
312,366,117598,1,0,0:0:0:0:
206,376,117784,6,0,P|196:338|195:300,1,76.4999955196382,2|0,0:0|0:0,0:0:0:0:
137,210,118154,1,0,3:2:0:0:
223,114,118339,2,0,P|232:151|233:189,1,76.4999955196382,0|8,0:0|0:0,0:0:0:0:
473,379,118895,1,0,0:0:0:0:
404,297,119080,1,2,0:0:0:0:
450,223,119265,6,0,B|424:248|391:265|391:265|351:265|311:254,2,152.999991039276,2|0|8,3:2|0:0|0:0,0:0:0:0:
277,91,120376,2,0,B|268:163|268:163|226:196|226:196|214:274,1,203.999988052369,4|0,3:2|0:0,0:0:0:0:
23,124,121487,1,8,0:0:0:0:
23,124,121672,1,2,0:0:0:0:
67,22,121858,5,8,0:0:0:0:
121,177,122043,1,8,0:0:0:0:
177,74,122228,6,0,L|311:54,1,135.999996185303,4|0,3:1|0:0,0:0:0:0:
391,36,122784,1,0,0:0:0:0:
391,117,122969,2,0,P|388:155|381:188,1,67.9999980926514,10|0,0:0|0:0,0:0:0:0:
363,302,123339,1,0,0:0:0:0:
435,256,123524,1,2,0:0:0:0:
308,235,123709,6,0,B|231:235|258:196|157:206,1,135.999996185303,2|0,3:2|0:0,0:0:0:0:
98,226,124265,2,0,P|92:192|90:158,1,67.9999980926514,0|8,0:0|0:0,0:0:0:0:
255,30,124821,1,2,0:0:0:0:
304,140,125006,1,0,0:0:0:0:
358,76,125191,6,0,L|492:92,1,135.999996185303,2|0,3:2|0:0,0:0:0:0:
255,30,125747,1,0,0:0:0:0:
154,76,125932,2,0,L|86:85,1,67.9999980926514,10|0,0:0|0:0,0:0:0:0:
0,148,126302,1,0,0:0:0:0:
20,24,126487,1,2,0:0:0:0:
88,178,126672,6,0,B|118:219|118:219|104:303,1,135.999996185303,2|0,3:2|3:2,0:0:0:0:
280,187,127413,2,0,L|270:119,1,67.9999980926514,12|0,0:0|0:0,0:0:0:0:
368,125,127784,1,8,0:0:0:0:
182,173,127969,1,8,0:0:0:0:
370,218,128154,6,0,B|439:218|424:255|497:258,1,135.999996185303,4|0,3:2|0:0,0:0:0:0:
258,283,128895,1,10,0:0:0:0:
258,283,129265,1,2,0:0:0:0:
270,119,129450,1,0,0:0:0:0:
258,283,129635,6,0,L|269:132,1,135.999996185303,0|0,3:2|3:2,0:0:0:0:
171,28,130376,2,0,B|145:70|145:70|164:154,1,135.999996185303,8|0,0:0|1:0,0:0:0:0:
369,300,131117,6,0,L|289:281,1,67.9999980926514,2|0,3:2|0:0,0:0:0:0:
164,154,131487,1,0,0:0:0:0:
225,351,131858,1,10,0:0:0:0:
135,254,132228,2,0,B|207:245|207:245|246:202|246:202|328:192,1,203.999994277954,4|0,3:2|0:0,0:0:0:0:
332,192,132876,1,0,1:0:0:0:
345,190,132969,1,8,0:3:0:0:
302,284,133154,5,8,0:0:0:0:
164,154,133339,1,12,0:0:0:0:
195,270,133709,5,4,0:3:0:0:
269,169,133895,1,4,0:3:0:0:
164,154,134080,6,0,L|145:64,2,84.9999976158143,4|0|2,3:1|0:0|0:0,0:0:0:0:
304,292,135191,2,0,P|308:206|363:120,1,169.999995231629,2|0,3:2|3:2,0:0:0:0:
348,134,136302,2,0,P|394:127|453:110,1,84.9999976158143,8|0,0:0|0:0,0:0:0:0:
401,227,136858,1,2,0:0:0:0:
443,337,137043,6,0,P|401:326|359:320,2,84.9999976158143,0|0|2,3:2|0:0|0:0,0:0:0:0:
304,234,138154,2,0,B|220:254|252:301|161:321,1,169.999995231629,2|0,3:2|3:2,0:0:0:0:
144,141,139265,2,0,P|147:183|160:224,1,84.9999976158143,8|0,0:0|0:0,0:0:0:0:
313,330,139821,1,2,0:0:0:0:
225,374,140006,6,0,L|247:192,1,169.999995231629,4|2,3:2|0:0,0:0:0:0:
332,48,141117,1,0,3:2:0:0:
249,179,141302,1,0,0:0:0:0:
332,48,141487,2,0,B|349:90|349:90|340:136,1,84.9999976158143,2|0,0:0|3:2,0:0:0:0:
330,314,142228,1,10,0:0:0:0:
421,327,142413,2,0,L|494:341,2,48.4499980495835,0|2|0,0:0|0:0|0:0,0:0:0:0:
366,216,142969,6,0,L|475:199,1,84.9999976158143,2|0,3:2|0:0,0:0:0:0:
468,110,143709,1,8,0:3:0:0:
309,63,144080,2,0,P|357:131|365:215,1,169.999995231629,2|2,3:2|3:2,0:0:0:0:
101,378,145191,2,0,P|95:336|105:294,1,84.9999976158143,12|8,0:0|0:3,0:0:0:0:
163,195,145747,1,8,0:3:0:0:
40,246,145932,6,0,B|99:255|99:255|125:275|125:275|186:284,1,152.999991039276,4|0,3:2|0:0,0:0:0:0:
266,257,146487,2,0,L|271:348,1,76.4999955196382,0|8,0:0|0:0,0:0:0:0:
463,304,146858,1,0,0:0:0:0:
400,374,147043,2,0,B|374:336|365:305|365:305|375:263|405:219,2,152.999991039276,2|0|0,3:2|0:0|3:2,0:0:0:0:
417,36,148154,1,8,0:0:0:0:
308,177,148524,1,0,0:0:0:0:
389,210,148709,1,2,0:0:0:0:
436,127,148895,6,0,B|376:118|376:118|350:98|350:98|291:89,1,152.999991039276,4|0,3:2|0:0,0:0:0:0:
210,126,149450,2,0,L|201:49,1,76.4999955196382,0|8,0:0|0:0,0:0:0:0:
24,117,149821,1,0,0:0:0:0:
72,42,150006,2,0,B|109:88|109:88|99:181,2,152.999991039276,2|0|0,3:2|0:0|3:2,0:0:0:0:
31,365,151117,2,0,L|113:347,1,76.4999955196382,12|0,0:0|0:0,0:0:0:0:
222,254,151487,1,0,1:0:0:0:
222,254,151580,1,0,1:0:0:0:
222,254,151672,1,0,1:0:0:0:
81,268,151858,6,0,P|140:323|235:334,1,152.999991039276,2|0,3:2|0:0,0:0:0:0:
446,177,152598,1,8,0:0:0:0:
446,177,152969,2,0,B|367:178|386:221|302:223,1,152.999991039276,2|0,3:2|0:0,0:0:0:0:
139,88,153709,5,0,1:2:0:0:
139,88,153802,1,0,1:2:0:0:
139,88,153895,1,0,1:2:0:0:
48,110,154080,2,0,P|36:68|21:27,1,76.4999955196382,8|8,0:0|0:0,0:0:0:0:
226,130,154450,2,0,P|240:87|265:38,1,76.4999955196382,8|8,0:0|0:0,0:0:0:0:
139,88,154821,6,0,B|149:169|109:146|121:239,1,152.999991039276,4|0,3:2|0:0,0:0:0:0:
121,237,155561,1,0,0:0:0:0:
378,178,155932,5,0,3:2:0:0:
443,259,156117,1,0,1:2:0:0:
443,259,156209,1,0,1:2:0:0:
443,259,156302,1,0,1:2:0:0:
455,110,156487,5,8,0:0:0:0:
372,333,156672,1,8,0:3:0:0:
372,333,157043,5,8,0:0:0:0:
232,204,157228,1,8,0:0:0:0:
150,339,157413,1,4,0:3:0:0:
66,275,157598,1,4,0:3:0:0:
10,361,157784,6,0,B|99:352|71:302|162:294,1,169.999995231629,4|0,3:2|0:0,0:0:0:0:
263,364,158339,1,0,0:0:0:0:
372,333,158524,2,0,P|382:291|385:249,1,84.9999976158143,8|0,0:0|0:0,0:0:0:0:
175,35,158895,2,0,P|164:76|161:118,1,84.9999976158143,0|2,3:2|0:0,0:0:0:0:
160,209,159265,5,0,0:0:0:0:
261,83,159450,1,2,0:0:0:0:
248,324,159635,2,0,B|274:279|280:244|280:244|269:205|243:168,1,169.999995231629,0|8,3:2|0:0,0:0:0:0:
436,70,160376,1,2,0:2:0:0:
436,70,160469,1,0,1:2:0:0:
436,70,160561,1,0,1:2:0:0:
483,223,160747,6,0,P|447:170|340:150,1,169.999995231629,2|0,3:2|0:0,0:0:0:0:
55,78,161487,2,0,P|69:117|77:159,1,84.9999976158143,8|0,0:0|0:0,0:0:0:0:
90,336,161858,2,0,P|97:294|112:254,1,84.9999976158143,0|2,3:2|0:0,0:0:0:0:
21,245,162228,5,0,3:2:0:0:
164,177,162413,1,2,0:0:0:0:
206,260,162598,2,0,L|300:290,1,84.9999976158143,0|0,3:2|0:0,0:0:0:0:
356,38,162969,2,0,B|293:50|293:50|270:78|270:78|201:92,1,169.999995231629,8|0,0:0|0:0,0:0:0:0:
70,79,163524,1,2,0:0:0:0:
148,8,163709,6,0,L|165:180,1,169.999995231629,4|0,3:2|0:0,0:0:0:0:
148,313,164265,1,2,0:0:0:0:
70,264,164450,2,0,B|58:223|58:223|69:182,1,84.9999976158143,8|0,0:0|0:0,0:0:0:0:
201,92,164821,5,0,3:2:0:0:
279,141,165006,2,0,B|291:182|291:182|279:222,1,84.9999976158143,2|0,0:0|0:0,0:0:0:0:
330,306,165376,2,0,L|422:328,1,84.9999976158143,2|0,0:0|3:2,0:0:0:0:
418,68,165932,2,0,P|362:129|279:141,1,169.999995231629,8|2,0:0|0:0,0:0:0:0:
191,82,166487,1,2,0:3:0:0:
60,246,166672,6,0,B|162:221|162:221|211:262,1,169.999995231629,2|0,3:2|0:0,0:0:0:0:
301,242,167228,2,0,P|310:278|309:316,1,76.4999955196382,0|8,0:0|0:0,0:0:0:0:
225,360,167598,1,0,0:0:0:0:
298,153,167784,2,0,P|335:158|370:176,1,76.4999955196382,0|2,3:2|0:0,0:0:0:0:
472,61,168154,6,0,L|389:84,1,76.4999955196382,0|2,0:0|0:0,0:0:0:0:
301,242,168524,1,0,3:2:0:0:
145,76,168895,5,12,0:0:0:0:
61,162,169080,1,0,0:0:0:0:
38,55,169265,5,8,0:0:0:0:
170,195,169450,1,8,0:0:0:0:
51,360,169635,6,0,B|132:344|109:303|188:292,1,152.999991039276,4|0,3:2|0:0,0:0:0:0:
268,329,170191,2,0,P|281:293|286:255,1,76.4999955196382,0|8,0:0|0:0,0:0:0:0:
199,383,170561,1,0,0:0:0:0:
253,172,170747,6,0,L|334:163,1,76.4999955196382,0|2,3:2|0:0,0:0:0:0:
471,339,171117,2,0,L|422:273,1,76.4999955196382,0|2,0:0|0:0,0:0:0:0:
512,72,171487,2,0,L|479:146,1,76.4999955196382,0|0,3:2|0:0,0:0:0:0:
410,198,171858,1,8,0:0:0:0:
46,119,172228,2,0,L|35:76,2,38.2499977598191,2|0|0,0:0|1:0|1:0,0:0:0:0:
172,168,172598,6,0,B|90:169|117:211|27:210,2,152.999991039276,2|0|8,3:2|0:0|0:0,0:0:0:0:
436,69,173709,5,0,3:2:0:0:
313,199,173895,1,2,0:3:0:0:
377,135,174080,5,0,1:0:0:0:
377,135,174265,1,2,0:0:0:0:
298,81,174450,6,0,P|294:62|287:39,2,38.2499977598191,8|0|0,0:3|0:0|0:0,0:0:0:0:
436,246,174821,2,0,P|439:227|448:200,3,46.7500001153946,12|0|0|0,0:0|0:0|0:0|0:0,0:0:0:0:
343,301,175191,5,8,0:3:0:0:
343,301,175376,1,8,0:3:0:0:
476,352,175561,6,0,P|409:278|300:277,1,187.000000461578,4|0,3:2|0:0,0:0:0:0:
232,213,176117,1,0,0:0:0:0:
171,58,176302,2,0,B|157:95|157:95|163:140,1,84.9999976158143,8|0,0:0|0:0,0:0:0:0:
260,111,176672,1,0,3:2:0:0:
137,236,176858,1,2,0:0:0:0:
225,297,177043,6,0,L|234:188,1,84.9999976158143,0|2,0:0|0:0,0:0:0:0:
326,38,177413,2,0,B|366:83|366:83|342:190,1,169.999995231629,0|8,3:2|0:0,0:0:0:0:
18,131,178154,1,2,0:0:0:0:
148,242,178339,1,2,0:3:0:0:
3,222,178524,6,0,B|99:210|63:164|155:155,1,169.999995231629,2|0,3:2|0:0,0:0:0:0:
469,337,179265,2,0,P|427:328|389:310,1,84.9999976158143,8|0,0:0|0:0,0:0:0:0:
329,131,179635,2,0,P|342:171|346:213,1,84.9999976158143,0|2,3:2|0:0,0:0:0:0:
257,193,180006,5,0,3:2:0:0:
436,234,180191,1,2,0:0:0:0:
300,297,180376,2,0,B|203:310|250:350|148:363,1,169.999995231629,0|8,3:2|0:0,0:0:0:0:
216,34,181117,1,8,0:0:0:0:
108,173,181302,1,8,0:0:0:0:
49,95,181487,6,0,B|90:79|130:77|130:77|170:96|197:131,2,169.999995231629,4|0|8,3:2|0:0|0:0,0:0:0:0:
181,230,182413,1,0,0:0:0:0:
274,189,182598,2,0,P|288:159|298:109,2,84.9999976158143,0|2|0,3:2|0:0|0:0,0:0:0:0:
272,281,183154,2,0,P|314:275|359:251,1,84.9999976158143,2|0,0:0|3:2,0:0:0:0:
197,131,183709,5,8,0:0:0:0:
101,98,183895,2,0,L|82:8,2,84.9999976158143,0|0|2,0:0|0:0|0:0,0:0:0:0:
270,75,184450,6,0,B|258:132|258:132|235:155|235:155|223:218,1,152.999991039276,2|0,3:2|0:0,0:0:0:0:
323,289,185006,2,0,P|325:250|319:213,2,76.4999955196382,0|8|0,0:0|0:0|0:0,0:0:0:0:
368,136,185561,6,0,L|443:124,1,76.4999955196382,0|2,3:2|0:0,0:0:0:0:
484,347,185932,1,0,0:0:0:0:
420,246,186117,1,2,0:0:0:0:
323,289,186302,1,4,3:2:0:0:
214,102,186672,5,8,0:0:0:0:
36,138,186858,1,8,0:0:0:0:
223,124,187043,5,0,1:2:0:0:
26,115,187229,1,0,1:2:0:0:
129,35,187413,6,0,L|119:215,1,169.999995231629,4|0,3:2|0:0,0:0:0:0:
344,357,188154,2,0,P|343:315|333:274,1,84.9999976158143,8|0,0:0|0:0,0:0:0:0:
421,251,188524,1,0,3:2:0:0:
254,327,188709,1,2,0:0:0:0:
273,196,188895,6,0,L|384:177,1,84.9999976158143,0|2,0:0|0:0,0:0:0:0:
239,6,189265,2,0,P|184:68|187:151,1,169.999995231629,0|8,3:2|0:0,0:0:0:0:
85,311,190006,1,2,0:0:0:0:
85,311,190098,1,0,1:0:0:0:
85,311,190191,1,0,1:0:0:0:
44,186,190376,6,0,B|105:199|105:199|131:238|131:238|190:249,1,169.999995231629,2|0,3:2|0:0,0:0:0:0:
274,212,190932,2,0,P|285:252|292:294,2,84.9999976158143,0|8|0,0:0|0:0|0:0,0:0:0:0:
380,346,191487,5,0,3:2:0:0:
476,317,191672,2,0,P|482:275|494:234,1,84.9999976158143,2|0,0:0|0:0,0:0:0:0:
400,91,192043,1,2,0:0:0:0:
396,177,192228,2,0,L|379:361,1,169.999995231629,0|8,3:2|0:0,0:0:0:0:
476,317,192784,1,2,0:0:0:0:
296,247,192969,1,8,0:3:0:0:
144,365,193154,1,8,0:3:0:0:
55,235,193339,6,0,B|94:226|137:225|137:225|172:246|195:288,1,169.999995231629,4|0,3:2|0:0,0:0:0:0:
474,56,194080,2,0,B|385:60|418:107|318:114,1,169.999995231629,8|0,0:0|0:0,0:0:0:0:
195,288,194635,1,2,0:0:0:0:
217,72,194821,6,0,B|204:111|204:111|214:153,1,84.9999976158143,0|2,0:0|0:0,0:0:0:0:
295,350,195191,2,0,B|314:302|314:302|290:211,1,127.499996423721,4|0,3:2|0:0,0:0:0:0:
346,131,195561,5,8,0:0:0:0:
401,134,195685,1,8,0:0:0:0:
444,169,195808,1,8,0:0:0:0:
457,223,195932,2,0,P|448:250|443:277,2,56.6666650772095,8|8|2,0:3|0:3|0:3,0:0:0:0:
295,350,196302,1,4,3:1:0:0:
87,6,196672,5,0,0:0:0:0:
56,140,196858,1,0,0:0:0:0:
188,102,197043,1,8,0:0:0:0:
188,102,197413,5,0,3:2:0:0:
99,18,197598,1,2,0:0:0:0:
74,138,197784,2,0,P|78:174|75:226,1,76.4999955196382,0|2,0:0|0:0,0:0:0:0:
219,377,198154,5,0,3:2:0:0:
141,303,198339,1,0,0:0:0:0:
241,267,198524,2,0,P|236:230|240:179,1,76.4999955196382,8|0,0:0|0:0,0:0:0:0:
359,50,198895,5,0,0:0:0:0:
432,115,199080,1,2,0:0:0:0:
338,148,199265,1,2,3:2:0:0:
338,148,199635,5,0,0:0:0:0:
358,66,199821,1,0,0:0:0:0:
418,123,200006,1,8,0:0:0:0:
418,123,200376,5,0,3:2:0:0:
405,206,200561,1,2,0:0:0:0:
393,288,200747,2,0,P|396:318|400:347,1,59.4999965152742,0|2,3:2|0:0,0:0:0:0:
182,353,201117,5,0,3:2:0:0:
192,276,201302,1,0,0:0:0:0:
202,199,201487,2,0,P|198:169|194:140,1,59.4999965152742,8|0,0:0|0:0,0:0:0:0:
287,282,201858,2,0,P|290:311|294:340,1,59.4999965152742,4|2,0:3|0:0,0:0:0:0:
357,205,202228,6,0,P|363:145|385:90,1,118.999993030548,2|0,3:2|0:0,0:0:0:0:
458,136,202784,1,0,0:0:0:0:
360,17,202969,1,8,0:0:0:0:
360,17,203154,1,0,0:0:0:0:
257,40,203339,1,0,3:2:0:0:
225,146,203524,1,2,0:0:0:0:
144,196,203709,5,0,0:0:0:0:
35,144,203895,1,2,0:0:0:0:
85,29,204080,1,0,3:2:0:0:
144,196,204265,2,0,L|152:289,1,76.4999955196382,2|8,0:0|0:0,0:0:0:0:
299,379,204635,1,0,0:0:0:0:
391,311,204821,2,0,P|398:273|399:235,1,76.4999955196382,0|2,0:0|0:0,0:0:0:0:
446,100,205191,6,0,P|371:107|325:165,1,152.999991039276,2|0,3:2|0:0,0:0:0:0:
237,195,205747,2,0,P|229:157|228:119,1,76.4999955196382,2|8,0:0|0:0,0:0:0:0:
387,240,206117,1,2,0:0:0:0:
387,240,206209,1,2,0:0:0:0:
387,240,206302,1,0,3:2:0:0:
166,47,206487,6,0,L|74:38,2,76.4999955196382,2|0|2,0:0|0:0|0:0,0:0:0:0:
261,36,207043,1,0,3:2:0:0:
387,240,207413,5,8,0:0:0:0:
348,326,207598,1,2,0:0:0:0:
458,316,207784,5,8,0:0:0:0:
273,256,207969,1,8,0:0:0:0:
102,333,208154,2,0,P|66:274|72:174,1,152.999991039276,4|0,3:1|0:0,0:0:0:0:
187,68,208709,6,0,P|193:105|192:143,1,76.4999955196382,0|10,0:0|0:0,0:0:0:0:
267,331,209080,2,0,P|265:292|272:255,1,76.4999955196382,0|0,0:0|3:2,0:0:0:0:
361,138,209450,6,0,L|436:123,2,76.4999955196382,2|0|2,0:0|0:0|0:0,0:0:0:0:
272,255,210006,2,0,B|318:266|318:266|336:282|336:282|386:296,1,114.749993279457,0|0,3:2|0:0,0:0:0:0:
439,356,210376,2,0,B|416:310|416:310|445:209,1,152.999991039276,10|0,0:0|0:0,0:0:0:0:
361,138,210932,1,2,0:0:0:0:
233,23,211117,6,0,B|252:45|270:86|270:86|261:124|232:172,1,152.999991039276,2|0,3:2|0:0,0:0:0:0:
119,299,211858,2,0,P|85:282|29:277,1,76.4999955196382,8|0,0:0|0:0,0:0:0:0:
195,240,212228,1,0,3:2:0:0:
297,372,212413,1,2,0:0:0:0:
302,279,212598,5,2,0:3:0:0:
200,340,212784,1,2,0:0:0:0:
378,335,212969,2,0,P|444:334|508:272,1,152.999991039276,8|8,0:3|0:0,0:0:0:0:
376,43,213709,1,0,0:0:0:0:
350,131,213895,1,2,0:0:0:0:
438,105,214080,6,0,B|317:77,1,114.749993279457,4|0,3:2|0:0,0:0:0:0:
257,28,214450,2,0,B|222:60|222:60|238:164,1,152.999991039276,2|8,0:0|0:0,0:0:0:0:
49,384,215191,5,0,3:2:0:0:
117,324,215376,2,0,P|116:285|106:243,1,76.4999955196382,2|0,0:0|0:0,0:0:0:0:
49,384,215747,1,2,0:0:0:0:
162,185,215932,2,0,P|211:184|296:259,1,152.999991039276,0|8,3:2|0:0,0:0:0:0:
419,68,216672,1,0,1:0:0:0:
419,68,216765,1,0,1:0:0:0:
419,68,216858,1,0,1:0:0:0:
419,68,216950,1,0,1:0:0:0:
419,68,217043,6,0,B|404:105|404:105|414:157,1,84.9999976158143,8|0,0:0|0:0,0:0:0:0:
259,351,217413,2,0,L|248:266,1,84.9999976158143,8|0,0:0|0:0,0:0:0:0:
93,68,217784,2,0,B|108:105|108:105|98:157,1,84.9999976158143,8|0,0:0|0:0,0:0:0:0:
58,246,218154,5,8,0:0:0:0:
254,159,218339,1,4,3:2:0:0:
454,246,218524,5,2,0:0:0:0:
381,130,218709,1,0,3:2:0:0:
453,65,218895,2,0,L|458:22,3,42.4999988079071,0|0|0|0,1:0|1:0|1:0|1:0,0:0:0:0:
481,157,219265,5,8,0:3:0:0:
425,152,219388,1,8,0:3:0:0:
376,178,219512,1,8,0:3:0:0:
349,227,219635,5,4,0:3:0:0:
321,262,219759,1,4,0:3:0:0:
278,274,219882,1,4,0:3:0:0:
236,258,220006,6,0,L|224:130,1,127.499996423721,4|0,3:2|0:0,0:0:0:0:
222,103,220376,1,4,0:3:0:0:
354,310,220561,2,0,B|361:269|361:269|348:227,1,84.9999976158143,2|8,0:0|0:0,0:0:0:0:
222,103,220932,1,0,0:0:0:0:
0,249,221117,6,0,L|131:229,1,118.999993030548,4|4,3:1|0:3,0:0:0:0:
117,231,221672,2,0,L|128:294,1,59.4999965152742,2|0,0:0|3:2,0:0:0:0:
256,358,222228,1,8,0:0:0:0:
383,289,222598,2,0,L|393:230,1,59.4999965152742,2|0,0:0|0:0,0:0:0:0:
413,11,222969,6,0,P|365:52|303:65,1,127.499996423721,2|0,3:2|0:0,0:0:0:0:
279,64,223339,1,4,0:3:0:0:
473,171,223524,2,0,P|436:149|395:137,1,84.9999976158143,2|8,0:0|0:0,0:0:0:0:
279,64,223895,1,0,0:0:0:0:
60,154,224080,6,0,P|119:155|174:134,1,118.999993030548,4|4,3:1|0:3,0:0:0:0:
174,134,224635,2,0,L|168:204,1,59.4999965152742,2|4,0:0|0:3,0:0:0:0:
345,255,225006,2,0,L|351:324,1,59.4999965152742,0|8,0:0|0:0,0:0:0:0:
226,347,225376,1,8,0:3:0:0:
280,161,225561,1,8,0:3:0:0:
251,256,225747,1,8,0:3:0:0:
25,247,225932,6,0,P|68:199|173:196,1,169.999995231629,4|4,3:2|0:3,0:0:0:0:
251,256,226487,2,0,B|267:215|267:215|263:174,1,84.9999976158143,2|0,0:0|0:0,0:0:0:0:
160,285,226858,1,0,0:0:0:0:
354,71,227043,6,0,L|368:195,1,118.999993030548,4|4,3:1|0:3,0:0:0:0:
367,189,227598,2,0,L|441:199,1,59.4999965152742,2|0,0:0|3:2,0:0:0:0:
256,75,228154,1,8,0:0:0:0:
144,189,228524,2,0,L|71:199,1,59.4999965152742,2|0,0:0|0:0,0:0:0:0:
53,320,228895,6,0,B|118:308|118:308|141:283|141:283|219:270,1,169.999995231629,2|4,3:2|0:3,0:0:0:0:
272,202,229450,1,2,0:0:0:0:
370,316,229635,1,8,0:0:0:0:
370,316,230006,6,0,B|392:269|392:269|373:198,1,118.999993030548,4|4,3:1|0:3,0:0:0:0:
171,187,230747,2,0,L|178:127,1,59.4999965152742,0|0,3:2|0:0,0:0:0:0:
259,37,231117,5,8,0:0:0:0:
259,37,231302,1,4,0:3:0:0:
355,121,231487,5,8,0:0:0:0:
167,214,231672,1,8,0:0:0:0:
386,331,231858,6,0,B|316:294|316:294|269:306,1,127.499996423721,4|0,3:2|0:0,0:0:0:0:
248,313,232228,1,4,0:3:0:0:
377,140,232413,2,0,P|388:180|385:222,1,84.9999976158143,2|8,0:0|0:0,0:0:0:0:
248,313,232784,1,0,0:0:0:0:
45,204,232969,6,0,L|171:192,1,118.999993030548,4|4,3:1|0:3,0:0:0:0:
163,192,233524,2,0,L|151:121,1,59.4999965152742,2|0,0:0|3:2,0:0:0:0:
257,23,234080,1,8,0:0:0:0:
257,23,234265,1,4,0:3:0:0:
358,133,234450,2,0,L|349:192,1,59.4999965152742,2|0,0:0|0:0,0:0:0:0:
452,342,234821,6,0,P|475:274|466:210,1,127.499996423721,2|0,3:2|0:0,0:0:0:0:
458,200,235191,1,4,0:3:0:0:
268,301,235376,2,0,P|327:299|367:285,1,84.9999976158143,2|8,3:2|0:0,0:0:0:0:
458,200,235747,1,0,0:0:0:0:
198,210,235932,6,0,L|66:187,1,118.999993030548,4|2,3:1|0:3,0:0:0:0:
252,89,236487,1,2,0:0:0:0:
323,148,236672,2,0,L|402:136,1,59.4999965152742,4|0,0:3|0:0,0:0:0:0:
273,368,237043,5,8,0:0:0:0:
384,284,237228,1,8,0:3:0:0:
364,370,237413,1,8,0:3:0:0:
308,230,237598,1,8,0:0:0:0:
237,287,237784,6,0,B|148:275|167:331|74:322,1,169.999995231629,4|8,3:2|0:3,0:0:0:0:
196,195,238339,1,8,0:3:0:0:
118,146,238524,2,0,P|105:194|109:239,1,84.9999976158143,8|0,0:0|0:0,0:0:0:0:
224,378,238895,1,8,0:3:0:0:
224,378,239080,1,8,0:3:0:0:
322,344,239265,6,0,P|335:296|331:251,1,84.9999976158143,4|8,0:0|0:3,0:0:0:0:
303,145,239635,1,4,0:3:0:0:
248,219,239821,1,0,0:0:0:0:
392,185,240006,2,0,L|487:168,1,84.9999976158143,10|0,0:0|0:0,0:0:0:0:
213,314,240376,2,0,L|203:376,2,42.4999988079071,0|0|0,1:0|1:0|1:0,0:0:0:0:
104,71,240747,6,0,B|92:108|92:108|101:153,1,84.9999976158143,12|0,3:2|0:0,0:0:0:0:
410,362,241117,2,0,B|422:325|422:325|412:279,1,84.9999976158143,4|0,0:3|0:0,0:0:0:0:
281,121,241487,2,0,B|269:183|269:183|239:212|239:212|226:281,1,169.999995231629,8|4,0:0|0:3,0:0:0:0:
321,264,242043,1,2,0:0:0:0:
189,131,242228,5,4,3:2:0:0:
422,270,242598,1,8,0:0:0:0:
92,375,242969,1,8,0:0:0:0:
241,218,243339,5,8,0:0:0:0:
241,218,243524,1,8,0:0:0:0:
23,88,243709,5,4,0:3:0:0:
110,73,243895,1,4,0:3:0:0:
113,199,244080,5,8,0:3:0:0:
241,218,244265,1,8,0:3:0:0:
323,146,244450,5,8,0:0:0:0:
171,304,244635,1,10,0:0:0:0:
158,72,244821,5,8,0:0:0:0:
329,375,245006,1,10,0:0:0:0:
407,117,245191,6,0,B|466:87|531:150|508:243|397:294|303:296|303:296|214:196|199:103|242:36|333:-22|478:74|413:190|337:203|316:130,1,856.799949819948,4|0,3:1|0:0,0:0:0:0:
182,92,265931,6,0,L|197:155,1,63.7499982118607,12|0,0:0|0:0,0:0:0:0:
329,291,266302,2,0,L|315:229,1,63.7499982118607,8|0,0:0|0:0,0:0:0:0:
207,55,266672,6,0,L|218:144,1,89.2499947729113,8|0,0:0|0:0,0:0:0:0:
304,328,267042,2,0,L|294:240,1,89.2499947729113,8|0,0:0|0:0,0:0:0:0:
385,118,267413,6,0,B|420:129|420:129|306:148,1,152.999991039276,8|0,0:0|0:0,0:0:0:0:
127,266,267783,2,0,B|92:255|92:255|206:236,1,152.999991039276,8|0,0:0|0:0,0:0:0:0:
469,289,268154,5,8,0:0:0:0:
465,341,268277,1,8,0:0:0:0:
420,313,268400,1,8,0:0:0:0:
442,297,268524,5,8,0:3:0:0:
469,315,268647,1,8,0:3:0:0:
441,329,268770,1,4,0:3:0:0:
451,313,268894,6,0,B|386:303|386:303|365:274|365:274|297:264,1,169.999995231629,4|0,3:2|3:2,0:0:0:0:
163,118,269450,1,0,0:0:0:0:
74,249,269635,2,0,P|161:249|222:187,1,169.999995231629,8|0,0:0|3:2,0:0:0:0:
163,118,270191,1,2,0:0:0:0:
253,25,270376,6,0,P|260:66|261:109,1,84.9999976158143,0|2,0:0|0:0,0:0:0:0:
330,292,270746,2,0,B|319:202|373:224|360:128,1,169.999995231629,0|8,3:2|0:0,0:0:0:0:
433,276,271487,1,2,0:0:0:0:
433,276,271579,1,0,1:0:0:0:
433,276,271672,1,0,1:0:0:0:
173,169,271857,6,0,P|215:164|256:153,1,84.9999976158143,2|0,3:2|0:0,0:0:0:0:
467,363,272228,2,0,P|412:301|329:291,1,169.999995231629,0|8,3:2|0:0,0:0:0:0:
38,344,272968,1,0,3:2:0:0:
153,247,273154,1,2,0:0:0:0:
77,90,273339,6,0,B|37:138|37:138|61:246,1,169.999995231629,0|0,3:2|3:2,0:0:0:0:
142,351,273894,1,2,0:0:0:0:
246,306,274079,2,0,P|254:264|254:221,1,84.9999976158143,8|2,0:0|0:0,0:0:0:0:
409,52,274450,2,0,P|400:93|400:136,1,84.9999976158143,4|2,0:3|0:3,0:0:0:0:
512,302,274820,6,0,B|484:262|451:243|451:243|407:242|363:256,2,169.999995231629,4|0|8,3:2|3:2|0:0,0:0:0:0:
391,347,275746,1,0,0:0:0:0:
297,321,275931,2,0,L|198:341,2,84.9999976158143,0|2|0,3:2|0:0|0:0,0:0:0:0:
275,227,276487,2,0,L|254:145,1,84.9999976158143,2|0,0:0|3:2,0:0:0:0:
55,28,277042,6,0,P|43:68|41:110,1,84.9999976158143,8|0,0:0|0:0,0:0:0:0:
154,267,277413,1,2,0:0:0:0:
154,267,277505,1,0,1:0:0:0:
154,267,277598,1,0,1:0:0:0:
12,241,277783,6,0,P|50:199|144:183,1,152.999991039276,4|0,3:2|3:2,0:0:0:0:
225,144,278339,2,0,L|211:54,2,76.4999955196382,0|8|0,0:0|0:0|0:0,0:0:0:0:
384,226,278894,6,0,P|351:208|314:201,1,76.4999955196382,0|2,3:2|0:0,0:0:0:0:
225,237,279265,1,0,0:0:0:0:
317,109,279450,1,2,0:0:0:0:
319,290,279635,2,0,L|327:338,2,38.2499977598191,0|0|0,3:2|1:0|1:0,0:0:0:0:
128,83,280005,5,8,0:0:0:0:
28,156,280191,1,8,0:0:0:0:
20,37,280376,5,8,0:3:0:0:
144,196,280561,1,4,0:3:0:0:
7,357,280746,6,0,B|104:311|104:311|164:346,1,169.999995231629,4|4,3:1|3:2,0:0:0:0:
416,249,281487,2,0,P|374:242|334:226,1,84.9999976158143,8|0,0:0|0:0,0:0:0:0:
327,143,281857,1,0,3:2:0:0:
247,292,282042,1,2,0:0:0:0:
228,117,282228,6,0,L|236:201,1,84.9999976158143,0|2,0:0|0:0,0:0:0:0:
97,340,282598,2,0,B|130:307|146:269|146:269|140:229|119:188,1,169.999995231629,0|8,3:2|0:0,0:0:0:0:
210,24,283339,1,2,0:0:0:0:
210,24,283431,1,0,1:0:0:0:
210,24,283524,1,0,1:0:0:0:
63,75,283709,6,0,L|244:120,1,169.999995231629,4|0,3:2|0:0,0:0:0:0:
309,153,284265,2,0,P|330:108|333:59,2,84.9999976158143,0|8|0,0:0|0:0|0:0,0:0:0:0:
499,283,284820,5,0,3:2:0:0:
440,219,285005,2,0,P|371:219|302:290,1,169.999995231629,2|2,0:0|0:0,0:0:0:0:
302,287,285561,1,0,3:2:0:0:
167,62,285931,5,8,0:3:0:0:
184,189,286117,1,8,0:3:0:0:
79,330,286302,5,4,0:3:0:0:
94,233,286487,1,4,0:3:0:0:
4,257,286672,6,0,B|128:269|58:314|190:332,1,203.999988052369,4|0,3:2|0:0,0:0:0:0:
499,226,287783,1,2,0:3:0:0:
499,226,287968,1,2,0:3:0:0:
444,149,288154,2,0,B|346:139|388:196|282:184,1,169.999995231629,4|0,3:2|0:0,0:0:0:0:
115,30,289635,6,0,B|139:69|172:108|172:108|161:139|161:139|193:133|193:133|323:294|387:347|387:347|447:366|447:366|331:289|199:129|199:129|211:99|211:99|178:103|178:103|147:61|119:32,1,1006.39999634155,2|0,0:0|0:0,0:0:0:0:
