osu file format v14

[General]
AudioFilename: audio.mp3
AudioLeadIn: 0
PreviewTime: 54742
Countdown: 0
SampleSet: Soft
StackLeniency: 0.4
Mode: 0
LetterboxInBreaks: 0
WidescreenStoryboard: 1

[Editor]
DistanceSpacing: 0.4
BeatDivisor: 8
GridSize: 16
TimelineZoom: 3.099999

[Metadata]
Title:Gomi no Hi
TitleUnicode:ゴミの日
Artist:Fujikawa Chiai
ArtistUnicode:藤川千愛
Creator:a_Blue
Version:Insane
Source:
Tags:laika ライカ japanese rock furuya kan 古谷完 fujinaga ryutaro 藤永龍太郎 ablue
BeatmapID:2729416
BeatmapSetID:1235121

[Difficulty]
HPDrainRate:5
CircleSize:4
OverallDifficulty:8
ApproachRate:8.8
SliderMultiplier:1.7
SliderTickRate:1

[Events]
//Background and Video events
0,0,"bg (5).png",0,0
//Break Periods
2,35768,42197
2,171131,172359
//Storyboard Layer 0 (Background)
//Storyboard Layer 1 (Fail)
//Storyboard Layer 2 (Pass)
//Storyboard Layer 3 (Foreground)
//Storyboard Layer 4 (Overlay)
//Storyboard Sound Samples

[TimingPoints]
730,241.935483870968,4,2,1,40,1,0
730,-200,4,2,1,40,0,0
4600,-111.111111111111,4,2,1,70,0,0
12342,-111.111111111111,4,2,1,60,0,0
20084,-133.333333333333,4,2,1,50,0,0
35568,-133.333333333333,4,2,1,30,0,0
42826,-111.111111111111,4,2,1,50,0,0
43310,-111.111111111111,4,2,1,60,0,0
51052,-133.333333333333,4,2,1,30,0,0
52988,-200,4,2,1,60,0,0
54802,-133.333333333333,4,2,1,70,0,0
55105,-133.333333333333,4,2,1,5,0,0
55165,-100,4,2,1,70,0,0
62544,-133.333333333333,4,2,1,70,0,0
62846,-133.333333333333,4,2,1,5,0,0
62907,-100,4,2,1,70,0,0
70286,-133.333333333333,4,2,1,70,0,0
70588,-133.333333333333,4,2,1,5,0,0
70649,-100,4,2,1,70,0,0
78028,-133.333333333333,4,2,1,70,0,0
78330,-133.333333333333,4,2,1,5,0,0
78391,-100,4,2,1,70,0,0
85891,-111.111111111111,4,2,1,60,0,0
93633,-133.333333333333,4,2,1,50,0,0
100891,-200,4,2,1,30,0,0
101375,-133.333333333333,4,2,1,50,0,0
109117,-117.647058823529,4,2,1,60,0,0
120246,-166.666666666667,4,2,1,60,0,0
120488,-166.666666666667,4,2,1,5,0,0
120609,-133.333333333333,4,2,1,60,0,0
120911,-133.333333333333,4,2,1,5,0,0
120971,-100,4,2,1,70,0,0
128350,-133.333333333333,4,2,1,70,0,0
128653,-133.333333333333,4,2,1,5,0,0
128713,-100,4,2,1,70,0,0
136092,-133.333333333333,4,2,1,70,0,0
136395,-133.333333333333,4,2,1,5,0,0
136455,-100,4,2,1,70,0,0
143834,-133.333333333333,4,2,1,70,0,0
144137,-133.333333333333,4,2,1,5,0,0
144197,-100,4,2,1,70,0,0
151455,-133.333333333333,4,2,1,70,0,0
151697,-100,4,2,1,70,0,0
167181,-200,4,2,1,45,0,0
170931,-200,4,2,1,50,0,0
178673,-200,4,2,1,60,0,0
184600,-133.333333333333,4,2,1,70,0,0
186415,-133.333333333333,4,2,1,80,0,0
186717,-133.333333333333,4,2,1,5,0,0
186778,-100,4,2,1,80,0,0
194157,-133.333333333333,4,2,1,80,0,0
194459,-133.333333333333,4,2,1,5,0,0
194520,-100,4,2,1,80,0,0
202020,-111.111111111111,4,2,1,70,0,0
209762,-111.111111111111,4,2,1,60,0,0
217504,-111.111111111111,4,2,1,30,0,0

[Colours]
Combo1 : 255,136,136
Combo2 : 128,128,255
Combo3 : 254,152,90
Combo4 : 150,150,150

[HitObjects]
98,142,730,6,0,L|161:135,1,63.75,0|0,0:0|0:0,0:0:0:0:
183,98,971,2,0,L|226:94,1,42.5,0|0,0:0|0:0,0:0:0:0:
229,170,1455,6,0,L|292:163,1,63.75,0|0,0:0|0:0,0:0:0:0:
314,126,1697,2,0,L|357:122,1,42.5
361,198,2181,6,0,L|355:250,1,42.5,0|0,0:0|0:0,0:0:0:0:
401,307,2423,1,0,0:0:0:0:
401,307,2544,1,0,0:0:0:0:
343,358,2665,6,0,L|300:353,3,42.5,2|2|2|2,0:0|0:0|0:0|0:0,0:0:0:0:
287,276,3391,2,0,L|244:271,3,42.5,2|2|2|2,0:0|0:0|0:0|0:0,0:0:0:0:
287,276,4117,5,8,0:0:0:0:
227,226,4600,6,0,P|166:271|121:332,1,152.999995330811,12|0,3:2|3:0,0:0:0:0:
57,111,4963,2,0,P|126:141|202:149,1,152.999995330811,12|0,3:2|3:0,0:0:0:0:
43,316,5326,2,0,P|34:240|4:170,1,152.999995330811,12|0,3:2|3:0,0:0:0:0:
110,218,5689,5,12,3:2:0:0:
110,218,6052,2,0,P|137:191|171:170,1,76.4999976654053,12|0,3:2|0:0,0:0:0:0:
271,302,6294,2,0,P|243:328|209:349,1,76.4999976654053,12|0,3:2|0:0,0:0:0:0:
272,221,6536,6,0,P|344:231|376:297,1,152.999995330811,12|0,3:2|3:0,0:0:0:0:
426,80,6899,2,0,P|380:137|307:132,1,152.999995330811,12|0,3:2|3:0,0:0:0:0:
471,284,7262,2,0,P|443:215|485:155,1,152.999995330811,12|0,3:2|3:0,0:0:0:0:
505,80,7625,5,12,3:2:0:0:
505,80,7988,2,0,P|496:44|470:17,1,76.4999976654053,12|0,3:2|3:0,0:0:0:0:
347,81,8230,2,0,P|355:117|381:144,1,76.4999976654053,12|0,3:2|3:0,0:0:0:0:
363,222,8471,6,0,B|302:269|302:269|227:256,1,152.999995330811,12|0,3:2|3:0,0:0:0:0:
183,84,8834,2,0,B|254:112|254:112|280:184,1,152.999995330811,12|0,3:2|3:0,0:0:0:0:
154,309,9197,2,0,B|143:232|143:232|191:174,1,152.999995330811,12|0,3:2|3:0,0:0:0:0:
121,134,9560,5,12,3:2:0:0:
121,134,9923,2,0,P|83:136|46:148,1,76.4999976654053,12|0,3:2|0:0,0:0:0:0:
183,84,10165,2,0,P|220:82|258:70,1,76.4999976654053,12|0,3:2|0:0,0:0:0:0:
303,7,10407,6,0,P|374:24|396:96,1,152.999995330811,12|0,3:2|3:0,0:0:0:0:
474,93,10770,2,0,P|403:111|381:181,1,152.999995330811,12|0,3:2|3:0,0:0:0:0:
303,180,11133,2,0,P|374:198|396:268,1,152.999995330811,12|0,3:2|3:0,0:0:0:0:
474,267,11496,2,0,P|403:285|381:355,1,152.999995330811,12|0,3:2|3:0,0:0:0:0:
308,379,11859,5,4,0:0:0:0:
259,321,11980,1,8,0:0:0:0:
256,312,12100,1,8,0:0:0:0:
250,319,12221,1,8,0:0:0:0:
178,350,12342,6,0,P|102:348|26:354,1,152.999995330811,4|2,3:2|3:2,0:0:0:0:
1,282,12705,1,0,3:0:0:0:
70,246,12826,2,0,P|86:280|111:313,2,76.4999976654053,10|0|2,0:0|3:0|3:2,0:0:0:0:
4,206,13189,2,0,P|20:172|45:139,1,76.4999976654053,8|2,0:0|3:2,0:0:0:0:
56,66,13431,6,0,P|132:68|208:62,1,152.999995330811,8|2,0:0|3:2,0:0:0:0:
260,119,13794,2,0,P|294:104|322:73,1,76.4999976654053,10|0,0:0|0:0,0:0:0:0:
272,20,14036,1,2,3:2:0:0:
272,20,14157,1,8,0:0:0:0:
347,4,14278,6,0,P|416:26|433:97,1,152.999995330811,6|2,3:2|3:2,0:0:0:0:
370,141,14641,1,0,0:0:0:0:
441,173,14762,2,0,P|430:209|424:249,2,76.4999976654053,10|0|2,0:0|3:0|3:2,0:0:0:0:
349,283,15125,2,0,P|344:245|334:209,1,76.4999976654053,8|2,0:0|3:2,0:0:0:0:
416,325,15367,6,0,P|366:371|287:358,1,152.999995330811,8|2,0:0|3:2,0:0:0:0:
269,283,15730,2,0,P|231:288|194:298,1,76.4999976654053,10|0,0:0|0:0,0:0:0:0:
119,295,15971,1,8,3:2:0:0:
190,219,16092,1,8,0:0:0:0:
112,218,16213,6,0,P|114:141|111:65,1,152.999995330811,6|2,3:2|3:2,0:0:0:0:
177,23,16576,1,0,0:0:0:0:
260,81,16697,2,0,P|237:98|186:96,1,76.4999976654053,10|0,0:0|3:0,0:0:0:0:
35,68,16939,2,0,P|66:47|104:50,1,76.4999976654053,2|8,3:2|3:2,0:0:0:0:
252,5,17181,5,2,3:2:0:0:
323,35,17302,2,0,P|320:111|323:187,1,152.999995330811,8|0,0:0|0:0,0:0:0:0:
384,241,17665,2,0,B|396:277|396:277|381:312,1,76.4999976654053,10|2,0:0|0:0,0:0:0:0:
243,273,17907,2,0,B|231:237|231:237|245:201,1,76.4999976654053,2|8,3:2|0:0,0:0:0:0:
303,325,18149,6,0,P|227:322|151:325,1,152.999995330811,4|2,3:2|3:2,0:0:0:0:
152,247,18512,1,0,3:0:0:0:
82,284,18633,2,0,P|12:268|0:197,1,152.999995330811,10|2,0:0|3:2,0:0:0:0:
50,136,18996,2,0,P|53:97|50:59,1,76.4999976654053,8|2,3:2|3:2,0:0:0:0:
135,94,19238,2,0,P|131:132|134:170,1,76.4999976654053,8|2,0:0|3:2,0:0:0:0:
210,192,19480,5,8,3:2:0:0:
238,190,19540,1,0,0:0:0:0:
255,169,19600,1,8,3:2:0:0:
320,124,19721,1,8,3:2:0:0:
400,117,19842,1,0,3:0:0:0:
444,184,19963,1,0,3:0:0:0:
500,241,20084,6,0,P|497:177|497:113,1,127.500004863739,4|0,3:2|3:0,0:0:0:0:
445,53,20568,2,0,P|469:74|477:105,1,63.7500024318696,8|0,0:0|0:0,0:0:0:0:
400,117,20810,1,0,3:0:0:0:
366,45,20931,2,0,P|298:74|228:85,1,127.500004863739,8|8,0:0|0:0,0:0:0:0:
209,191,21294,2,0,P|277:162|347:151,1,127.500004863739,0|8,3:0|0:0,0:0:0:0:
156,133,21778,6,0,P|132:154|129:185,1,63.7500024318696,0|0,3:0|0:0,0:0:0:0:
69,234,22020,2,0,P|98:302|109:372,1,127.500004863739,0|0,3:0|3:0,0:0:0:0:
182,375,22383,1,0,0:0:0:0:
215,305,22504,2,0,P|242:289|273:280,1,63.7500024318696,8|0,0:0|0:0,0:0:0:0:
334,232,22746,1,0,3:0:0:0:
406,328,22867,6,0,P|374:321|345:309,1,63.7500024318696,8|0,0:0|3:0,0:0:0:0:
386,172,23109,2,0,P|417:178|446:191,1,63.7500024318696,8|0,0:0|3:0,0:0:0:0:
334,232,23471,6,0,P|331:168|333:104,1,127.500004863739,8|0,0:0|3:0,0:0:0:0:
293,47,23834,1,0,3:0:0:0:
293,47,23895,1,0,3:0:0:0:
292,46,23955,2,0,P|225:56|201:119,1,127.500004863739,4|0,3:2|3:0,0:0:0:0:
128,130,24439,6,0,P|130:193|128:257,1,127.500004863739,8|0,0:0|3:0,0:0:0:0:
250,274,24802,2,0,P|234:247|205:235,1,63.7500024318696,8|0,0:0|3:0,0:0:0:0:
183,311,25044,1,8,0:0:0:0:
250,352,25165,2,0,L|383:333,1,127.500004863739,0|0,3:0|0:0,0:0:0:0:
390,259,25649,6,0,P|403:230|431:218,1,63.7500024318696,0|0,3:0|0:0,0:0:0:0:
477,281,25891,2,0,P|474:217|476:153,1,127.500004863739,0|0,3:0|3:0,0:0:0:0:
399,147,26254,1,0,0:0:0:0:
442,82,26375,2,0,P|418:103|391:120,1,63.7500024318696,8|0,0:0|0:0,0:0:0:0:
323,158,26617,1,0,3:0:0:0:
274,43,26738,2,0,P|301:59|324:81,1,63.7500024318696,8|0,0:0|0:0,0:0:0:0:
323,158,26980,1,8,0:0:0:0:
248,181,27100,2,0,P|251:244|248:308,1,127.500004863739,0|8,3:0|0:0,0:0:0:0:
54,307,27584,5,8,0:0:0:0:
54,307,27705,1,8,0:0:0:0:
174,332,27826,2,0,P|145:346|114:357,1,63.7500024318696,4|0,3:2|0:0,0:0:0:0:
62,226,28068,2,0,P|90:211|122:201,1,63.7500024318696,0|0,3:0|0:0,0:0:0:0:
165,137,28310,6,0,P|148:77|90:57,1,127.500004863739,8|0,0:0|0:0,0:0:0:0:
106,35,28673,2,0,P|138:40|170:42,1,63.7500024318696,8|0,0:0|3:0,0:0:0:0:
239,80,28915,2,0,P|270:82|302:86,1,63.7500024318696,8|0,0:0|3:0,0:0:0:0:
370,45,29157,1,0,3:0:0:0:
442,81,29278,6,0,B|407:134|377:109|343:161,1,127.500004863739,8|0,0:0|3:0,0:0:0:0:
421,205,29641,1,0,3:0:0:0:
421,205,29701,1,0,3:0:0:0:
421,205,29762,2,0,P|419:265|421:340,2,127.500004863739,0|0|8,3:0|3:0|0:0,0:0:0:0:
342,236,30488,5,0,3:0:0:0:
267,220,30609,2,0,P|268:188|267:156,1,63.7500024318696,0|0,0:0|3:0,0:0:0:0:
290,293,30850,2,0,P|288:324|289:356,1,63.7500024318696,8|0,0:0|3:0,0:0:0:0:
215,275,31092,1,0,0:0:0:0:
215,275,31213,2,0,P|154:264|132:207,1,127.500004863739,8|0,0:0|0:0,0:0:0:0:
190,156,31576,1,0,0:0:0:0:
117,69,31697,6,0,P|118:100|116:132,1,63.7500024318696,0|0,3:0|0:0,0:0:0:0:
196,79,31939,2,0,P|195:48|197:16,1,63.7500024318696,0|0,3:0|0:0,0:0:0:0:
273,3,32181,1,8,0:0:0:0:
334,87,32423,5,0,3:0:0:0:
329,99,32544,1,8,0:0:0:0:
343,95,32665,1,0,3:0:0:0:
345,82,32785,1,8,0:0:0:0:
423,69,32907,2,0,P|418:132|420:196,1,127.500004863739,0|8,3:0|0:0,0:0:0:0:
344,213,33391,5,0,3:0:0:0:
292,271,33511,1,0,3:0:0:0:
292,271,33572,1,0,3:0:0:0:
292,271,33633,2,0,P|355:268|419:273,2,127.500004863739,0|0|8,3:0|3:0|0:0,0:0:0:0:
242,330,34359,5,0,3:0:0:0:
215,257,34480,2,0,P|218:224|216:193,1,63.7500024318696,8|0,0:0|0:0,0:0:0:0:
138,244,34721,1,8,0:0:0:0:
165,317,34842,2,0,P|162:350|164:381,1,63.7500024318696,0|0,3:0|0:0,0:0:0:0:
88,304,35084,5,0,3:0:0:0:
88,304,35205,1,0,3:0:0:0:
143,167,35326,2,0,P|146:134|144:103,1,63.7500024318696,0|0,3:0|0:0,0:0:0:0:
223,118,35568,5,4,3:2:0:0:
223,118,42826,5,8,0:0:0:0:
223,118,43310,6,0,P|294:133|319:202,1,152.999995330811,4|0,0:0|3:0,0:0:0:0:
340,276,43673,1,0,0:0:0:0:
262,255,43794,2,0,P|264:294|262:332,1,76.4999976654053,8|0,0:0|0:0,0:0:0:0:
193,366,44036,1,0,3:0:0:0:
119,316,44157,2,0,P|152:298|185:278,2,76.4999976654053,8|0|8,0:0|3:0|0:0,0:0:0:0:
43,335,44520,6,0,P|40:258|44:182,1,152.999995330811,0|8,0:0|0:0,0:0:0:0:
7,115,44883,1,0,0:0:0:0:
85,115,45004,2,0,P|118:97|151:77,1,76.4999976654053,0|0,3:0|0:0,0:0:0:0:
192,9,45246,6,0,P|263:19|284:89,1,152.999995330811,0|0,3:0|3:0,0:0:0:0:
213,125,45609,1,0,0:0:0:0:
278,168,45730,2,0,P|316:166|354:168,1,76.4999976654053,8|0,0:0|0:0,0:0:0:0:
363,92,45971,1,0,3:0:0:0:
427,137,46092,2,0,P|410:102|399:66,2,76.4999976654053,8|0|8,0:0|3:0|0:0,0:0:0:0:
418,214,46455,6,0,P|414:290|416:366,1,152.999995330811,0|8,3:0|0:0,0:0:0:0:
342,384,46818,1,0,0:0:0:0:
309,237,46939,2,0,P|325:271|336:307,1,76.4999976654053,0|0,3:0|0:0,0:0:0:0:
270,350,47181,6,0,P|198:340|171:272,1,152.999995330811,4|0,3:2|3:0,0:0:0:0:
231,221,47544,1,0,0:0:0:0:
157,194,47665,2,0,P|159:156|156:118,1,76.4999976654053,8|0,0:0|0:0,0:0:0:0:
210,62,47907,1,0,3:0:0:0:
284,86,48028,2,0,P|281:124|284:162,2,76.4999976654053,8|0|8,0:0|3:0|0:0,0:0:0:0:
134,42,48391,6,0,P|62:56|44:126,1,152.999995330811,0|8,3:0|0:0,0:0:0:0:
78,197,48754,1,0,0:0:0:0:
72,275,48875,2,0,P|103:297|124:328,1,76.4999976654053,0|8,3:0|0:0,0:0:0:0:
169,253,49117,5,0,3:0:0:0:
202,324,49238,2,0,P|273:309|291:239,1,152.999995330811,0|0,0:0|0:0,0:0:0:0:
224,198,49600,2,0,P|228:159|226:121,1,76.4999976654053,8|0,0:0|0:0,0:0:0:0:
302,109,49842,1,0,3:0:0:0:
252,49,49963,2,0,P|287:65|326:75,2,76.4999976654053,8|0|8,0:0|3:0|0:0,0:0:0:0:
378,19,50326,6,0,P|449:33|467:103,1,152.999995330811,0|8,3:0|0:0,0:0:0:0:
394,131,50689,1,8,0:0:0:0:
377,131,50810,1,8,0:0:0:0:
386,141,50931,1,8,0:0:0:0:
453,179,51052,6,0,P|442:242|437:306,1,127.500004863739,0|0,3:0|3:0,0:0:0:0:
349,343,51536,2,0,P|359:280|364:216,1,127.500004863739,8|0,0:0|3:0,0:0:0:0:
285,217,51899,2,0,P|254:209|224:197,1,63.7500024318696,8|0,0:0|3:0,0:0:0:0:
147,209,52141,2,0,P|141:240|138:272,2,63.7500024318696,8|0|0,0:0|3:0|3:0,0:0:0:0:
88,333,52504,1,8,0:0:0:0:
75,361,52625,1,8,0:0:0:0:
48,365,52746,1,8,0:0:0:0:
59,338,52867,1,8,0:0:0:0:
5,282,52988,6,0,P|16:219|21:155,2,127.5,0|0|0,1:0|1:0|1:0,0:0:0:0:
91,127,54197,5,0,3:0:0:0:
99,101,54278,1,0,3:0:0:0:
82,80,54359,1,0,3:0:0:0:
91,55,54439,1,0,3:0:0:0:
168,64,54802,6,0,B|250:42|245:97|328:75,1,159.375006079674,4|0,1:2|0:0,0:0:0:0:
344,73,55165,6,0,P|339:157|343:242,1,170,8|0,0:0|1:0,0:0:0:0:
293,303,55528,1,0,3:0:0:0:
335,381,55649,2,0,P|367:355|371:314,1,85,8|0,0:0|0:0,0:0:0:0:
263,228,55891,6,0,P|182:232|144:303,1,170,0|8,1:0|0:0,0:0:0:0:
197,361,56254,1,0,0:0:0:0:
64,321,56375,2,0,P|66:278|63:236,1,85,0|0,1:0|3:0,0:0:0:0:
120,182,56617,1,8,0:0:0:0:
70,71,56738,6,0,P|151:74|189:145,1,170,4|0,3:2|0:0,0:0:0:0:
268,145,57100,2,0,P|306:131|318:92,1,85,8|0,0:0|0:0,0:0:0:0:
388,55,57342,1,0,3:0:0:0:
464,37,57463,1,0,3:0:0:0:
397,78,57584,2,0,P|395:164|398:248,1,170,8|0,0:0|3:0,0:0:0:0:
381,256,57947,1,0,0:0:0:0:
355,329,58068,6,0,B|272:298|275:358|189:331,1,170,8|0,0:0|3:0,0:0:0:0:
133,285,58431,1,0,3:0:0:0:
174,352,58552,1,8,0:0:0:0:
96,353,58673,1,0,0:0:0:0:
55,287,58794,6,0,P|77:205|88:120,1,170,4|8,1:2|0:0,0:0:0:0:
162,89,59157,2,0,P|208:156|289:153,1,170,0|0,0:0|3:0,0:0:0:0:
295,15,59520,2,0,P|254:23|235:60,1,85,8|0,0:0|0:0,0:0:0:0:
332,85,59762,6,0,P|309:166|299:251,1,170,0|8,1:0|0:0,0:0:0:0:
222,227,60125,1,0,0:0:0:0:
241,304,60246,2,0,P|264:339|277:379,1,85,0|0,3:0|3:0,0:0:0:0:
165,281,60488,2,0,P|178:240|201:205,1,85,8|0,0:0|0:0,0:0:0:0:
164,137,60730,6,0,P|83:140|54:215,1,170,0|8,1:0|0:0,0:0:0:0:
11,280,61092,1,0,0:0:0:0:
19,202,61213,2,0,P|13:159|1:119,1,85,0|0,3:0|3:0,0:0:0:0:
164,137,61455,2,0,P|169:94|181:54,1,85,8|0,0:0|0:0,0:0:0:0:
128,0,61697,5,8,0:0:0:0:
192,41,61818,1,0,3:0:0:0:
116,13,61939,1,8,0:0:0:0:
180,54,62060,1,0,3:0:0:0:
266,22,62181,5,8,0:0:0:0:
289,45,62262,1,8,0:0:0:0:
291,77,62342,1,8,0:0:0:0:
314,98,62423,1,8,0:0:0:0:
378,142,62544,6,0,B|343:224|395:214|362:297,1,159.375006079674,4|0,1:2|0:0,0:0:0:0:
377,315,62907,6,0,P|293:329|214:360,1,170,8|0,0:0|1:0,0:0:0:0:
170,294,63270,1,0,3:0:0:0:
207,196,63391,2,0,P|240:221|243:262,1,85,8|0,0:0|0:0,0:0:0:0:
136,365,63633,6,0,P|59:344|44:264,1,170,0|8,1:0|0:0,0:0:0:0:
117,235,63996,1,0,0:0:0:0:
55,187,64117,2,0,P|60:145|55:103,1,85,0|0,1:0|3:0,0:0:0:0:
69,28,64359,1,8,0:0:0:0:
129,77,64480,6,0,P|206:96|219:175,1,170,4|0,3:2|0:0,0:0:0:0:
282,221,64842,2,0,P|323:226|350:194,1,85,8|0,0:0|0:0,0:0:0:0:
421,164,65084,1,0,3:0:0:0:
394,92,65205,1,0,3:0:0:0:
439,155,65326,2,0,P|436:239|438:324,1,170,8|0,0:0|3:0,0:0:0:0:
359,329,65689,1,0,0:0:0:0:
252,381,65810,6,0,P|253:338|252:296,1,85,8|0,0:0|0:0,0:0:0:0:
207,233,66052,1,0,3:0:0:0:
203,216,66173,1,0,3:0:0:0:
191,227,66294,1,8,3:0:0:0:
195,243,66415,1,8,3:0:0:0:
118,255,66536,6,0,P|41:233|28:154,1,170,4|8,1:2|0:0,0:0:0:0:
80,95,66899,1,0,0:0:0:0:
16,140,67020,1,0,3:0:0:0:
9,63,67141,1,0,3:0:0:0:
72,18,67262,6,0,P|156:24|241:19,1,170,8|0,0:0|3:0,0:0:0:0:
228,98,67625,1,0,0:0:0:0:
306,89,67746,2,0,P|298:48|263:28,1,85,8|0,0:0|0:0,0:0:0:0:
354,151,67988,2,0,P|392:164|428:144,1,85,0|0,3:0|3:0,0:0:0:0:
276,162,68230,2,0,P|244:188|244:229,1,85,8|0,0:0|0:0,0:0:0:0:
310,274,68471,6,0,P|226:268|141:273,1,170,0|8,1:0|0:0,0:0:0:0:
120,199,68834,1,0,0:0:0:0:
66,253,68955,2,0,P|0:205|14:125,1,170,0|8,1:0|0:0,0:0:0:0:
51,59,69318,1,8,0:0:0:0:
127,48,69439,1,8,0:0:0:0:
49,43,69560,1,0,3:0:0:0:
125,32,69681,1,0,3:0:0:0:
197,7,69802,5,0,3:0:0:0:
273,18,69923,1,8,0:0:0:0:
263,48,70004,1,8,0:0:0:0:
277,76,70084,1,8,0:0:0:0:
267,106,70165,1,8,0:0:0:0:
344,116,70286,6,0,P|269:128|252:201,1,159.375006079674,4|0,1:2|0:0,0:0:0:0:
234,212,70649,6,0,P|238:296|234:381,1,170,8|0,0:0|1:0,0:0:0:0:
313,384,71012,1,0,3:0:0:0:
367,326,71133,2,0,P|355:287|316:275,1,85,8|0,0:0|0:0,0:0:0:0:
422,384,71375,6,0,P|417:299|421:214,1,170,0|8,1:0|0:0,0:0:0:0:
488,172,71738,1,0,0:0:0:0:
418,136,71859,2,0,P|378:124|365:85,1,85,0|0,1:0|3:0,0:0:0:0:
393,14,72100,1,8,0:0:0:0:
315,25,72221,6,0,P|262:24|224:129,1,170,4|0,3:2|3:0,0:0:0:0:
155,162,72584,2,0,P|165:203|170:245,1,85,8|0,0:0|0:0,0:0:0:0:
242,272,72826,1,0,3:0:0:0:
306,315,72947,1,0,3:0:0:0:
232,291,73068,2,0,P|222:332|217:374,1,85,8|0,0:0|0:0,0:0:0:0:
139,384,73310,6,0,P|60:366|45:288,1,170,0|8,3:0|0:0,0:0:0:0:
88,222,73673,1,0,0:0:0:0:
9,218,73794,2,0,P|12:175|10:133,1,85,0|0,3:0|3:0,0:0:0:0:
50,68,74036,1,8,0:0:0:0:
74,56,74117,1,8,0:0:0:0:
99,64,74197,1,8,0:0:0:0:
124,52,74278,6,0,P|208:57|293:53,1,170,4|8,1:2|0:0,0:0:0:0:
318,127,74641,2,0,P|265:187|293:262,1,170,0|0,3:0|3:0,0:0:0:0:
418,243,75004,2,0,P|406:196|369:181,1,85,8|0,0:0|0:0,0:0:0:0:
363,301,75246,6,0,P|280:312|204:350,1,170,0|8,3:0|0:0,0:0:0:0:
143,302,75609,1,0,0:0:0:0:
131,380,75730,2,0,P|119:341|99:301,1,85,0|0,3:0|3:0,0:0:0:0:
175,179,75971,2,0,P|187:218|206:257,1,85,8|0,0:0|3:0,0:0:0:0:
96,192,76213,6,0,P|88:113|157:72,1,170,0|8,3:0|0:0,0:0:0:0:
216,20,76576,1,0,0:0:0:0:
231,96,76697,2,0,P|273:99|315:95,1,85,0|0,3:0|3:0,0:0:0:0:
379,20,76939,2,0,P|336:16|294:20,1,85,8|0,0:0|3:0,0:0:0:0:
397,101,77181,5,8,0:0:0:0:
397,101,77423,2,0,P|393:143|397:185,1,85,8|0,0:0|0:0,0:0:0:0:
398,262,77665,1,0,3:0:0:0:
409,265,77786,1,0,3:0:0:0:
400,274,77907,1,8,0:0:0:0:
323,277,78028,6,0,B|245:294|270:345|189:365,1,159.375006079674,4|0,1:2|0:0,0:0:0:0:
183,349,78391,6,0,P|104:334|87:255,1,170,8|0,0:0|1:0,0:0:0:0:
115,184,78754,1,0,3:0:0:0:
192,194,78875,2,0,P|215:235|201:275,1,85,8|0,0:0|0:0,0:0:0:0:
38,195,79117,6,0,P|94:131|139:58,1,170,0|8,1:0|0:0,0:0:0:0:
207,93,79480,1,0,0:0:0:0:
279,13,79600,2,0,P|240:0|202:15,1,85,0|0,1:0|3:0,0:0:0:0:
207,93,79842,1,8,0:0:0:0:
259,153,79963,6,0,B|345:174|309:228|392:250,1,170,4|0,3:2|0:0,0:0:0:0:
460,123,80326,2,0,P|418:127|391:169,1,85,8|0,0:0|0:0,0:0:0:0:
403,236,80568,1,0,3:0:0:0:
458,292,80689,1,0,3:0:0:0:
391,250,80810,2,0,P|324:301|250:344,1,170,8|0,0:0|3:0,0:0:0:0:
192,293,81173,1,0,0:0:0:0:
175,369,81294,6,0,P|96:357|71:280,1,170,8|0,0:0|1:0,0:0:0:0:
133,231,81657,1,0,3:0:0:0:
60,203,81778,1,8,0:0:0:0:
72,177,81859,1,8,0:0:0:0:
62,150,81939,1,8,0:0:0:0:
72,123,82020,6,0,P|105:96|125:59,1,85,4|0,1:2|0:0,0:0:0:0:
197,90,82262,1,8,0:0:0:0:
245,28,82383,2,0,B|316:6|293:103|376:121,1,170,0|0,0:0|3:0,0:0:0:0:
428,176,82746,2,0,P|422:220|425:264,1,85,8|0,0:0|0:0,0:0:0:0:
249,344,82988,6,0,P|255:300|252:256,1,85,2|0,1:2|0:0,0:0:0:0:
211,193,83230,1,8,0:0:0:0:
291,192,83350,2,0,P|310:116|394:108,1,170,2|0,1:2|3:0,0:0:0:0:
469,109,83713,2,0,P|466:66|472:24,1,85,10|0,0:0|0:0,0:0:0:0:
393,25,83955,6,0,B|321:3|344:100|261:118,1,170,4|8,1:2|0:0,0:0:0:0:
248,39,84318,1,0,0:0:0:0:
190,93,84439,2,0,P|147:89|105:91,1,85,2|0,1:2|0:0,0:0:0:0:
60,155,84681,2,0,P|82:191|100:229,1,85,8|0,0:0|0:0,0:0:0:0:
174,259,84923,5,2,1:2:0:0:
252,257,85044,1,0,3:0:0:0:
175,275,85165,1,8,0:0:0:0:
253,273,85286,1,8,0:0:0:0:
306,330,85407,5,8,0:0:0:0:
329,307,85488,1,8,0:0:0:0:
331,275,85568,1,8,0:0:0:0:
354,254,85649,1,8,0:0:0:0:
301,196,85770,1,8,0:0:0:0:
377,179,85891,6,0,P|374:103|378:27,1,152.999995330811,4|2,3:2|3:2,0:0:0:0:
303,6,86254,1,0,3:0:0:0:
247,60,86375,2,0,P|268:91|297:116,2,76.4999976654053,8|2|0,0:0|3:2|3:0,0:0:0:0:
176,23,86738,2,0,P|139:31|107:52,1,76.4999976654053,8|2,0:0|3:2,0:0:0:0:
28,50,86980,6,0,P|31:126|27:202,1,152.999995330811,8|2,0:0|3:2,0:0:0:0:
96,241,87342,2,0,P|106:276|140:290,1,76.4999976654053,8|0,0:0|0:0,0:0:0:0:
174,219,87584,1,2,3:2:0:0:
174,219,87705,1,8,0:0:0:0:
218,285,87826,6,0,P|289:303|304:374,1,152.999995330811,4|2,3:2|3:2,0:0:0:0:
320,379,88189,1,0,0:0:0:0:
387,335,88310,2,0,P|395:297|408:261,2,76.4999976654053,8|2|0,0:0|3:2|3:0,0:0:0:0:
333,236,88673,2,0,P|324:198|311:162,1,76.4999976654053,0|2,3:0|3:2,0:0:0:0:
403,182,88915,6,0,P|473:163|488:92,1,152.999995330811,8|2,0:0|3:2,0:0:0:0:
424,48,89278,2,0,P|386:39|350:26,1,76.4999976654053,8|0,0:0|0:0,0:0:0:0:
275,9,89520,1,10,3:2:0:0:
299,84,89641,1,8,0:0:0:0:
221,67,89762,6,0,P|150:85|135:156,1,152.999995330811,4|2,3:2|3:2,0:0:0:0:
91,220,90125,1,0,0:0:0:0:
171,300,90246,2,0,P|175:262|170:225,1,76.4999976654053,8|2,0:0|3:2,0:0:0:0:
16,185,90488,2,0,P|11:222|17:260,1,76.4999976654053,0|8,3:0|3:2,0:0:0:0:
1,337,90730,5,2,3:2:0:0:
77,312,90850,2,0,P|150:331|217:368,1,152.999995330811,8|0,0:0|0:0,0:0:0:0:
297,363,91213,2,0,B|333:372|333:372|367:354,1,76.4999976654053,8|2,0:0|0:0,0:0:0:0:
330,244,91455,2,0,B|292:234|292:234|257:249,1,76.4999976654053,0|8,3:0|0:0,0:0:0:0:
412,287,91697,6,0,P|413:210|433:137,1,152.999995330811,4|2,3:2|3:2,0:0:0:0:
361,108,92060,1,0,3:0:0:0:
423,59,92181,2,0,P|381:0|308:0,1,152.999995330811,8|0,0:0|3:0,0:0:0:0:
232,28,92544,2,0,P|231:66|221:103,1,76.4999976654053,8|2,3:2|3:2,0:0:0:0:
112,87,92786,2,0,P|112:48|122:11,1,76.4999976654053,8|0,0:0|3:0,0:0:0:0:
41,3,93028,5,10,3:2:0:0:
16,16,93088,1,8,3:2:0:0:
9,42,93148,1,8,3:2:0:0:
37,116,93270,1,8,3:2:0:0:
94,173,93391,1,2,3:2:0:0:
122,248,93512,1,2,3:2:0:0:
116,329,93633,6,0,P|179:316|242:309,1,127.500004863739,4|0,3:2|3:0,0:0:0:0:
318,320,94117,2,0,P|288:308|257:301,1,63.7500024318696,8|0,0:0|0:0,0:0:0:0:
221,232,94359,1,0,3:0:0:0:
298,230,94480,2,0,P|342:187|403:197,1,127.500004863739,8|8,0:0|0:0,0:0:0:0:
454,256,94842,2,0,P|451:192|453:128,1,127.500004863739,0|8,3:0|0:0,0:0:0:0:
379,106,95326,6,0,P|377:75|352:56,1,63.7500024318696,0|0,3:0|0:0,0:0:0:0:
275,61,95568,2,0,P|231:103|170:93,1,127.500004863739,0|0,3:0|3:0,0:0:0:0:
112,40,95931,1,0,0:0:0:0:
95,116,96052,2,0,P|96:147|94:179,1,63.7500024318696,8|0,0:0|0:0,0:0:0:0:
173,179,96294,1,0,3:0:0:0:
79,277,96415,6,0,P|105:260|134:245,1,63.7500024318696,8|0,0:0|3:0,0:0:0:0:
199,353,96657,2,0,P|172:369|143:384,1,63.7500024318696,8|0,0:0|3:0,0:0:0:0:
209,273,97020,6,0,B|275:277|260:315|326:319,1,127.500004863739,8|0,0:0|3:0,0:0:0:0:
381,268,97383,1,0,3:0:0:0:
381,268,97443,1,0,3:0:0:0:
381,268,97504,2,0,P|378:204|380:140,1,127.500004863739,4|0,3:2|3:0,0:0:0:0:
330,83,97988,6,0,P|261:98|249:162,1,127.500004863739,8|0,0:0|3:0,0:0:0:0:
177,183,98350,2,0,P|145:183|120:164,1,63.7500024318696,8|0,0:0|3:0,0:0:0:0:
171,106,98592,1,8,0:0:0:0:
210,39,98713,2,0,P|154:68|95:91,1,127.500004863739,0|8,3:0|0:0,0:0:0:0:
43,150,99197,6,0,P|20:171|16:203,1,63.7500024318696,0|0,3:0|0:0,0:0:0:0:
80,247,99439,2,0,P|135:274|139:335,1,127.500004863739,0|0,3:0|3:0,0:0:0:0:
200,384,99802,1,0,0:0:0:0:
223,310,99923,2,0,P|245:288|249:256,1,63.7500024318696,8|0,0:0|0:0,0:0:0:0:
276,367,100165,1,0,3:0:0:0:
321,305,100286,2,0,P|351:294|378:277,1,63.7500024318696,8|0,0:0|0:0,0:0:0:0:
443,318,100528,5,8,0:0:0:0:
447,244,100649,1,0,3:0:0:0:
447,244,100891,6,0,P|446:222|447:201,2,42.5,0|0|0,3:0|3:0|3:0,0:0:0:0:
399,140,101375,6,0,P|370:150|343:167,1,63.7500024318696,0|0,3:0|0:0,0:0:0:0:
275,55,101617,2,0,P|304:44|331:27,1,63.7500024318696,0|0,3:0|0:0,0:0:0:0:
271,134,101859,6,0,P|210:125|183:70,1,127.500004863739,8|0,0:0|3:0,0:0:0:0:
112,41,102221,2,0,P|81:38|58:59,1,63.7500024318696,8|0,0:0|3:0,0:0:0:0:
113,117,102463,2,0,P|89:137|87:168,1,63.7500024318696,8|0,0:0|3:0,0:0:0:0:
13,123,102705,1,0,3:0:0:0:
16,202,102826,6,0,P|40:262|50:324,1,127.500004863739,8|0,0:0|3:0,0:0:0:0:
133,328,103189,1,0,3:0:0:0:
133,328,103250,1,0,3:0:0:0:
133,328,103310,2,0,B|201:317|181:283|251:274,2,127.500004863739,0|0|8,3:0|3:0|0:0,0:0:0:0:
292,338,104036,5,0,3:0:0:0:
324,267,104157,2,0,P|322:235|323:203,1,63.7500024318696,8|0,0:0|3:0,0:0:0:0:
244,133,104399,2,0,P|245:164|244:196,1,63.7500024318696,8|0,0:0|3:0,0:0:0:0:
325,129,104641,1,0,3:0:0:0:
325,129,104762,2,0,P|381:105|391:44,1,127.500004863739,8|0,0:0|3:0,0:0:0:0:
327,0,105125,1,0,0:0:0:0:
211,56,105246,6,0,P|242:54|274:56,1,63.7500024318696,0|0,3:0|0:0,0:0:0:0:
167,120,105488,2,0,P|135:121|103:119,1,63.7500024318696,0|0,3:0|0:0,0:0:0:0:
54,60,105730,1,8,0:0:0:0:
48,175,105971,5,0,3:0:0:0:
36,170,106092,1,8,0:0:0:0:
39,183,106213,1,0,3:0:0:0:
51,188,106333,1,8,0:0:0:0:
131,199,106455,2,0,P|126:263|129:327,1,127.500004863739,0|8,3:0|0:0,0:0:0:0:
204,345,106939,5,0,3:0:0:0:
263,295,107060,1,0,3:0:0:0:
263,295,107121,1,0,3:0:0:0:
262,295,107181,2,0,P|321:313|339:372,2,127.500004863739,0|0|8,3:0|3:0|0:0,0:0:0:0:
418,348,107907,5,0,3:0:0:0:
487,311,108028,2,0,P|485:279|485:247,1,63.7500024318696,8|0,0:0|0:0,0:0:0:0:
457,176,108270,1,8,0:0:0:0:
378,176,108391,2,0,P|379:144|379:112,1,63.7500024318696,0|0,3:0|0:0,0:0:0:0:
456,35,108633,2,0,P|454:66|454:98,1,63.7500024318696,8|0,0:0|0:0,0:0:0:0:
377,37,108875,1,4,3:0:0:0:
309,0,108996,1,4,3:0:0:0:
309,78,109117,6,0,P|242:95|223:161,2,144.500002756119,4|0|8,3:2|3:0|0:0,0:0:0:0:
231,10,109721,1,0,0:0:0:0:
152,20,109842,2,0,P|154:55|152:92,1,72.2500013780594,0|8,3:0|0:0,0:0:0:0:
145,170,110084,5,0,3:0:0:0:
81,123,110205,1,8,0:0:0:0:
73,201,110326,2,0,P|37:197|0:200,1,72.2500013780594,0|0,3:0|0:0,0:0:0:0:
0,278,110568,2,0,P|17:345|83:364,1,144.500002756119,8|8,0:0|3:0,0:0:0:0:
127,299,110931,1,8,3:0:0:0:
162,369,111052,6,0,P|232:352|304:349,2,144.500002756119,0|0|8,3:0|3:0|0:0,0:0:0:0:
203,278,111657,1,0,0:0:0:0:
260,226,111778,2,0,P|293:239|306:272,1,72.2500013780594,0|8,3:0|0:0,0:0:0:0:
373,313,112020,5,0,3:0:0:0:
445,279,112141,1,8,0:0:0:0:
379,235,112262,2,0,P|377:199|377:163,1,72.2500013780594,0|0,3:0|3:0,0:0:0:0:
330,100,112443,1,0,3:0:0:0:
326,83,112504,2,0,P|258:88|234:152,1,144.500002756119,8|0,0:0|3:0,0:0:0:0:
175,204,112867,1,0,0:0:0:0:
153,127,112988,6,0,P|101:78|55:23,2,144.500002756119,4|0|8,3:2|3:0|0:0,0:0:0:0:
97,184,113592,1,0,0:0:0:0:
38,129,113713,2,0,P|16:155|16:191,1,72.2500013780594,0|8,3:0|0:0,0:0:0:0:
63,256,113955,5,0,3:0:0:0:
29,329,114076,1,8,0:0:0:0:
109,321,114197,2,0,P|135:343|171:343,1,72.2500013780594,0|0,3:0|3:0,0:0:0:0:
213,277,114439,2,0,P|252:266|302:347,1,144.500002756119,8|0,0:0|3:0,0:0:0:0:
381,359,114802,1,0,3:0:0:0:
377,279,114923,6,0,P|398:209|410:138,2,144.500002756119,0|0|8,3:0|3:0|0:0,0:0:0:0:
450,312,115528,1,0,0:0:0:0:
497,249,115649,2,0,P|491:207|479:163,1,72.2500013780594,0|8,3:0|0:0,0:0:0:0:
478,101,115891,1,0,3:0:0:0:
410,62,116012,1,8,0:0:0:0:
478,23,116133,6,0,P|442:31|407:36,1,72.2500013780594,0|0,3:0|0:0,0:0:0:0:
342,100,116375,2,0,P|271:83|200:73,1,144.500002756119,8|0,0:0|3:0,0:0:0:0:
150,13,116738,1,0,0:0:0:0:
123,87,116859,6,0,P|58:110|40:177,2,144.500002756119,4|0|8,3:2|3:0|0:0,0:0:0:0:
177,148,117463,1,0,0:0:0:0:
175,227,117584,2,0,P|140:230|108:215,1,72.2500013780594,0|8,3:0|0:0,0:0:0:0:
41,255,117826,5,0,3:0:0:0:
26,252,117947,1,8,0:0:0:0:
33,264,118068,1,0,3:0:0:0:
48,267,118188,1,0,3:0:0:0:
75,341,118310,2,0,P|110:337|142:352,1,72.2500013780594,8|0,0:0|0:0,0:0:0:0:
202,302,118552,1,0,3:0:0:0:
272,339,118673,1,0,0:0:0:0:
322,278,118794,5,0,3:0:0:0:
344,263,118915,1,0,3:0:0:0:
321,249,119036,1,0,3:0:0:0:
337,276,119157,5,8,0:0:0:0:
336,249,119278,1,0,3:0:0:0:
313,262,119399,1,0,3:0:0:0:
413,303,119520,5,8,0:0:0:0:
412,223,119641,1,8,0:0:0:0:
350,172,119762,2,0,P|328:165|304:163,2,48.1666675853729,0|0|0,3:0|3:0|3:0,0:0:0:0:
425,145,120004,2,0,P|447:137|471:135,2,48.1666675853729,0|0|0,3:0|3:0|3:0,0:0:0:0:
364,94,120246,2,0,P|359:44|395:5,1,101.999996887207,8|0,0:0|0:0,0:0:0:0:
373,0,120609,6,0,P|302:34|227:60,1,159.375006079674,4|0,1:2|0:0,0:0:0:0:
215,46,120971,6,0,P|140:72|135:152,1,170,8|0,0:0|1:0,0:0:0:0:
166,225,121334,1,0,3:0:0:0:
86,214,121455,2,0,P|89:257|88:299,1,85,8|0,0:0|0:0,0:0:0:0:
165,318,121697,6,0,P|240:292|245:212,1,170,0|8,1:0|0:0,0:0:0:0:
214,140,122060,1,0,0:0:0:0:
292,149,122181,2,0,P|335:144|377:147,1,85,0|0,1:0|3:0,0:0:0:0:
437,96,122423,1,8,0:0:0:0:
451,175,122544,6,0,P|448:259|450:344,1,170,4|0,3:2|3:0,0:0:0:0:
375,364,122907,2,0,P|334:359|313:324,1,85,8|0,0:0|0:0,0:0:0:0:
286,251,123149,1,0,3:0:0:0:
207,254,123270,1,0,3:0:0:0:
283,233,123391,2,0,P|286:149|284:64,1,170,8|0,0:0|3:0,0:0:0:0:
275,49,123754,1,0,0:0:0:0:
206,9,123875,6,0,B|110:26|153:76|63:91,1,170,8|0,0:0|1:0,0:0:0:0:
16,153,124238,1,0,3:0:0:0:
79,104,124359,1,8,0:0:0:0:
90,182,124480,1,0,0:0:0:0:
27,231,124600,6,0,P|106:245|125:323,1,170,4|8,1:2|0:0,0:0:0:0:
200,351,124963,2,0,P|219:268|251:189,1,170,0|0,0:0|3:0,0:0:0:0:
199,132,125326,2,0,P|158:136|137:171,1,85,8|0,0:0|0:0,0:0:0:0:
276,116,125568,6,0,P|356:118|384:193,1,170,0|8,3:0|0:0,0:0:0:0:
317,234,125931,1,0,0:0:0:0:
347,358,126052,2,0,P|308:344|289:307,1,85,0|0,1:0|3:0,0:0:0:0:
448,240,126294,2,0,P|430:277|391:292,1,85,8|0,0:0|0:0,0:0:0:0:
384,192,126536,6,0,P|401:108|429:28,1,170,4|8,3:2|0:0,0:0:0:0:
357,0,126899,1,0,0:0:0:0:
284,29,127020,2,0,P|289:70|325:89,1,85,0|0,3:0|3:0,0:0:0:0:
211,2,127262,2,0,P|171:17|145:50,1,85,8|0,0:0|0:0,0:0:0:0:
73,80,127504,5,8,0:0:0:0:
150,67,127625,1,0,3:0:0:0:
76,97,127746,1,8,0:0:0:0:
153,84,127867,1,0,3:0:0:0:
226,112,127988,5,8,0:0:0:0:
217,143,128069,1,8,0:0:0:0:
231,172,128149,1,8,0:0:0:0:
222,201,128230,1,8,0:0:0:0:
147,228,128350,6,0,P|221:243|239:315,1,159.375006079674,4|0,1:2|3:0,0:0:0:0:
256,329,128713,6,0,B|345:299|337:367|421:376,1,170,8|0,0:0|1:0,0:0:0:0:
463,314,129076,1,0,3:0:0:0:
447,236,129197,2,0,P|405:236|375:265,1,85,8|0,0:0|0:0,0:0:0:0:
306,224,129439,6,0,P|304:139|308:54,1,170,0|8,1:0|0:0,0:0:0:0:
245,7,129802,1,0,0:0:0:0:
182,56,129923,2,0,P|192:96|225:120,1,85,0|0,1:0|3:0,0:0:0:0:
222,201,130165,1,8,0:0:0:0:
170,263,130286,6,0,P|108:219|132:128,1,170,4|0,3:2|3:0,0:0:0:0:
63,84,130649,2,0,P|34:114|2:142,1,85,8|0,0:0|3:0,0:0:0:0:
26,219,130891,1,0,3:0:0:0:
31,299,131012,1,0,3:0:0:0:
5,223,131133,2,0,P|57:290|102:362,1,170,8|0,0:0|3:0,0:0:0:0:
179,342,131496,1,0,3:0:0:0:
241,295,131617,6,0,P|275:270|314:281,1,85,8|0,0:0|0:0,0:0:0:0:
386,315,131859,1,0,3:0:0:0:
387,332,131980,1,0,3:0:0:0:
400,322,132101,1,4,3:0:0:0:
398,306,132222,1,0,3:0:0:0:
477,304,132342,6,0,P|458:221|445:137,1,170,4|8,1:2|0:0,0:0:0:0:
441,60,132705,1,0,0:0:0:0:
427,138,132826,1,0,3:0:0:0:
367,87,132947,1,0,3:0:0:0:
381,11,133068,6,0,P|298:29|214:42,1,170,8|0,0:0|3:0,0:0:0:0:
150,87,133431,1,0,0:0:0:0:
211,137,133552,2,0,P|232:101|224:61,1,85,8|0,0:0|0:0,0:0:0:0:
138,165,133794,2,0,P|96:164|64:192,1,85,0|0,3:0|3:0,0:0:0:0:
198,215,134036,2,0,P|218:251|258:264,1,85,8|0,0:0|0:0,0:0:0:0:
310,201,134278,6,0,P|285:283|270:366,1,170,0|8,1:0|0:0,0:0:0:0:
347,384,134641,1,0,0:0:0:0:
427,384,134762,2,0,P|441:300|466:219,1,170,0|8,1:0|0:0,0:0:0:0:
401,175,135125,1,0,0:0:0:0:
388,98,135246,1,0,1:0:0:0:
384,178,135367,1,0,0:0:0:0:
371,101,135488,1,8,0:0:0:0:
292,97,135609,5,0,0:0:0:0:
305,20,135729,1,8,0:0:0:0:
272,13,135810,1,8,0:0:0:0:
246,32,135890,1,8,0:0:0:0:
214,26,135971,1,8,0:0:0:0:
157,81,136092,6,0,P|180:157|195:235,1,159.375006079674,4|0,1:2|0:0,0:0:0:0:
209,246,136455,6,0,P|157:307|187:381,1,170,8|0,0:0|1:0,0:0:0:0:
266,378,136818,1,0,0:0:0:0:
333,336,136939,2,0,P|319:297|280:281,1,85,8|0,0:0|0:0,0:0:0:0:
276,203,137181,6,0,P|282:123|355:91,1,170,0|8,1:0|0:0,0:0:0:0:
400,157,137544,1,0,0:0:0:0:
435,86,137665,2,0,P|431:43|434:1,1,85,0|0,1:0|0:0,0:0:0:0:
355,13,137907,1,8,0:0:0:0:
277,28,138028,6,0,P|202:68|122:98,1,170,4|0,3:2|3:0,0:0:0:0:
129,176,138391,2,0,P|109:213|118:254,1,85,8|0,0:0|0:0,0:0:0:0:
181,301,138633,1,0,3:0:0:0:
107,332,138754,1,0,3:0:0:0:
186,319,138875,2,0,P|225:333|263:354,1,85,8|0,0:0|0:0,0:0:0:0:
336,322,139117,6,0,P|353:244|291:192,1,170,0|8,3:0|0:0,0:0:0:0:
219,229,139480,1,0,0:0:0:0:
224,149,139600,2,0,P|227:106|224:64,1,85,0|0,3:0|3:0,0:0:0:0:
294,25,139842,1,8,0:0:0:0:
318,13,139923,1,8,0:0:0:0:
343,21,140003,1,8,0:0:0:0:
368,9,140084,6,0,P|362:93|367:178,1,170,4|8,1:2|0:0,0:0:0:0:
430,226,140447,2,0,P|492:277|476:356,1,170,0|0,3:0|0:0,0:0:0:0:
348,333,140810,2,0,P|337:293|355:255,1,85,8|0,0:0|0:0,0:0:0:0:
293,206,141052,6,0,P|208:211|123:205,1,170,0|8,3:0|0:0,0:0:0:0:
51,236,141415,1,0,0:0:0:0:
105,296,141536,2,0,P|133:266|131:225,1,85,0|0,3:0|3:0,0:0:0:0:
87,87,141778,2,0,P|58:116|61:157,1,85,8|0,0:0|0:0,0:0:0:0:
27,313,142020,6,0,P|111:307|196:313,1,170,0|8,3:0|0:0,0:0:0:0:
270,286,142383,1,0,0:0:0:0:
286,208,142504,2,0,P|244:206|211:233,1,85,0|0,3:0|3:0,0:0:0:0:
255,363,142746,2,0,P|297:365|330:338,1,85,8|0,0:0|0:0,0:0:0:0:
405,317,142988,5,0,3:0:0:0:
347,261,143109,1,0,3:0:0:0:
424,241,143230,2,0,P|421:182|425:144,1,85,12|0,0:0|0:0,0:0:0:0:
455,85,143471,1,0,3:0:0:0:
464,78,143592,1,0,3:0:0:0:
452,73,143713,1,8,0:0:0:0:
376,94,143834,6,0,B|295:73|310:137|223:116,1,159.375006079674,4|0,1:2|0:0,0:0:0:0:
217,99,144197,6,0,P|138:113|122:192,1,170,8|0,0:0|1:0,0:0:0:0:
106,269,144560,1,0,0:0:0:0:
170,317,144681,2,0,P|192:282|182:242,1,85,8|0,0:0|0:0,0:0:0:0:
249,199,144923,6,0,P|328:213|344:292,1,170,0|8,1:0|0:0,0:0:0:0:
411,334,145286,1,0,0:0:0:0:
430,256,145407,2,0,P|435:213|446:173,1,85,0|0,1:0|0:0,0:0:0:0:
372,145,145649,1,8,0:0:0:0:
434,95,145770,6,0,P|349:84|268:61,1,170,4|0,3:2|3:0,0:0:0:0:
207,12,146133,2,0,P|169:33|155:74,1,85,8|0,0:0|0:0,0:0:0:0:
96,124,146375,1,0,3:0:0:0:
173,148,146496,1,0,3:0:0:0:
93,142,146617,2,0,P|116:223|127:311,1,170,8|0,0:0|3:0,0:0:0:0:
189,357,146980,1,0,0:0:0:0:
203,277,147100,6,0,P|283:288|312:363,1,170,8|0,0:0|3:0,0:0:0:0:
392,361,147463,1,0,3:0:0:0:
451,307,147584,1,8,0:0:0:0:
439,281,147665,1,8,0:0:0:0:
449,254,147745,1,8,0:0:0:0:
439,227,147826,6,0,P|411:195|384:146,1,85,4|0,1:2|0:0,0:0:0:0:
401,80,148068,1,8,0:0:0:0:
326,110,148189,2,0,B|255:85|275:183|191:198,1,170,0|0,0:0|3:0,0:0:0:0:
143,137,148552,2,0,P|121:100|93:68,1,85,8|0,0:0|0:0,0:0:0:0:
32,224,148794,6,0,P|53:260|81:292,1,85,2|0,1:2|0:0,0:0:0:0:
156,266,149036,1,8,0:0:0:0:
236,266,149157,2,0,P|310:296|306:376,1,170,2|0,1:2|3:0,0:0:0:0:
397,362,149520,6,0,P|418:326|446:294,1,85,10|0,0:0|0:0,0:0:0:0:
398,231,149762,2,0,B|327:256|347:158|263:143,1,170,4|8,1:2|0:0,0:0:0:0:
225,77,150125,1,0,0:0:0:0:
145,69,150246,2,0,P|184:50|217:23,1,85,2|0,1:2|0:0,0:0:0:0:
294,37,150488,2,0,P|326:63|365:82,1,85,8|0,0:0|0:0,0:0:0:0:
406,150,150730,5,2,1:2:0:0:
484,138,150850,1,0,0:0:0:0:
409,166,150971,1,8,0:0:0:0:
487,154,151091,1,8,0:0:0:0:
459,228,151213,5,8,1:2:0:0:
473,257,151294,1,8,1:2:0:0:
464,288,151374,1,8,1:2:0:0:
479,315,151455,2,0,L|470:370,2,42.5000016212464,8|8|8,1:2|1:2|1:2,0:0:0:0:
396,330,151697,6,0,L|228:350,1,170,6|10,1:2|0:0,0:0:0:0:
217,337,152060,2,0,P|133:324|111:240,1,170,2|0,3:2|3:0,0:0:0:0:
165,198,152423,2,0,P|168:155|166:113,1,85,10|0,0:0|0:0,0:0:0:0:
212,50,152665,6,0,P|295:62|317:146,2,170,2|10|2,1:2|0:0|1:2,0:0:0:0:
133,43,153270,1,0,3:0:0:0:
89,107,153391,2,0,P|46:104|4:105,1,85,10|0,0:0|3:0,0:0:0:0:
0,183,153633,6,0,P|5:267|1:352,1,170,6|10,1:2|0:0,0:0:0:0:
20,351,153996,2,0,P|99:350|127:275,1,170,2|0,1:2|0:0,0:0:0:0:
189,226,154359,2,0,P|212:261|244:292,1,85,10|0,0:0|0:0,0:0:0:0:
355,372,154600,6,0,P|270:368|186:374,2,170,2|10|2,1:2|0:0|0:0,0:0:0:0:
400,307,155205,1,0,3:0:0:0:
322,290,155326,2,0,P|345:255|377:224,1,85,10|8,0:0|0:0,0:0:0:0:
452,245,155568,6,0,P|511:191|489:113,1,170,6|10,1:2|0:0,0:0:0:0:
488,93,155931,2,0,P|403:99|318:95,1,170,2|0,1:2|0:0,0:0:0:0:
246,123,156294,2,0,P|217:153|218:195,1,85,10|0,0:0|0:0,0:0:0:0:
141,221,156536,6,0,P|120:133|82:55,2,170,2|10|2,1:2|0:0|1:2,0:0:0:0:
202,272,157141,1,0,3:0:0:0:
127,300,157262,2,0,P|109:338|99:379,1,85,10|0,0:0|3:0,0:0:0:0:
180,364,157504,6,0,P|259:350|280:271,1,170,6|10,1:2|0:0,0:0:0:0:
297,286,157867,2,0,P|317:198|355:120,1,170,2|0,1:2|0:0,0:0:0:0:
293,73,158230,2,0,P|278:34|239:19,1,85,10|0,0:0|0:0,0:0:0:0:
371,48,158471,6,0,P|450:58|474:135,2,170,2|8|8,1:2|0:0|0:0,0:0:0:0:
375,42,159036,1,8,0:0:0:0:
379,36,159117,1,8,0:0:0:0:
383,30,159197,1,8,0:0:0:0:
313,0,159318,1,0,3:0:0:0:
292,73,159439,6,0,P|211:100|128:114,1,170,6|10,1:2|0:0,0:0:0:0:
124,132,159802,2,0,P|81:201|122:270,1,170,2|0,1:2|0:0,0:0:0:0:
236,235,160165,2,0,P|222:196|183:183,1,85,10|0,0:0|0:0,0:0:0:0:
191,303,160407,6,0,P|274:317|355:344,2,170,2|10|2,1:2|0:0|1:2,0:0:0:0:
127,347,161012,1,0,3:0:0:0:
56,312,161133,2,0,P|45:272|41:229,1,85,10|0,0:0|3:0,0:0:0:0:
0,163,161375,6,0,P|50:96|92:21,1,170,6|10,1:2|0:0,0:0:0:0:
107,29,161738,2,0,P|186:41|200:119,1,170,2|0,1:2|0:0,0:0:0:0:
268,161,162100,2,0,P|288:198|314:232,1,85,10|0,0:0|0:0,0:0:0:0:
388,205,162342,6,0,P|458:169|445:91,2,170,2|10|2,1:2|0:0|3:2,0:0:0:0:
375,283,162947,1,0,3:0:0:0:
380,296,163068,1,10,0:0:0:0:
366,293,163189,1,8,0:0:0:0:
287,306,163310,6,0,P|202:302|117:305,1,170,6|10,1:2|0:0,0:0:0:0:
103,294,163673,2,0,P|88:213|9:189,1,170,2|0,1:2|0:0,0:0:0:0:
8,111,164036,2,0,P|49:97|85:75,1,85,10|0,0:0|0:0,0:0:0:0:
162,55,164278,6,0,P|169:140|183:223,2,170,2|10|2,1:2|0:0|1:2,0:0:0:0:
238,38,164883,1,0,3:0:0:0:
247,114,165004,2,0,P|251:156|260:197,1,85,10|0,0:0|3:0,0:0:0:0:
336,215,165246,5,8,0:0:0:0:
349,220,165367,1,0,3:0:0:0:
347,207,165488,1,8,0:0:0:0:
424,197,165609,6,0,P|414:155|410:113,2,85,0|8|0,3:0|0:0|3:0,0:0:0:0:
409,272,165971,2,0,P|404:314|395:355,1,85,8|8,0:0|0:0,0:0:0:0:
322,326,166213,6,0,P|250:293|245:209,2,170,8|8|8,0:0|0:0|0:0,0:0:0:0:
321,333,166778,1,8,0:0:0:0:
320,340,166859,1,8,0:0:0:0:
319,347,166939,1,8,0:0:0:0:
245,337,167060,1,0,3:0:0:0:
170,347,167181,6,0,P|167:304|161:262,1,85,0|0,3:0|0:0,0:0:0:0:
174,192,167544,1,0,3:0:0:0:
101,221,167665,2,0,P|103:178|109:136,1,85,8|0,0:0|3:0,0:0:0:0:
181,120,168028,6,0,P|179:98|176:77,2,42.5,8|0|8,0:0|3:0|0:0,0:0:0:0:
240,162,168391,2,0,P|275:144|287:99,2,85,0|8|0,3:0|0:0|3:0,0:0:0:0:
234,235,169117,6,0,P|267:241|317:259,1,85,8|0,0:0|3:0,0:0:0:0:
335,188,169480,2,0,P|368:182|418:164,1,85,8|0,0:0|3:0,0:0:0:0:
472,212,169842,1,8,0:0:0:0:
436,95,170084,6,0,P|435:73|436:52,2,42.5,0|0|8,3:0|3:0|3:0,0:0:0:0:
429,94,170407,1,0,3:0:0:0:
422,93,170488,1,0,3:0:0:0:
415,92,170568,1,8,3:2:0:0:
364,38,170931,5,4,1:2:0:0:
364,38,172988,5,4,3:2:0:0:
364,38,174923,5,4,3:2:0:0:
364,38,175891,5,8,3:0:0:0:
364,38,176254,5,8,3:0:0:0:
364,38,176617,5,8,3:0:0:0:
295,71,176859,5,4,3:2:0:0:
221,54,178673,5,4,1:2:0:0:
221,54,179036,6,0,L|178:59,1,42.5,0|0,3:0|0:0,0:0:0:0:
218,62,179278,2,0,L|175:67,1,42.5,0|0,3:0|0:0,0:0:0:0:
215,70,179520,2,0,L|172:75,1,42.5,0|0,3:0|0:0,0:0:0:0:
212,78,179762,2,0,L|169:83,1,42.5,0|0,3:0|0:0,0:0:0:0:
209,86,180004,2,0,L|166:91,1,42.5,0|0,3:0|0:0,0:0:0:0:
206,94,180246,2,0,L|163:99,1,42.5,0|0,3:0|0:0,0:0:0:0:
196,171,180488,6,0,L|153:176,1,42.5,0|8,3:0|0:0,0:0:0:0:
94,128,180730,2,0,P|70:164|41:195,2,85,0|0|0,3:0|3:0|3:0,0:0:0:0:
108,236,181455,6,0,P|131:271|160:302,2,85,0|0|0,3:0|3:0|3:0,0:0:0:0:
40,272,182181,1,0,3:0:0:0:
85,335,182302,2,0,L|76:384,2,42.5,8|0|8,0:0|3:0|0:0,0:0:0:0:
161,321,182665,2,0,P|202:311|244:308,1,85,4|0,3:2|3:0,0:0:0:0:
295,250,183149,6,0,P|336:260|378:263,2,85,0|0|0,3:0|3:0|3:0,0:0:0:0:
221,230,183875,1,0,3:0:0:0:
147,211,184117,2,0,P|149:168|159:127,1,85,0|0,3:0|3:0,0:0:0:0:
234,150,184600,6,0,P|307:138|333:81,1,127.500004863739,4|8,1:2|0:0,0:0:0:0:
401,61,184963,1,8,0:0:0:0:
409,51,185084,1,8,0:0:0:0:
421,57,185205,1,8,0:0:0:0:
419,70,185326,1,8,0:0:0:0:
406,72,185447,1,8,0:0:0:0:
397,149,185568,5,8,3:2:0:0:
410,178,185649,1,8,3:2:0:0:
423,207,185730,1,8,3:2:0:0:
436,236,185810,2,0,L|422:276,2,42.5000016212464,8|8|10,3:2|3:2|3:2,0:0:0:0:
353,239,186052,1,10,3:2:0:0:
353,239,186415,6,0,P|277:246|251:317,1,159.375006079674,4|0,1:2|0:0,0:0:0:0:
241,335,186778,6,0,P|156:346|75:370,1,170,8|0,0:0|1:0,0:0:0:0:
2,341,187141,1,0,3:0:0:0:
45,208,187262,2,0,P|50:250|62:290,1,85,8|0,0:0|0:0,0:0:0:0:
0,142,187504,6,0,P|72:106|140:151,1,170,0|8,1:0|0:0,0:0:0:0:
200,101,187867,1,0,0:0:0:0:
296,160,187988,2,0,P|254:165|214:178,1,85,0|0,1:0|3:0,0:0:0:0:
200,101,188230,1,8,0:0:0:0:
276,81,188350,6,0,P|360:70|441:46,1,170,4|0,3:2|0:0,0:0:0:0:
493,103,188713,2,0,P|478:142|468:184,1,85,8|0,0:0|0:0,0:0:0:0:
440,256,188955,1,0,3:0:0:0:
391,196,189076,1,0,3:0:0:0:
426,266,189197,2,0,P|440:305|450:347,1,85,8|0,0:0|0:0,0:0:0:0:
375,366,189439,6,0,P|295:357|271:280,1,170,0|8,3:0|0:0,0:0:0:0:
203,243,189802,1,0,0:0:0:0:
192,321,189923,2,0,P|185:273|173:228,1,85,0|0,3:0|3:0,0:0:0:0:
206,166,190165,1,8,0:0:0:0:
218,142,190246,1,8,0:0:0:0:
210,117,190326,1,8,0:0:0:0:
222,91,190407,6,0,P|306:78|388:57,1,170,4|8,1:2|0:0,0:0:0:0:
452,101,190770,2,0,P|467:181|403:230,1,170,0|0,3:0|3:0,0:0:0:0:
325,234,191133,2,0,P|304:199|312:158,1,85,8|0,0:0|0:0,0:0:0:0:
369,302,191375,6,0,P|285:315|203:336,1,170,0|8,3:0|0:0,0:0:0:0:
139,290,191738,1,0,0:0:0:0:
131,367,191859,2,0,P|90:357|67:323,1,85,0|0,3:0|3:0,0:0:0:0:
147,211,192100,2,0,P|187:221|210:255,1,85,8|0,0:0|3:0,0:0:0:0:
73,245,192342,6,0,P|60:161|39:79,1,170,0|8,3:0|0:0,0:0:0:0:
85,15,192705,1,0,0:0:0:0:
198,54,192826,2,0,P|157:61|124:89,1,85,0|0,3:0|3:0,0:0:0:0:
191,134,193068,2,0,P|232:140|264:168,1,85,8|0,0:0|0:0,0:0:0:0:
330,124,193310,5,0,3:0:0:0:
364,126,193391,1,0,3:0:0:0:
386,102,193471,1,0,3:0:0:0:
419,103,193552,1,8,3:2:0:0:
421,180,193794,5,0,3:0:0:0:
454,179,193875,1,0,3:0:0:0:
476,203,193955,1,0,3:0:0:0:
510,201,194036,1,8,3:2:0:0:
499,279,194157,6,0,P|427:302|418:377,1,159.375006079674,4|0,1:2|0:0,0:0:0:0:
398,372,194520,6,0,B|320:384|345:294|277:267,1,170,8|0,0:0|1:0,0:0:0:0:
210,304,194883,1,0,3:0:0:0:
213,226,195004,2,0,P|215:183|211:141,1,85,8|0,0:0|0:0,0:0:0:0:
271,91,195246,6,0,P|356:102|372:195,1,170,0|8,1:0|0:0,0:0:0:0:
456,197,195609,1,0,0:0:0:0:
455,117,195730,2,0,P|453:74|457:32,1,85,0|0,1:0|3:0,0:0:0:0:
378,22,195971,1,8,0:0:0:0:
301,4,196092,6,0,P|234:57|155:89,1,170,4|0,1:2|0:0,0:0:0:0:
78,78,196455,2,0,P|80:121|76:163,1,85,8|0,0:0|0:0,0:0:0:0:
130,221,196697,1,0,3:0:0:0:
203,250,196818,1,0,3:0:0:0:
126,238,196939,2,0,B|211:222|191:310|248:345,1,170,8|0,0:0|3:0,0:0:0:0:
303,290,197302,1,0,0:0:0:0:
316,368,197423,6,0,P|335:286|367:207,1,170,8|0,0:0|1:0,0:0:0:0:
311,153,197786,1,0,3:0:0:0:
387,131,197907,1,8,0:0:0:0:
375,105,197988,1,8,0:0:0:0:
385,78,198068,1,8,0:0:0:0:
375,50,198149,6,0,P|333:40|294:24,1,85,4|0,1:2|0:0,0:0:0:0:
256,94,198391,1,8,0:0:0:0:
214,25,198512,2,0,B|146:0|143:88|71:103,1,170,0|0,0:0|3:0,0:0:0:0:
17,155,198875,2,0,P|42:189|59:227,1,85,8|0,0:0|0:0,0:0:0:0:
165,242,199117,6,0,P|139:207|122:169,1,85,2|0,1:2|0:0,0:0:0:0:
103,295,199359,1,8,0:0:0:0:
179,321,199480,2,0,P|258:302|272:223,1,170,2|0,1:2|3:0,0:0:0:0:
310,156,199842,6,0,P|348:138|382:113,1,85,8|0,0:0|0:0,0:0:0:0:
442,163,200084,2,0,B|400:228|476:253|486:317,1,170,4|8,1:2|0:0,0:0:0:0:
414,352,200447,1,0,0:0:0:0:
376,281,200568,2,0,P|337:298|303:323,1,85,2|0,1:2|0:0,0:0:0:0:
226,308,200810,2,0,P|208:269|183:235,1,85,8|0,0:0|0:0,0:0:0:0:
169,157,201052,5,2,1:2:0:0:
90,169,201173,1,0,0:0:0:0:
166,141,201294,1,8,0:0:0:0:
87,153,201415,1,0,0:0:0:0:
20,109,201536,5,2,1:2:0:0:
32,87,201616,1,0,3:0:0:0:
43,64,201697,1,0,3:0:0:0:
49,41,201777,1,8,0:0:0:0:
118,80,201899,1,8,0:0:0:0:
182,34,202020,6,0,P|248:72|320:96,1,152.999995330811,12|0,3:2|3:0,0:0:0:0:
308,174,202383,2,0,P|384:173|459:158,1,152.999995330811,12|0,3:2|3:0,0:0:0:0:
479,82,202746,2,0,P|412:43|340:19,1,152.999995330811,12|0,3:2|3:0,0:0:0:0:
320,96,203109,5,12,3:2:0:0:
320,96,203471,2,0,P|282:99|250:119,1,76.4999976654053,12|0,3:2|3:0,0:0:0:0:
296,252,203713,2,0,P|334:249|366:229,1,76.4999976654053,12|0,3:2|3:0,0:0:0:0:
233,200,203955,6,0,P|182:251|201:322,1,152.999995330811,12|0,3:2|3:0,0:0:0:0:
102,329,204318,2,0,P|82:258|12:240,1,152.999995330811,12|0,3:2|3:0,0:0:0:0:
56,150,204681,2,0,P|126:168|178:116,1,152.999995330811,12|0,3:2|3:0,0:0:0:0:
154,42,205044,5,12,3:2:0:0:
154,41,205407,2,0,P|191:39|226:54,1,76.4999976654053,12|0,3:2|3:0,0:0:0:0:
295,16,205649,2,0,P|323:40|337:75,1,76.4999976654053,12|0,3:2|3:0,0:0:0:0:
419,82,205891,6,0,P|398:155|385:231,1,152.999995330811,12|0,3:2|3:0,0:0:0:0:
352,301,206254,2,0,P|339:225|318:151,1,152.999995330811,12|0,3:2|3:0,0:0:0:0:
494,100,206617,2,0,P|473:173|460:249,1,152.999995330811,12|0,3:2|3:0,0:0:0:0:
430,323,206980,5,12,3:2:0:0:
430,322,207342,2,0,P|412:356|380:377,1,76.4999976654053,12|0,3:2|0:0,0:0:0:0:
274,280,207584,2,0,P|291:246|324:225,1,76.4999976654053,12|0,3:2|0:0,0:0:0:0:
335,148,207826,6,0,P|330:75|265:43,1,152.999995330811,12|0,3:2|3:0,0:0:0:0:
194,5,208189,2,0,P|137:55|72:95,1,152.999995330811,12|0,3:2|3:0,0:0:0:0:
80,174,208552,2,0,P|85:247|150:279,1,152.999995330811,12|0,3:2|3:0,0:0:0:0:
164,257,208875,1,8,3:2:0:0:
185,243,208956,1,8,3:2:0:0:
210,237,209036,1,8,3:2:0:0:
235,239,209117,1,8,3:2:0:0:
258,251,209198,1,8,3:2:0:0:
276,269,209278,1,0,3:0:0:0:
432,323,209762,6,0,P|428:247|432:171,1,152.999995330811,4|10,3:2|0:0,0:0:0:0:
384,110,210125,1,0,3:0:0:0:
330,168,210246,2,0,P|345:208|350:256,2,76.4999976654053,2|0|10,0:0|3:0|3:2,0:0:0:0:
308,92,210609,2,0,P|313:54|327:18,1,76.4999976654053,0|2,3:0|0:0,0:0:0:0:
250,0,210850,6,0,P|186:34|188:107,1,152.999995330811,0|2,3:0|0:0,0:0:0:0:
153,178,211213,2,0,P|166:213|172:251,1,76.4999976654053,0|0,3:0|3:0,0:0:0:0:
221,314,211455,1,10,0:0:0:0:
349,251,211697,6,0,P|351:323|287:358,1,152.999995330811,6|10,3:2|0:0,0:0:0:0:
221,314,212060,1,0,3:0:0:0:
250,239,212181,2,0,P|277:212|302:183,2,76.4999976654053,2|0|10,0:0|3:0|0:0,0:0:0:0:
172,251,212544,2,0,P|134:260|98:272,1,76.4999976654053,0|2,3:0|0:0,0:0:0:0:
25,242,212786,6,0,P|12:170|66:121,1,152.999995330811,0|2,3:0|3:2,0:0:0:0:
89,47,213149,2,0,P|125:59|162:68,1,76.4999976654053,0|0,0:0|3:0,0:0:0:0:
201,139,213391,1,10,0:0:0:0:
226,134,213471,1,8,0:0:0:0:
250,128,213552,1,8,0:0:0:0:
275,120,213633,6,0,P|346:139|368:208,1,152.999995330811,6|10,3:2|0:0,0:0:0:0:
391,285,213996,1,0,3:0:0:0:
316,310,214117,2,0,P|298:276|295:238,1,76.4999976654053,2|0,0:0|3:0,0:0:0:0:
468,303,214359,2,0,P|465:340|447:374,1,76.4999976654053,10|0,0:0|3:0,0:0:0:0:
446,228,214600,6,0,P|457:152|483:80,1,152.999995330811,2|8,0:0|0:0,0:0:0:0:
434,19,214963,2,0,P|374:63|301:47,1,152.999995330811,2|0,0:0|3:0,0:0:0:0:
223,37,215326,2,0,P|161:57|130:88,1,76.4999976654053,10|8,0:0|0:0,0:0:0:0:
121,137,215568,6,0,P|146:208|158:284,1,152.999995330811,10|10,0:0|0:0,0:0:0:0:
226,326,215931,1,0,3:0:0:0:
290,278,216052,2,0,P|267:247|231:237,1,76.4999976654053,10|0,0:0|3:0,0:0:0:0:
301,357,216294,2,0,P|337:347|359:316,1,76.4999976654053,10|0,0:0|3:0,0:0:0:0:
358,238,216536,5,0,3:0:0:0:
360,206,216616,1,8,3:2:0:0:
369,175,216697,1,8,3:2:0:0:
384,147,216778,2,0,P|381:122|368:100,2,50.9999984436036,8|8|8,3:2|3:2|3:2,0:0:0:0:
445,196,217020,5,8,3:2:0:0:
445,211,217141,1,8,3:2:0:0:
458,203,217262,1,8,3:2:0:0:
458,188,217383,1,8,3:2:0:0:
458,112,217504,5,0,3:0:0:0:
