osu file format v14

[General]
AudioFilename: audio.mp3
AudioLeadIn: 0
PreviewTime: 54742
Countdown: 0
SampleSet: Soft
StackLeniency: 0.4
Mode: 0
LetterboxInBreaks: 0
WidescreenStoryboard: 1

[Editor]
DistanceSpacing: 0.3
BeatDivisor: 3
GridSize: 16
TimelineZoom: 3.099999

[Metadata]
Title:Gomi no Hi
TitleUnicode:ゴミの日
Artist:Fujikawa Chiai
ArtistUnicode:藤川千愛
Creator:a_Blue
Version:Hard
Source:
Tags:laika ライカ japanese rock furuya kan 古谷完 fujinaga ryutaro 藤永龍太郎 ablue
BeatmapID:2729415
BeatmapSetID:1235121

[Difficulty]
HPDrainRate:5
CircleSize:3.8
OverallDifficulty:7
ApproachRate:8
SliderMultiplier:1.2
SliderTickRate:1

[Events]
//Background and Video events
0,0,"bg (5).png",0,0
//Break Periods
2,35767,42076
2,171131,172238
//Storyboard Layer 0 (Background)
//Storyboard Layer 1 (Fail)
//Storyboard Layer 2 (Pass)
//Storyboard Layer 3 (Foreground)
//Storyboard Layer 4 (Overlay)
//Storyboard Sound Samples

[TimingPoints]
730,241.935483870968,4,2,1,70,1,0
4600,-100,4,2,1,70,0,0
12342,-100,4,2,1,60,0,0
20084,-111.111111111111,4,2,1,50,0,0
35568,-111.111111111111,4,2,1,30,0,0
42826,-111.111111111111,4,2,1,50,0,0
43310,-111.111111111111,4,2,1,60,0,0
54802,-111.111111111111,4,2,1,70,0,0
55105,-111.111111111111,4,2,1,5,0,0
55165,-100,4,2,1,70,0,0
62544,-111.111111111111,4,2,1,70,0,0
62846,-111.111111111111,4,2,1,5,0,0
62907,-100,4,2,1,70,0,0
70286,-111.111111111111,4,2,1,70,0,0
70588,-111.111111111111,4,2,1,5,0,0
70649,-100,4,2,1,70,0,0
78028,-111.111111111111,4,2,1,70,0,0
78330,-111.111111111111,4,2,1,5,0,0
78391,-100,4,2,1,70,0,0
85891,-100,4,2,1,60,0,0
93633,-111.111111111111,4,2,1,50,0,0
100891,-111.111111111111,4,2,1,30,0,0
101375,-111.111111111111,4,2,1,50,0,0
109117,-111.111111111111,4,2,1,60,0,0
120488,-111.111111111111,4,2,1,5,0,0
120609,-111.111111111111,4,2,1,70,0,0
120911,-111.111111111111,4,2,1,5,0,0
120971,-100,4,2,1,70,0,0
128350,-111.111111111111,4,2,1,70,0,0
128653,-111.111111111111,4,2,1,70,0,0
128713,-100,4,2,1,70,0,0
136092,-111.111111111111,4,2,1,70,0,0
136395,-111.111111111111,4,2,1,5,0,0
136455,-100,4,2,1,70,0,0
143834,-111.111111111111,4,2,1,70,0,0
144137,-111.111111111111,4,2,1,5,0,0
144197,-100,4,2,1,70,0,0
151697,-100,4,2,1,60,0,0
167181,-111.111111111111,4,2,1,45,0,0
170931,-111.111111111111,4,2,1,50,0,0
178673,-125,4,2,1,60,0,0
184600,-125,4,2,1,70,0,0
186415,-111.111111111111,4,2,1,60,0,0
186717,-111.111111111111,4,2,1,5,0,0
186778,-100,4,2,1,80,0,0
194157,-111.111111111111,4,2,1,80,0,0
194459,-111.111111111111,4,2,1,5,0,0
194520,-100,4,2,1,80,0,0
202020,-100,4,2,1,70,0,0
209762,-111.111111111111,4,2,1,60,0,0
217504,-111.111111111111,4,2,1,30,0,0

[Colours]
Combo1 : 255,136,136
Combo2 : 128,128,255
Combo3 : 254,152,90
Combo4 : 150,150,150

[HitObjects]
290,68,4117,5,8,0:0:0:0:
290,68,4600,6,0,P|348:49|405:37,1,120,12|0,3:2|3:0,0:0:0:0:
425,108,4963,2,0,P|366:120|309:139,1,120,12|0,3:2|3:0,0:0:0:0:
237,120,5326,2,0,P|179:101|122:89,1,120,12|0,3:2|3:0,0:0:0:0:
102,160,5689,2,0,P|161:172|218:191,1,120,12|0,3:2|3:0,0:0:0:0:
290,211,6052,6,0,P|285:270|289:334,2,120,12|12|12,3:2|3:2|3:2,0:0:0:0:
231,377,6778,1,0,3:0:0:0:
231,377,6899,2,0,P|182:343|124:314,1,120,12|0,3:2|3:0,0:0:0:0:
54,320,7262,2,0,P|59:261|55:197,1,120,12|0,3:2|3:0,0:0:0:0:
108,148,7625,2,0,B|176:135|144:96|206:86,1,120,12|0,3:2|3:0,0:0:0:0:
242,22,7988,6,0,P|291:56|349:85,2,120,12|12|12,3:2|3:2|3:2,0:0:0:0:
271,131,8713,1,0,3:0:0:0:
271,131,8834,2,0,P|307:176|296:236,1,120,12|0,3:2|3:0,0:0:0:0:
351,285,9197,2,0,P|400:251|458:222,1,120,12|0,3:2|3:0,0:0:0:0:
445,150,9560,2,0,P|391:124|336:88,1,120,12|0,3:2|3:0,0:0:0:0:
305,27,9923,6,0,B|242:32|258:67|197:73,2,120,12|12|12,3:2|3:2|3:2,0:0:0:0:
125,68,10649,1,0,3:0:0:0:
125,68,10770,2,0,P|126:127|125:187,1,120,12|0,3:2|3:0,0:0:0:0:
179,240,11133,2,0,P|229:270|242:327,1,120,12|0,3:2|3:0,0:0:0:0:
317,335,11496,2,0,P|321:270|332:206,1,120,12|0,3:2|3:0,0:0:0:0:
259,196,11859,1,4,0:0:0:0:
259,196,11980,2,0,P|258:166|255:135,2,60,8|8|8,0:0|0:0|0:0,0:0:0:0:
334,195,12342,6,0,P|391:190|426:129,1,120,4|2,3:2|3:2,0:0:0:0:
403,72,12705,1,0,3:0:0:0:
390,65,12826,1,10,0:0:0:0:
377,58,12947,1,0,3:0:0:0:
364,51,13068,2,0,L|302:39,1,60,2|8,3:2|0:0,0:0:0:0:
237,65,13310,5,2,3:2:0:0:
237,65,13431,2,0,L|119:87,1,120,8|2,0:0|3:2,0:0:0:0:
100,103,13794,2,0,P|90:162|76:220,1,120,10|2,0:0|3:2,0:0:0:0:
93,242,14157,1,8,0:0:0:0:
93,242,14278,6,0,P|158:258|191:305,1,120,6|2,3:2|3:2,0:0:0:0:
256,327,14641,1,0,0:0:0:0:
269,320,14762,1,10,0:0:0:0:
282,313,14883,1,0,3:0:0:0:
295,306,15004,2,0,L|356:320,1,60,2|8,3:2|0:0,0:0:0:0:
421,288,15246,5,2,3:2:0:0:
421,287,15367,2,0,P|419:228|423:168,1,120,8|2,0:0|3:2,0:0:0:0:
408,147,15730,2,0,P|365:105|308:99,1,120,10|8,0:0|3:2,0:0:0:0:
288,83,16092,1,8,0:0:0:0:
288,83,16213,6,0,P|228:84|168:80,1,120,6|2,3:2|3:2,0:0:0:0:
158,103,16576,1,0,0:0:0:0:
158,102,16697,2,0,P|130:113|109:134,1,60,10|0,0:0|3:0,0:0:0:0:
122,207,16939,2,0,P|150:195|171:174,1,60,2|8,3:2|3:2,0:0:0:0:
245,160,17181,5,2,3:2:0:0:
245,160,17302,2,0,P|244:219|249:279,1,120,8|0,0:0|0:0,0:0:0:0:
323,283,17665,2,0,P|315:311|298:336,1,60,10|2,0:0|0:0,0:0:0:0:
398,282,17907,2,0,P|390:253|373:228,1,60,2|8,3:2|0:0,0:0:0:0:
319,179,18149,6,0,P|324:119|323:59,1,120,4|2,3:2|3:2,0:0:0:0:
256,30,18512,1,0,3:0:0:0:
243,23,18633,1,10,0:0:0:0:
230,16,18754,1,0,3:0:0:0:
217,9,18875,2,0,L|156:23,1,60,2|8,3:2|3:2,0:0:0:0:
205,87,19117,5,2,3:2:0:0:
190,91,19238,1,8,0:0:0:0:
176,95,19359,1,2,3:2:0:0:
162,99,19480,2,0,L|146:124,2,30,8|0|8,3:2|0:0|3:2,0:0:0:0:
210,162,19721,1,8,3:2:0:0:
202,175,19842,1,0,3:0:0:0:
195,188,19963,1,0,3:0:0:0:
188,200,20084,6,0,L|211:305,1,107.999996704102,4|0,3:2|3:0,0:0:0:0:
299,351,20568,2,0,P|350:330|364:262,1,107.999996704102,8|0,0:0|3:0,0:0:0:0:
365,259,20931,2,0,L|341:153,1,107.999996704102,8|8,0:0|0:0,0:0:0:0:
355,136,21294,1,0,3:0:0:0:
376,35,21536,2,0,P|419:36|483:29,1,107.999996704102,8|0,0:0|3:0,0:0:0:0:
312,74,22020,6,0,P|258:67|204:68,1,107.999996704102,0|0,3:0|3:0,0:0:0:0:
185,87,22383,1,0,0:0:0:0:
185,87,22504,2,0,P|185:140|179:194,1,107.999996704102,8|0,0:0|3:0,0:0:0:0:
154,206,22867,2,0,P|154:259|160:313,1,107.999996704102,8|8,0:0|0:0,0:0:0:0:
186,320,23230,2,0,P|240:323|282:356,1,107.999996704102,0|8,3:0|0:0,0:0:0:0:
381,322,23713,6,0,L|384:295,3,26.9999991760254,0|0|0|0,3:0|3:0|3:0|3:0,0:0:0:0:
401,341,23955,2,0,P|455:338|497:305,1,107.999996704102,4|0,3:2|3:0,0:0:0:0:
477,197,24439,2,0,P|463:144|454:91,1,107.999996704102,8|0,0:0|3:0,0:0:0:0:
428,108,24802,2,0,B|375:97|376:138|341:161,1,107.999996704102,8|8,0:0|0:0,0:0:0:0:
315,151,25165,2,0,P|261:162|198:164,1,107.999996704102,0|0,3:0|0:0,0:0:0:0:
131,236,25649,6,0,P|104:237|77:243,1,53.9999983520508,0|0,3:0|0:0,0:0:0:0:
54,260,25891,2,0,L|43:152,1,107.999996704102,0|0,3:0|3:0,0:0:0:0:
111,73,26375,2,0,P|165:62|228:60,1,107.999996704102,8|0,0:0|3:0,0:0:0:0:
234,41,26738,2,0,P|288:52|351:54,1,107.999996704102,8|8,0:0|0:0,0:0:0:0:
359,41,27100,1,0,3:0:0:0:
466,62,27342,2,0,L|451:172,1,107.999996704102,8|8,0:0|0:0,0:0:0:0:
438,197,27705,1,8,0:0:0:0:
438,197,27826,6,0,P|433:250|392:283,2,107.999996704102,4|0|8,3:2|3:0|0:0,0:0:0:0:
314,275,28552,1,0,0:0:0:0:
314,275,28673,2,0,P|326:327|325:347,2,53.9999983520508,8|0|8,0:0|3:0|0:0,0:0:0:0:
305,246,29036,2,0,P|252:244|199:233,1,107.999996704102,0|8,3:0|0:0,0:0:0:0:
147,144,29520,6,0,L|144:117,3,26.9999991760254,0|0|0|0,3:0|3:0|3:0|3:0,0:0:0:0:
174,127,29762,2,0,L|185:19,2,107.999996704102,0|0|8,3:0|3:0|0:0,0:0:0:0:
260,40,30488,1,0,3:0:0:0:
260,40,30609,2,0,P|286:45|313:46,2,53.9999983520508,0|0|8,0:0|3:0|0:0,0:0:0:0:
328,75,30971,2,0,L|317:183,1,107.999996704102,0|8,3:0|0:0,0:0:0:0:
421,186,31455,6,0,P|450:205|484:199,1,53.9999983520508,0|0,0:0|0:0,0:0:0:0:
494,191,31697,2,0,P|479:141|434:113,2,107.999996704102,0|0|8,3:0|3:0|0:0,0:0:0:0:
465,294,32423,1,0,3:0:0:0:
465,294,32544,2,0,P|479:318|490:342,2,53.9999983520508,8|0|8,0:0|3:0|0:0,0:0:0:0:
434,301,32907,2,0,L|326:319,1,107.999996704102,0|8,3:0|0:0,0:0:0:0:
254,236,33391,6,0,L|259:209,3,26.9999991760254,0|0|0|0,3:0|3:0|3:0|3:0,0:0:0:0:
228,259,33633,2,0,L|206:153,2,107.999996704102,0|0|8,3:0|3:0|0:0,0:0:0:0:
184,358,34359,1,0,3:0:0:0:
184,357,34480,2,0,P|131:353|103:309,1,107.999996704102,8|8,0:0|0:0,0:0:0:0:
83,286,34842,2,0,P|92:260|111:173,1,107.999996704102,0|0,3:0|3:0,0:0:0:0:
144,169,35205,1,0,3:0:0:0:
175,148,35326,2,0,P|166:122|147:34,1,107.999996704102,0|4,3:0|3:2,0:0:0:0:
197,186,42826,5,8,0:0:0:0:
197,186,43310,6,0,L|304:174,1,107.999996704102,4|0,0:0|3:0,0:0:0:0:
335,154,43673,1,0,0:0:0:0:
349,117,43794,2,0,P|324:70|273:59,1,107.999996704102,8|0,0:0|3:0,0:0:0:0:
248,40,44157,2,0,L|195:52,1,53.9999983520508,8|0,0:0|3:0,0:0:0:0:
173,41,44399,2,0,L|120:53,1,53.9999983520508,8|0,0:0|0:0,0:0:0:0:
81,67,44641,1,0,3:0:0:0:
68,104,44762,2,0,P|81:173|87:227,1,107.999996704102,8|0,0:0|3:0,0:0:0:0:
122,220,45125,1,0,0:0:0:0:
160,213,45246,6,0,P|147:282|141:336,1,107.999996704102,0|0,3:0|3:0,0:0:0:0:
175,336,45609,1,0,0:0:0:0:
214,336,45730,2,0,P|282:377|307:355,1,107.999996704102,8|0,0:0|3:0,0:0:0:0:
305,339,46092,2,0,P|331:334|358:331,1,53.9999983520508,8|0,0:0|3:0,0:0:0:0:
375,317,46334,2,0,P|401:322|428:325,1,53.9999983520508,8|0,0:0|3:0,0:0:0:0:
459,306,46576,1,0,0:0:0:0:
484,279,46697,2,0,L|472:169,1,107.999996704102,8|0,0:0|3:0,0:0:0:0:
447,143,47060,1,0,0:0:0:0:
436,108,47181,6,0,P|383:98|334:75,1,107.999996704102,4|0,3:2|3:0,0:0:0:0:
296,71,47544,1,0,0:0:0:0:
263,89,47665,2,0,P|210:99|161:122,1,107.999996704102,8|0,0:0|3:0,0:0:0:0:
143,121,48028,2,0,L|150:174,1,53.9999983520508,8|0,0:0|3:0,0:0:0:0:
158,196,48270,2,0,L|150:249,1,53.9999983520508,8|0,0:0|3:0,0:0:0:0:
124,278,48512,1,0,0:0:0:0:
123,316,48633,2,0,P|158:357|211:362,1,107.999996704102,8|0,0:0|3:0,0:0:0:0:
239,337,48996,1,8,0:0:0:0:
275,326,49117,6,0,P|266:273|265:219,1,107.999996704102,0|0,3:0|3:0,0:0:0:0:
279,200,49480,2,0,P|278:173|274:146,2,53.9999983520508,0|8|0,0:0|0:0|0:0,0:0:0:0:
307,131,49842,1,0,3:0:0:0:
307,131,49963,2,0,P|334:130|361:126,2,53.9999983520508,8|0|8,0:0|3:0|0:0,0:0:0:0:
373,100,50326,2,0,P|360:50|310:35,1,107.999996704102,0|8,3:0|0:0,0:0:0:0:
284,21,50689,1,8,0:0:0:0:
266,25,50810,1,8,0:0:0:0:
248,29,50931,1,8,0:0:0:0:
231,33,51052,6,0,P|217:85|200:136,1,107.999996704102,0|0,3:0|3:0,0:0:0:0:
131,160,51536,2,0,P|89:167|70:230,1,107.999996704102,8|0,0:0|3:0,0:0:0:0:
56,249,51899,1,8,0:0:0:0:
58,266,52020,1,0,3:0:0:0:
60,283,52141,1,8,0:0:0:0:
62,300,52262,1,0,3:0:0:0:
64,317,52383,1,0,0:0:0:0:
106,350,52504,5,8,0:0:0:0:
149,332,52624,1,8,0:0:0:0:
179,296,52745,1,8,0:0:0:0:
188,250,52866,1,8,0:0:0:0:
229,217,52988,6,0,P|309:232|389:243,2,161.999995056153,0|0|0,1:0|1:0|1:0,0:0:0:0:
167,179,54197,2,0,P|154:166|138:156,3,35.9999989013672,0|0|0|0,3:0|3:0|3:0|3:0,0:0:0:0:
233,142,54802,6,0,P|253:77|287:19,1,134.999995880127,4|0,1:2|0:0,0:0:0:0:
298,36,55165,6,0,P|350:39|388:93,2,120,8|0|8,0:0|1:0|0:0,0:0:0:0:
176,67,55891,2,0,P|117:81|58:89,2,120,0|8|0,1:0|0:0|1:0,0:0:0:0:
293,113,56617,5,8,0:0:0:0:
293,113,56738,2,0,P|294:172|327:227,1,120,4|0,3:2|0:0,0:0:0:0:
283,284,57100,2,0,P|256:269|225:264,1,60,8|0,0:0|0:0,0:0:0:0:
177,317,57342,1,0,3:0:0:0:
177,317,57463,1,0,3:0:0:0:
177,317,57584,2,0,P|150:331|48:344,1,120,8|0,0:0|3:0,0:0:0:0:
74,169,58068,6,0,P|131:184|159:236,1,120,8|0,0:0|3:0,0:0:0:0:
231,206,58431,1,0,3:0:0:0:
231,206,58552,2,0,P|232:176|239:146,1,60,8|0,0:0|0:0,0:0:0:0:
170,121,58794,6,0,P|153:64|122:13,1,120,4|8,1:2|0:0,0:0:0:0:
54,40,59157,2,0,P|47:69|55:97,2,60,0|0|0,0:0|3:0|3:0,0:0:0:0:
122,13,59520,2,0,P|155:11|180:31,1,60,8|0,0:0|0:0,0:0:0:0:
250,20,59762,6,0,L|241:142,2,120,0|8|0,1:0|0:0|3:0,0:0:0:0:
326,34,60367,1,0,3:0:0:0:
326,34,60488,2,0,P|351:47|364:78,1,60,8|0,0:0|0:0,0:0:0:0:
398,141,60730,6,0,P|349:173|336:230,1,120,0|8,1:0|0:0,0:0:0:0:
241,324,61213,1,0,3:0:0:0:
241,324,61334,1,0,3:0:0:0:
241,323,61455,2,0,P|237:293|227:264,1,60,8|0,0:0|0:0,0:0:0:0:
202,196,61697,5,8,0:0:0:0:
79,269,61939,1,8,0:0:0:0:
37,136,62181,2,0,L|71:155,3,40,8|8|8|8,0:0|0:0|0:0|0:0,0:0:0:0:
65,68,62544,6,0,P|132:57|196:36,1,134.999995880127,4|0,1:2|0:0,0:0:0:0:
221,45,62907,6,0,P|278:44|312:91,2,120,8|0|8,0:0|1:0|0:0,0:0:0:0:
173,142,63633,2,0,P|167:201|171:261,2,120,0|8|0,1:0|0:0|1:0,0:0:0:0:
274,103,64359,5,8,0:0:0:0:
273,103,64480,2,0,P|342:94|389:55,1,120,4|0,3:2|0:0,0:0:0:0:
456,67,64842,2,0,P|451:96|453:126,1,60,8|0,0:0|0:0,0:0:0:0:
391,163,65084,1,0,3:0:0:0:
391,163,65205,1,0,3:0:0:0:
391,163,65326,2,0,P|401:209|406:295,1,120,8|0,0:0|3:0,0:0:0:0:
226,315,65810,6,0,P|231:257|279:226,1,120,8|0,0:0|3:0,0:0:0:0:
311,160,66173,1,0,3:0:0:0:
308,141,66294,1,8,3:0:0:0:
305,122,66415,1,8,3:0:0:0:
301,102,66536,6,0,P|244:87|188:64,1,120,4|8,1:2|0:0,0:0:0:0:
126,26,66899,2,0,P|97:22|68:28,2,60,0|0|0,0:0|3:0|3:0,0:0:0:0:
124,99,67262,2,0,P|131:158|135:218,1,120,8|0,0:0|3:0,0:0:0:0:
261,302,67746,6,0,P|263:272|266:242,1,60,8|0,0:0|0:0,0:0:0:0:
340,246,67988,2,0,P|336:275|334:305,1,60,0|0,3:0|3:0,0:0:0:0:
407,308,68230,2,0,P|409:278|413:249,1,60,8|0,0:0|0:0,0:0:0:0:
479,216,68471,6,0,P|475:159|426:128,1,120,0|8,1:0|0:0,0:0:0:0:
325,28,68955,1,0,1:0:0:0:
325,28,69076,1,0,0:0:0:0:
324,28,69197,2,0,P|298:42|269:50,1,60,8|8,0:0|0:0,0:0:0:0:
221,104,69439,5,8,0:0:0:0:
202,100,69560,1,0,3:0:0:0:
183,96,69681,1,0,3:0:0:0:
164,92,69802,1,0,3:0:0:0:
132,62,69923,2,0,L|84:76,3,40,8|8|8|8,0:0|0:0|0:0|0:0,0:0:0:0:
112,143,70286,6,0,P|107:211|90:276,1,134.999995880127,4|0,1:2|0:0,0:0:0:0:
113,293,70649,6,0,P|132:351|192:372,2,120,8|0|8,0:0|1:0|0:0,0:0:0:0:
143,187,71375,2,0,P|95:150|54:104,2,120,0|8|0,1:0|0:0|1:0,0:0:0:0:
190,290,72100,5,8,0:0:0:0:
190,289,72221,2,0,P|243:262|302:258,1,120,4|0,3:2|3:0,0:0:0:0:
337,192,72584,2,0,P|364:206|394:215,1,60,8|0,0:0|0:0,0:0:0:0:
442,283,72826,1,0,3:0:0:0:
442,283,72947,1,0,3:0:0:0:
442,283,73068,2,0,P|494:259|509:202,1,120,8|0,0:0|3:0,0:0:0:0:
430,73,73552,6,0,P|387:77|301:73,1,120,8|0,0:0|3:0,0:0:0:0:
251,30,73915,1,0,3:0:0:0:
251,30,74036,2,0,L|200:23,2,40,8|8|8,0:0|0:0|0:0,0:0:0:0:
177,47,74278,6,0,P|190:105|196:167,1,120,4|8,1:2|0:0,0:0:0:0:
246,219,74641,2,0,P|227:253|235:292,2,60,0|0|0,3:0|3:0|3:0,0:0:0:0:
269,149,75004,2,0,P|298:154|328:157,1,60,8|0,0:0|0:0,0:0:0:0:
371,217,75246,6,0,P|357:275|352:337,2,120,0|8|0,3:0|0:0|3:0,0:0:0:0:
405,151,75850,1,0,3:0:0:0:
405,151,75971,2,0,P|402:121|395:91,1,60,8|0,0:0|3:0,0:0:0:0:
334,51,76213,6,0,P|277:43|235:83,1,120,0|8,3:0|0:0,0:0:0:0:
110,135,76697,1,0,3:0:0:0:
110,135,76818,1,0,3:0:0:0:
110,135,76939,2,0,P|116:164|119:194,1,60,8|0,0:0|3:0,0:0:0:0:
176,241,77181,5,8,0:0:0:0:
141,370,77423,1,8,0:0:0:0:
279,381,77665,1,0,3:0:0:0:
274,364,77786,1,0,3:0:0:0:
269,347,77907,1,8,0:0:0:0:
290,312,78028,6,0,P|299:270|335:168,1,134.999995880127,4|0,1:2|0:0,0:0:0:0:
333,149,78391,6,0,P|284:116|227:129,2,120,8|0|8,0:0|1:0|0:0,0:0:0:0:
412,79,79117,2,0,P|451:33|503:5,2,120,0|8|0,1:0|0:0|1:0,0:0:0:0:
408,182,79842,5,8,0:0:0:0:
407,182,79963,2,0,P|401:241|415:299,1,120,4|0,3:2|0:0,0:0:0:0:
368,354,80326,2,0,P|341:341|311:345,1,60,8|0,0:0|0:0,0:0:0:0:
248,308,80568,1,0,3:0:0:0:
248,308,80689,1,0,3:0:0:0:
248,308,80810,2,0,P|185:321|129:326,1,120,8|0,0:0|3:0,0:0:0:0:
34,208,81294,6,0,P|47:152|98:125,1,120,8|0,0:0|1:0,0:0:0:0:
172,154,81657,1,0,3:0:0:0:
172,154,81778,2,0,L|172:104,2,40,8|8|8,0:0|0:0|0:0,0:0:0:0:
198,177,82020,6,0,P|261:164|316:158,1,120,4|8,1:2|0:0,0:0:0:0:
362,101,82383,2,0,P|353:72|330:54,2,60,0|2|0,0:0|1:2|3:0,0:0:0:0:
389,170,82746,2,0,P|417:176|444:165,1,60,8|0,0:0|0:0,0:3:0:0:
493,220,82988,6,0,P|462:271|444:328,2,120,2|8|0,1:2|0:0|3:0,0:0:0:0:
478,148,83592,1,0,3:0:0:0:
478,148,83713,2,0,P|456:109|457:79,1,60,10|0,0:0|0:0,0:0:0:0:
400,47,83955,6,0,P|339:42|305:89,1,120,4|8,1:2|0:0,0:0:0:0:
160,108,84439,2,0,P|221:103|255:150,1,120,2|8,1:2|0:0,0:0:0:0:
240,187,84802,5,0,0:0:0:0:
272,216,84923,2,0,P|330:203|390:198,1,120,2|8,1:2|0:0,0:0:0:0:
394,176,85286,1,8,0:0:0:0:
384,156,85407,2,0,L|395:115,2,40,8|8|8,0:0|0:0|0:0,0:0:0:0:
336,75,85649,2,0,L|347:16,1,60,8|8,0:0|0:0,0:0:0:0:
277,0,85891,6,0,P|210:10|165:62,1,120,4|2,3:2|3:2,0:0:0:0:
105,68,86254,1,0,3:0:0:0:
107,85,86375,1,8,0:0:0:0:
109,102,86496,1,2,3:2:0:0:
111,119,86617,2,0,L|92:176,1,60,0|8,3:0|0:0,0:0:0:0:
153,225,86859,5,2,3:2:0:0:
153,225,86980,2,0,L|178:346,1,120,8|2,0:0|3:2,0:0:0:0:
203,344,87342,2,0,P|261:344|306:306,1,120,8|2,0:0|3:2,0:0:0:0:
335,310,87705,1,8,0:0:0:0:
335,310,87826,6,0,P|321:255|364:210,1,120,4|2,3:2|3:2,0:0:0:0:
431,193,88189,1,0,0:0:0:0:
434,177,88310,1,8,0:0:0:0:
437,161,88431,1,2,3:2:0:0:
440,145,88552,2,0,L|427:86,1,60,0|0,3:0|3:0,0:0:0:0:
373,40,88794,5,2,3:2:0:0:
372,40,88915,2,0,P|314:57|255:68,1,120,8|2,0:0|3:2,0:0:0:0:
233,54,89278,2,0,P|182:82|170:138,1,120,8|10,0:0|3:2,0:0:0:0:
138,155,89641,1,8,0:0:0:0:
138,155,89762,2,0,P|78:165|21:183,1,120,4|2,3:2|3:2,0:0:0:0:
29,213,90125,1,0,0:0:0:0:
28,213,90246,6,0,P|13:238|10:268,1,60,8|2,0:0|3:2,0:0:0:0:
66,316,90488,2,0,P|81:290|84:260,1,60,0|8,3:0|3:2,0:0:0:0:
155,233,90730,5,2,3:2:0:0:
155,233,90850,2,0,P|214:224|276:226,1,120,8|0,0:0|0:0,0:0:0:0:
302,294,91213,2,0,P|339:262|347:240,1,60,8|2,0:0|0:0,0:0:0:0:
332,180,91455,2,0,P|315:155|290:138,1,60,0|8,3:0|0:0,0:0:0:0:
218,149,91697,6,0,P|214:90|218:30,1,120,4|2,3:2|3:2,0:0:0:0:
290,27,92060,1,0,3:0:0:0:
303,20,92181,1,8,0:0:0:0:
316,13,92302,1,2,3:2:0:0:
329,6,92423,2,0,L|390:20,1,60,0|8,3:0|3:2,0:0:0:0:
341,84,92665,5,2,3:2:0:0:
356,88,92786,1,8,0:0:0:0:
370,92,92907,1,0,3:0:0:0:
384,96,93028,2,0,L|400:121,2,30,10|8|8,3:2|3:2|3:2,0:0:0:0:
336,159,93270,1,8,3:2:0:0:
344,172,93391,1,2,3:2:0:0:
351,185,93512,1,2,3:2:0:0:
358,197,93633,6,0,L|335:302,1,107.999996704102,4|0,3:2|3:0,0:0:0:0:
233,302,94117,2,0,P|181:312|141:347,1,107.999996704102,8|0,0:0|3:0,0:0:0:0:
114,340,94480,2,0,L|91:235,1,107.999996704102,8|8,0:0|0:0,0:0:0:0:
107,214,94842,1,0,3:0:0:0:
124,111,95084,2,0,P|72:101|18:106,1,107.999996704102,8|0,0:0|3:0,0:0:0:0:
191,172,95568,6,0,P|244:176|297:166,1,107.999996704102,0|0,3:0|3:0,0:0:0:0:
310,137,95931,1,0,0:0:0:0:
310,137,96052,2,0,P|314:105|387:62,1,107.999996704102,8|0,0:0|3:0,0:0:0:0:
395,73,96415,2,0,P|429:116|469:152,1,107.999996704102,8|8,0:0|0:0,0:0:0:0:
476,180,96778,2,0,L|464:287,1,107.999996704102,0|8,3:0|0:0,0:0:0:0:
435,374,97262,6,0,L|410:385,3,26.9999991760254,0|0|0|0,3:0|3:0|3:0|3:0,0:0:0:0:
412,353,97504,2,0,P|361:333|316:303,1,107.999996704102,4|0,3:2|3:0,0:0:0:0:
247,241,97988,2,0,P|199:263|187:314,1,107.999996704102,8|0,0:0|3:0,0:0:0:0:
170,334,98350,2,0,P|119:353|74:383,1,107.999996704102,8|8,0:0|0:0,0:0:0:0:
50,368,98713,2,0,L|39:260,1,107.999996704102,0|8,3:0|0:0,0:0:0:0:
60,167,99197,6,0,L|65:113,1,53.9999983520508,0|0,3:0|0:0,0:0:0:0:
46,93,99439,2,0,P|112:72|160:38,1,107.999996704102,0|0,3:0|3:0,0:0:0:0:
242,70,99923,2,0,P|291:88|310:136,1,107.999996704102,8|0,0:0|3:0,0:0:0:0:
296,161,100286,2,0,P|362:182|410:216,1,107.999996704102,8|8,0:0|0:0,0:0:0:0:
423,196,100649,2,0,P|419:249|422:303,1,107.999996704102,0|0,3:0|3:0,0:0:0:0:
393,324,101012,1,0,3:0:0:0:
357,331,101133,1,0,3:0:0:0:
264,307,101375,6,0,L|158:286,2,107.999996704102,0|0|8,3:0|3:0|0:0,0:0:0:0:
172,213,102100,1,0,3:0:0:0:
171,213,102221,2,0,P|182:188|205:174,2,53.9999983520508,8|0|8,0:0|3:0|0:0,0:0:0:0:
142,213,102584,2,0,P|99:180|69:133,1,107.999996704102,0|8,3:0|0:0,0:0:0:0:
100,46,103068,6,0,L|106:6,3,26.9999991760254,0|0|0|0,3:0|3:0|3:0|3:0,0:0:0:0:
130,51,103310,2,0,P|177:28|231:43,2,107.999996704102,0|0|8,3:0|3:0|0:0,0:0:0:0:
282,99,104036,1,0,3:0:0:0:
282,99,104157,2,0,P|302:73|320:45,2,53.9999983520508,8|0|8,0:0|3:0|0:0,0:0:0:0:
345,59,104520,2,0,P|394:79|404:134,1,107.999996704102,0|8,3:0|0:0,0:0:0:0:
472,205,105004,6,0,P|463:230|460:257,1,53.9999983520508,0|0,3:0|0:0,0:0:0:0:
434,268,105246,2,0,P|385:288|375:343,2,107.999996704102,0|0|8,3:0|3:0|0:0,0:0:0:0:
376,180,105971,1,0,3:0:0:0:
376,180,106092,2,0,P|346:174|325:163,2,53.9999983520508,8|0|8,0:0|3:0|0:0,0:0:0:0:
299,183,106455,2,0,P|250:206|198:220,1,107.999996704102,0|8,3:0|0:0,0:0:0:0:
113,185,106939,6,0,L|115:158,3,26.9999991760254,0|0|0|0,3:0|3:0|3:0|3:0,0:0:0:0:
102,212,107181,2,0,L|112:318,2,107.999996704102,0|0|8,3:0|3:0|0:0,0:0:0:0:
40,135,107907,1,0,3:0:0:0:
40,135,108028,2,0,P|5:102|23:27,1,107.999996704102,8|8,0:0|0:0,0:0:0:0:
33,25,108391,2,0,P|86:28|144:22,1,107.999996704102,0|8,3:0|0:0,0:0:0:0:
233,101,108875,5,4,3:0:0:0:
233,101,108996,1,4,3:0:0:0:
233,101,109117,2,0,P|286:95|340:98,1,107.999996704102,4|0,3:2|3:0,0:0:0:0:
408,71,109600,2,0,P|454:94|466:145,1,107.999996704102,8|0,0:0|3:0,0:0:0:0:
433,212,110084,1,0,3:0:0:0:
433,212,110205,2,0,P|424:241|422:264,1,53.9999983520508,8|0,0:0|3:0,0:0:0:0:
349,268,110568,2,0,P|351:321|349:375,1,107.999996704102,8|8,0:0|3:0,0:0:0:0:
321,370,110931,1,8,3:0:0:0:
320,370,111052,6,0,P|269:368|241:324,2,107.999996704102,0|0|8,3:0|3:0|0:0,0:0:0:0:
168,330,111778,1,0,3:0:0:0:
168,330,111899,2,0,P|162:298|149:271,2,53.9999983520508,8|0|8,0:0|3:0|0:0,0:0:0:0:
224,252,112262,1,0,3:0:0:0:
224,252,112383,2,0,P|228:239|240:222,2,26.9999991760254,0|0|8,3:0|3:0|0:0,0:0:0:0:
134,172,112746,5,0,3:0:0:0:
134,172,112867,1,0,0:0:0:0:
134,172,112988,2,0,P|121:119|90:76,2,107.999996704102,4|0|8,3:2|3:0|0:0,0:0:0:0:
170,56,113713,1,0,3:0:0:0:
170,56,113834,2,0,P|202:34|230:37,2,53.9999983520508,8|0|8,0:0|3:0|0:0,0:0:0:0:
237,37,114197,2,0,P|263:85|299:127,1,107.999996704102,0|8,3:0|0:0,0:0:0:0:
320,205,114681,1,0,3:0:0:0:
320,205,114802,1,0,3:0:0:0:
320,205,114923,6,0,P|369:216|390:276,2,107.999996704102,0|0|8,3:0|3:0|0:0,0:0:0:0:
298,277,115770,2,0,P|266:284|245:311,2,53.9999983520508,8|0|8,0:0|3:0|0:0,0:0:0:0:
224,301,116133,2,0,L|170:292,1,53.9999983520508,0|0,3:0|0:0,0:0:0:0:
146,308,116375,2,0,L|107:197,1,107.999996704102,8|0,0:0|3:0,0:0:0:0:
129,135,116859,6,0,P|110:101|38:89,2,107.999996704102,4|0|8,3:2|3:0|0:0,0:0:0:0:
185,190,117584,1,0,3:0:0:0:
185,190,117705,2,0,P|211:187|237:178,2,53.9999983520508,8|0|8,0:0|3:0|0:0,0:0:0:0:
260,186,118068,2,0,P|286:188|312:197,1,53.9999983520508,0|0,3:0|3:0,0:0:0:0:
335,181,118310,2,0,P|367:170|386:93,1,107.999996704102,8|0,0:0|3:0,0:0:0:0:
348,46,118794,6,0,L|295:57,1,53.9999983520508,0|0,3:0|3:0,0:0:0:0:
265,36,119036,1,0,3:0:0:0:
265,36,119157,2,0,L|221:67,1,53.9999983520508,8|0,0:0|3:0,0:0:0:0:
185,62,119399,1,0,3:0:0:0:
185,62,119520,2,0,L|159:109,1,53.9999983520508,8|8,0:0|0:0,0:0:0:0:
126,141,119762,6,0,L|131:176,2,35.9999989013672,0|0|0,3:0|3:0|3:0,0:0:0:0:
162,209,120004,2,0,L|156:244,2,35.9999989013672,0|0|0,3:0|3:0|3:0,0:0:0:0:
119,271,120246,6,0,P|88:305|76:374,1,107.999996704102,8|0,0:0|0:0,0:0:0:0:
102,378,120609,6,0,P|168:364|218:313,1,134.999995880127,4|0,1:2|0:0,0:0:0:0:
242,329,120971,6,0,P|299:331|325:382,2,120,8|0|8,0:0|1:0|0:0,0:0:0:0:
220,228,121697,2,0,P|215:154|202:104,2,120,0|8|0,1:0|0:0|1:0,0:0:0:0:
323,261,122423,5,8,0:0:0:0:
323,261,122544,2,0,P|385:245|403:189,1,120,4|0,3:2|3:0,0:0:0:0:
473,173,122907,2,0,P|462:145|456:115,1,60,8|0,0:0|0:0,0:0:0:0:
481,47,123149,1,0,3:0:0:0:
481,47,123270,1,0,3:0:0:0:
481,47,123391,2,0,P|428:36|354:37,1,120,8|0,0:0|3:0,0:0:0:0:
228,81,123875,6,0,P|217:138|168:170,1,120,8|0,0:0|1:0,0:0:0:0:
120,226,124238,1,0,3:0:0:0:
120,226,124359,2,0,P|123:255|119:285,1,60,8|0,0:0|0:0,0:0:0:0:
183,321,124600,6,0,P|241:331|294:359,1,120,4|8,1:2|0:0,0:0:0:0:
338,299,124963,2,0,P|334:269|338:239,2,60,0|0|0,0:0|3:0|3:0,0:0:0:0:
369,366,125326,2,0,P|398:362|427:354,1,60,8|0,0:0|0:0,0:0:0:0:
453,285,125568,6,0,P|483:235|470:178,2,120,0|8|0,3:0|0:0|1:0,0:0:0:0:
390,246,126173,1,0,3:0:0:0:
390,246,126294,2,0,P|369:223|343:209,1,60,8|0,0:0|0:0,0:0:0:0:
281,168,126536,6,0,P|228:194|169:208,1,120,4|8,3:2|0:0,0:0:0:0:
57,66,127020,1,0,3:0:0:0:
57,66,127141,1,0,3:0:0:0:
57,66,127262,2,0,P|85:75|105:97,1,60,8|0,0:0|0:0,0:0:0:0:
107,171,127504,5,8,0:0:0:0:
24,280,127746,1,8,0:0:0:0:
146,344,127988,2,0,L|127:308,3,40,8|8|8|8,0:0|0:0|0:0|0:0,0:0:0:0:
204,297,128350,6,0,P|268:317|334:329,1,134.999995880127,4|0,1:2|3:0,0:0:0:0:
355,318,128713,6,0,P|412:314|446:361,2,120,8|0|8,0:0|1:0|0:0,0:0:0:0:
316,218,129439,2,0,P|319:158|314:98,2,120,0|8|0,1:0|0:0|1:0,0:0:0:0:
281,315,130165,5,8,0:0:0:0:
281,315,130286,2,0,P|223:318|189:271,1,120,4|0,3:2|3:0,0:0:0:0:
135,223,130649,2,0,P|136:193|134:163,1,60,8|0,0:0|3:0,0:0:0:0:
186,111,130891,1,0,3:0:0:0:
186,111,131012,1,0,3:0:0:0:
186,111,131133,2,0,P|215:69|272:24,1,120,8|0,0:0|3:0,0:0:0:0:
404,93,131617,6,0,P|456:117|473:172,1,120,8|0,0:0|3:0,0:0:0:0:
426,228,131980,1,0,3:0:0:0:
423,247,132101,1,4,3:0:0:0:
420,266,132222,1,0,3:0:0:0:
416,286,132343,6,0,P|359:301|303:324,1,120,4|8,1:2|0:0,0:0:0:0:
240,287,132705,2,0,P|238:257|247:228,2,60,0|0|0,0:0|3:0|3:0,0:0:0:0:
239,361,133068,2,0,P|180:358|138:317,1,120,8|0,0:0|3:0,0:0:0:0:
22,190,133552,6,0,P|36:163|45:135,1,60,8|0,0:0|0:0,0:0:0:0:
114,164,133794,2,0,P|104:192|90:218,1,60,0|0,3:0|3:0,0:0:0:0:
158,246,134036,2,0,P|172:219|181:191,1,60,8|0,0:0|0:0,0:0:0:0:
246,155,134278,6,0,P|249:100|314:67,1,120,0|8,1:0|0:0,0:0:0:0:
423,163,134762,1,0,1:0:0:0:
423,163,134883,1,0,0:0:0:0:
422,162,135004,2,0,P|413:192|391:212,1,60,8|0,0:0|0:0,0:0:0:0:
347,269,135246,5,0,1:0:0:0:
351,288,135367,1,0,0:0:0:0:
355,307,135488,1,8,0:0:0:0:
359,326,135609,1,0,0:0:0:0:
328,345,135730,2,0,L|318:383,3,40,8|8|8|8,0:0|0:0|0:0|0:0,0:0:0:0:
277,292,136092,6,0,P|206:303|138:301,1,134.999995880127,4|0,1:2|0:0,0:0:0:0:
135,285,136455,6,0,P|85:281|46:336,2,120,8|0|8,0:0|1:0|0:0,0:0:0:0:
177,193,137181,2,0,P|160:150|151:67,2,120,0|8|0,1:0|0:0|1:0,0:0:0:0:
258,258,137907,5,8,0:0:0:0:
258,258,138028,2,0,P|311:216|319:165,1,120,4|0,3:2|3:0,0:0:0:0:
384,131,138391,2,0,P|380:101|370:73,1,60,8|0,0:0|0:0,0:0:0:0:
301,96,138633,1,0,3:0:0:0:
301,96,138754,1,0,3:0:0:0:
301,96,138875,2,0,P|248:54|240:3,1,120,8|0,0:0|3:0,0:0:0:0:
94,56,139359,6,0,P|98:115|95:175,1,120,8|0,0:0|3:0,0:0:0:0:
146,236,139721,1,0,3:0:0:0:
146,236,139842,2,0,P|145:255|149:275,2,40,8|8|8,0:0|0:0|0:0,0:0:0:0:
145,311,140084,6,0,P|204:316|262:333,1,120,4|8,1:2|0:0,0:0:0:0:
317,284,140447,2,0,P|334:308|337:338,2,60,0|0|0,3:0|0:0|0:0,0:0:0:0:
251,251,140810,2,0,P|253:221|270:197,1,60,8|0,0:0|0:0,0:0:0:0:
272,124,141052,6,0,P|241:74|183:68,2,120,0|8|0,3:0|0:0|3:0,0:0:0:0:
339,166,141657,1,0,3:0:0:0:
338,165,141778,2,0,P|368:165|396:153,1,60,8|0,0:0|0:0,0:0:0:0:
460,192,142020,6,0,P|478:246|451:298,1,120,0|8,3:0|0:0,0:0:0:0:
324,363,142504,1,0,3:0:0:0:
324,363,142625,1,0,3:0:0:0:
323,362,142746,2,0,P|298:345|269:336,1,60,8|0,0:0|0:0,0:0:0:0:
216,286,142988,5,0,3:0:0:0:
197,291,143109,1,0,3:0:0:0:
178,296,143230,1,12,0:0:0:0:
87,218,143471,5,0,3:0:0:0:
92,199,143592,1,0,3:0:0:0:
97,180,143713,1,8,0:0:0:0:
134,160,143834,6,0,L|119:25,1,134.999995880127,4|0,1:2|0:0,0:0:0:0:
158,14,144197,6,0,P|216:12|254:55,2,120,8|0|8,0:0|1:0|0:0,0:0:0:0:
90,80,144923,2,0,P|33:64|-1:16,2,120,0|8|0,1:0|0:0|1:0,0:0:0:0:
139,164,145649,5,8,0:0:0:0:
139,163,145770,2,0,P|155:221|162:281,1,120,4|0,3:2|3:0,0:0:0:0:
217,332,146133,2,0,P|236:309|261:291,1,60,8|0,0:0|0:0,0:0:0:0:
312,240,146375,1,0,3:0:0:0:
312,240,146496,1,0,3:0:0:0:
312,240,146617,2,0,P|364:269|420:291,1,120,8|0,0:0|3:0,0:0:0:0:
459,107,147100,6,0,P|400:101|351:133,1,120,8|0,0:0|3:0,0:0:0:0:
280,121,147463,1,0,3:0:0:0:
280,121,147584,2,0,L|276:81,2,40,8|8|8,0:0|0:0|0:0,0:0:0:0:
257,142,147826,6,0,P|198:147|149:115,1,120,4|8,1:2|0:0,0:0:0:0:
79,90,148189,2,0,P|89:63|93:33,2,60,0|2|0,0:0|1:2|3:0,0:0:0:0:
93,162,148552,2,0,P|96:191|107:219,1,60,8|0,0:0|0:0,0:0:0:0:
68,282,148794,6,0,P|19:309|9:369,2,120,2|8|0,1:2|0:0|3:0,0:0:0:0:
146,288,149399,1,0,3:0:0:0:
146,288,149520,2,0,P|173:299|203:304,1,60,10|0,0:0|0:0,0:0:0:0:
276,329,149762,6,0,P|301:276|358:266,1,120,4|8,1:2|0:0,0:0:0:0:
496,282,150246,2,0,P|470:229|413:219,1,120,2|8,1:2|0:0,0:0:0:0:
387,185,150609,5,0,0:0:0:0:
404,145,150730,2,0,P|402:86|404:26,1,120,2|8,1:2|0:0,0:0:0:0:
386,14,151092,1,8,0:0:0:0:
368,10,151213,2,0,L|311:19,2,40,8|8|8,1:2|1:2|1:2,0:0:0:0:
301,42,151455,2,0,L|244:33,2,40,8|8|8,1:2|1:2|1:2,0:0:0:0:
234,11,151697,6,0,P|186:47|134:77,1,120,6|10,1:2|0:0,0:0:0:0:
128,101,152060,2,0,P|75:124|69:181,1,120,2|0,3:2|3:0,0:0:0:0:
59,210,152423,2,0,P|85:223|104:246,1,60,10|0,0:0|0:0,0:0:0:0:
129,238,152665,6,0,P|181:261|187:318,1,120,2|10,1:2|0:0,0:0:0:0:
214,333,153028,1,0,0:0:0:0:
214,333,153149,2,0,L|278:324,2,60,2|0|10,1:2|3:0|0:0,0:0:0:0:
320,268,153633,6,0,P|317:208|321:148,1,120,6|10,1:2|0:0,0:0:0:0:
300,129,153996,2,0,P|287:71|229:57,1,120,2|0,1:2|0:0,0:0:0:0:
217,32,154359,2,0,P|182:59|161:71,1,60,10|0,0:0|0:0,0:0:0:0:
155,95,154600,6,0,P|157:154|153:214,2,120,2|10|2,1:2|0:0|0:0,0:0:0:0:
231,248,155326,1,10,0:0:0:0:
231,248,155447,1,8,0:0:0:0:
230,248,155568,6,0,P|240:303|296:320,1,120,6|10,1:2|0:0,0:0:0:0:
321,336,155931,2,0,P|372:305|429:288,1,120,2|0,1:2|0:0,0:0:0:0:
443,264,156294,2,0,P|441:234|442:204,1,60,10|0,0:0|0:0,0:0:0:0:
423,173,156536,6,0,P|407:117|353:94,1,120,2|10,1:2|0:0,0:0:0:0:
336,74,156899,1,0,0:0:0:0:
336,74,157020,2,0,L|259:91,2,60,2|0|10,1:2|3:0|0:0,0:0:0:0:
218,46,157504,6,0,P|167:77|111:99,1,120,6|10,1:2|0:0,0:0:0:0:
102,125,157867,2,0,P|52:154|45:212,1,120,2|0,1:2|0:0,0:0:0:0:
42,242,158230,2,0,P|69:252|95:268,1,60,10|0,0:0|0:0,0:0:0:0:
127,258,158471,6,0,P|187:287|190:359,1,120,2|8,1:2|0:0,0:0:0:0:
234,345,158834,1,0,0:0:0:0:
234,344,158955,2,0,P|256:334|290:330,2,40,8|8|8,0:0|0:0|0:0,0:0:0:0:
298,305,159197,2,0,L|305:245,1,60,8|0,0:0|3:0,0:0:0:0:
293,218,159439,6,0,P|236:206|213:153,1,120,6|10,1:2|0:0,0:0:0:0:
190,145,159802,2,0,P|194:85|191:25,1,120,2|0,1:2|0:0,0:0:0:0:
220,11,160165,2,0,P|250:37|271:48,1,60,10|0,0:0|0:0,0:0:0:0:
287,73,160407,6,0,P|343:54|402:47,1,120,2|10,1:2|0:0,0:0:0:0:
430,63,160770,1,0,0:0:0:0:
430,63,160891,2,0,P|447:87|468:108,2,60,2|0|10,1:2|3:0|0:0,0:0:0:0:
464,182,161375,6,0,P|462:239|414:272,1,120,6|10,1:2|0:0,0:0:0:0:
397,297,161738,2,0,P|340:277|281:270,1,120,2|0,1:2|0:0,0:0:0:0:
267,244,162100,2,0,P|238:253|209:257,1,60,10|0,0:0|0:0,0:0:0:0:
179,273,162342,6,0,P|126:253|113:197,2,120,2|10|2,1:2|0:0|3:2,0:0:0:0:
158,138,163068,1,10,0:0:0:0:
158,138,163189,1,8,0:0:0:0:
158,138,163310,6,0,P|183:83|204:27,1,120,6|10,1:2|0:0,0:0:0:0:
228,37,163673,2,0,P|279:45|298:120,1,120,2|0,1:2|0:0,0:0:0:0:
323,123,164036,2,0,P|352:123|378:109,1,60,10|0,0:0|0:0,0:0:0:0:
406,125,164278,6,0,P|380:179|359:235,1,120,2|10,1:2|0:0,0:0:0:0:
337,257,164641,1,0,0:0:0:0:
337,257,164762,2,0,P|355:303|358:330,2,60,2|0|10,1:2|3:0|0:0,0:0:0:0:
300,362,165246,6,0,L|226:344,1,60,8|0,0:0|3:0,0:0:0:0:
219,361,165488,2,0,L|159:313,1,60,8|0,0:0|3:0,0:0:0:0:
146,325,165730,2,0,L|112:256,1,60,8|0,0:0|3:0,0:0:0:0:
95,261,165971,2,0,L|93:184,1,60,8|8,0:0|0:0,0:0:0:0:
74,181,166213,6,0,L|122:70,1,120,8|8,0:0|0:0,0:0:0:0:
149,73,166576,1,0,0:0:0:0:
149,73,166697,2,0,L|140:17,2,40,8|8|8,0:0|0:0|0:0,0:0:0:0:
170,1,166939,2,0,P|200:13|227:19,1,60,8|0,0:0|3:0,0:0:0:0:
244,49,167181,6,0,P|320:60|336:134,1,161.999995056153,0|0,3:0|3:0,0:0:0:0:
362,148,167665,2,0,P|342:198|332:251,1,107.999996704102,8|0,0:0|3:0,0:0:0:0:
310,267,168028,2,0,P|258:275|232:320,1,107.999996704102,8|8,0:0|0:0,0:0:0:0:
206,333,168391,2,0,P|196:279|176:229,1,107.999996704102,0|8,3:0|0:0,0:0:0:0:
177,157,168875,1,0,3:0:0:0:
222,98,169117,6,0,P|258:61|311:65,1,107.999996704102,8|0,0:0|3:0,0:0:0:0:
339,65,169480,2,0,P|319:115|309:168,1,107.999996704102,8|0,0:0|3:0,0:0:0:0:
336,168,169842,2,0,P|388:172|425:135,1,107.999996704102,8|0,0:0|3:0,0:0:0:0:
453,143,170205,1,0,3:0:0:0:
453,143,170326,2,0,P|460:159|462:177,3,35.9999989013672,8|0|0|8,3:0|3:0|3:0|3:2,0:0:0:0:
422,238,170931,5,4,1:2:0:0:
422,238,172988,5,4,3:2:0:0:
422,238,174923,5,4,3:2:0:0:
422,238,175891,5,8,3:0:0:0:
418,255,176254,1,8,3:0:0:0:
407,269,176617,1,8,3:0:0:0:
391,276,176859,5,4,3:2:0:0:
391,276,178673,5,4,1:2:0:0:
391,276,179036,5,0,3:0:0:0:
379,267,179278,1,0,3:0:0:0:
364,264,179520,1,0,3:0:0:0:
349,265,179762,1,0,3:0:0:0:
335,270,180004,1,0,3:0:0:0:
320,272,180246,1,0,3:0:0:0:
306,267,180488,6,0,L|303:217,2,48,0|8|0,3:0|0:0|3:0,0:0:0:0:
291,269,180971,1,0,3:0:0:0:
278,276,181213,1,0,3:0:0:0:
272,289,181455,1,0,3:0:0:0:
271,305,181697,1,0,3:0:0:0:
243,336,181939,6,0,P|196:344|153:364,1,96,0|0,3:0|3:0,0:0:0:0:
118,356,182302,2,0,P|97:347|83:328,2,48,8|0|8,0:0|3:0|0:0,0:0:0:0:
94,303,182665,6,0,P|90:255|94:207,2,96,4|0|0,3:2|3:0|3:0,0:0:0:0:
165,278,183391,1,0,3:0:0:0:
213,223,183633,1,0,3:0:0:0:
281,196,183875,1,0,3:0:0:0:
355,203,184117,1,0,3:0:0:0:
427,185,184359,1,0,3:0:0:0:
452,116,184600,6,0,P|407:98|367:71,1,96,4|8,1:2|0:0,0:0:0:0:
336,77,184963,1,8,0:0:0:0:
316,74,185084,1,8,0:0:0:0:
297,72,185205,1,8,0:0:0:0:
278,70,185326,1,8,0:0:0:0:
259,68,185447,1,8,0:0:0:0:
231,49,185568,6,0,L|203:24,6,32,8|8|8|8|8|10|10,3:2|3:2|3:2|3:2|3:2|3:2|3:2,0:0:0:0:
253,160,186415,6,0,P|258:228|256:295,1,134.999995880127,4|0,1:2|0:0,0:0:0:0:
283,294,186778,6,0,P|340:289|373:336,2,120,8|0|8,0:0|1:0|0:0,0:0:0:0:
204,353,187504,2,0,P|145:342|85:345,2,120,0|8|0,1:0|0:0|1:0,0:0:0:0:
305,367,188230,5,8,0:0:0:0:
305,367,188350,2,0,P|363:356|423:359,1,120,4|0,3:2|0:0,0:0:0:0:
469,303,188713,2,0,P|483:276|484:246,1,60,8|0,0:0|0:0,0:0:0:0:
439,193,188955,1,0,3:0:0:0:
439,193,189076,1,0,3:0:0:0:
439,193,189197,2,0,P|407:142|399:83,1,120,8|0,0:0|3:0,0:0:0:0:
253,47,189681,6,0,P|227:98|170:104,1,120,8|0,0:0|3:0,0:0:0:0:
100,125,190044,1,0,3:0:0:0:
100,125,190165,2,0,P|96:106|86:89,2,40,8|8|8,0:0|0:0|0:0,0:0:0:0:
115,150,190407,6,0,P|98:207|94:267,1,120,4|8,1:2|0:0,0:0:0:0:
53,327,190770,2,0,P|25:340|3:361,2,60,0|0|0,3:0|3:0|3:0,0:0:0:0:
127,333,191133,2,0,P|148:354|175:365,1,60,8|0,0:0|0:0,0:0:0:0:
231,317,191375,6,0,P|235:257|251:199,2,120,0|8|0,3:0|0:0|3:0,0:0:0:0:
307,330,191980,1,0,3:0:0:0:
307,329,192100,2,0,P|335:338|365:340,1,60,8|0,0:0|3:0,0:0:0:0:
408,282,192342,6,0,P|391:224|387:164,1,120,0|8,3:0|0:0,0:0:0:0:
251,119,192826,1,0,3:0:0:0:
251,119,192947,1,0,3:0:0:0:
251,118,193068,2,0,P|224:132|196:143,1,60,8|0,0:0|0:0,0:0:0:0:
138,188,193310,6,0,P|119:185|100:177,3,40,0|0|0|8,3:0|3:0|3:0|3:2,0:0:0:0:
259,283,193794,2,0,P|239:287|221:295,3,40,0|0|0|8,3:0|3:0|3:0|3:2,0:0:0:0:
332,294,194157,6,0,P|346:229|370:165,1,134.999995880127,4|0,1:2|0:0,0:0:0:0:
363,144,194520,6,0,P|412:113|466:132,2,120,8|0|8,0:0|1:0|0:0,0:0:0:0:
270,181,195246,2,0,P|211:184|151:180,2,120,0|8|0,1:0|0:0|1:0,0:0:0:0:
310,93,195971,5,8,0:0:0:0:
310,92,196092,2,0,P|299:36|245:17,1,120,4|0,1:2|0:0,0:0:0:0:
181,52,196455,2,0,P|163:76|142:97,1,60,8|0,0:0|0:0,0:0:0:0:
99,159,196697,1,0,3:0:0:0:
99,159,196818,1,0,3:0:0:0:
99,159,196939,2,0,P|102:218|99:278,1,120,8|0,0:0|3:0,0:0:0:0:
254,332,197423,6,0,P|273:277|327:256,1,120,8|0,0:0|1:0,0:0:0:0:
396,294,197786,1,0,3:0:0:0:
396,294,197907,2,0,L|388:342,2,40,8|8|8,0:0|0:0|0:0,0:0:0:0:
423,272,198149,6,0,P|420:212|424:152,1,120,4|8,1:2|0:0,0:0:0:0:
388,88,198512,2,0,P|405:63|433:53,2,60,0|2|0,0:0|1:2|3:0,0:0:0:0:
349,151,198875,2,0,P|320:145|302:121,1,60,8|0,0:0|0:0,0:0:0:0:
231,139,199117,6,0,P|175:154|158:209,2,120,2|8|0,1:2|0:0|3:0,0:0:0:0:
254,68,199721,1,0,3:0:0:0:
254,68,199842,2,0,P|235:44|207:38,1,60,8|0,0:0|0:0,0:0:0:0:
138,21,200084,6,0,P|122:78|102:135,1,120,4|8,1:2|0:0,0:0:0:0:
173,313,200568,2,0,P|153:256|137:198,1,120,2|8,1:2|0:0,0:0:0:0:
183,141,200931,5,0,0:0:0:0:
183,141,201052,2,0,P|239:156|256:211,1,120,2|8,1:2|0:0,0:0:0:0:
322,255,201415,1,0,0:0:0:0:
322,254,201536,2,0,P|340:248|354:234,2,40,2|0|0,1:2|3:0|3:0,0:0:0:0:
297,272,201778,2,0,P|295:301|297:331,1,60,8|8,0:0|0:0,0:0:0:0:
370,345,202020,6,0,P|426:329|453:277,1,120,12|0,3:2|3:0,0:0:0:0:
422,212,202383,2,0,P|412:154|410:94,1,120,12|0,3:2|3:0,0:0:0:0:
372,32,202746,2,0,P|320:62|266:87,1,120,12|0,3:2|3:0,0:0:0:0:
200,59,203109,2,0,P|143:67|119:119,1,120,12|0,3:2|3:0,0:0:0:0:
173,168,203471,6,0,P|183:226|185:286,2,120,12|12|12,3:2|3:2|3:2,0:0:0:0:
262,302,204197,1,0,3:0:0:0:
262,302,204318,2,0,P|318:293|342:241,1,120,12|0,3:2|3:0,0:0:0:0:
404,200,204681,2,0,P|394:142|392:82,1,120,12|0,3:2|3:0,0:0:0:0:
326,49,205044,2,0,P|288:6|230:9,1,120,12|0,3:2|3:0,0:0:0:0:
157,27,205407,6,0,P|105:57|49:77,2,120,12|12|12,3:2|3:2|3:2,0:0:0:0:
44,153,206133,1,0,3:0:0:0:
44,152,206254,2,0,P|96:176|104:236,1,120,12|0,3:2|3:0,0:0:0:0:
90,305,206617,2,0,P|146:324|197:355,1,120,12|0,3:2|3:0,0:0:0:0:
251,305,206980,2,0,P|249:246|251:186,1,120,12|0,3:2|3:0,0:0:0:0:
310,141,207342,6,0,P|340:143|382:226,2,120,12|12|12,3:2|3:2|3:2,0:0:0:0:
461,186,208068,1,0,3:0:0:0:
461,186,208189,2,0,P|464:126|480:68,1,120,12|0,3:2|3:0,0:0:0:0:
414,39,208552,2,0,P|393:59|364:68,1,60,12|2,3:2|0:0,0:0:0:0:
291,68,208794,6,0,P|277:55|258:49,6,40,0|8|8|8|8|8|0,3:0|3:2|3:2|3:2|3:2|3:2|3:0,0:0:0:0:
110,91,209762,6,0,P|112:144|111:198,1,107.999996704102,4|10,3:2|0:0,0:0:0:0:
161,253,210125,1,0,3:0:0:0:
178,258,210246,1,2,0:0:0:0:
195,263,210367,1,0,3:0:0:0:
212,268,210488,2,0,L|265:258,1,53.9999983520508,10|0,3:2|3:0,0:0:0:0:
295,192,210730,5,2,0:0:0:0:
295,192,210850,2,0,P|311:171|312:134,2,53.9999983520508,0|8|2,3:0|0:0|0:0,0:0:0:0:
346,259,211213,1,0,3:0:0:0:
346,259,211334,1,0,3:0:0:0:
346,259,211455,2,0,L|399:269,1,53.9999983520508,10|0,0:0|0:0,0:0:0:0:
446,212,211697,6,0,P|432:159|421:106,1,107.999996704102,6|10,3:2|0:0,0:0:0:0:
357,70,212060,1,0,3:0:0:0:
339,66,212181,1,2,0:0:0:0:
321,62,212302,1,0,3:0:0:0:
303,58,212423,2,0,L|250:70,1,53.9999983520508,10|0,0:0|3:0,0:0:0:0:
195,117,212665,5,2,0:0:0:0:
195,117,212786,2,0,L|142:104,2,53.9999983520508,0|8|2,3:0|0:0|3:2,0:0:0:0:
272,149,213149,1,0,0:0:0:0:
272,149,213270,1,0,3:0:0:0:
272,149,213391,2,0,L|282:183,2,35.9999989013672,10|8|8,0:0|0:0|0:0,0:0:0:0:
296,137,213633,6,0,P|352:141|391:185,1,107.999996704102,6|10,3:2|0:0,0:0:0:0:
409,192,213996,1,0,3:0:0:0:
409,192,214117,2,0,P|395:216|387:242,1,53.9999983520508,2|0,0:0|3:0,0:0:0:0:
444,290,214359,2,0,P|457:266|465:240,1,53.9999983520508,10|0,0:0|3:0,0:0:0:0:
479,168,214600,6,0,P|470:115|440:70,1,107.999996704102,2|8,0:0|0:0,0:0:0:0:
412,70,214963,2,0,P|368:39|315:29,1,107.999996704102,2|0,0:0|3:0,0:0:0:0:
293,48,215326,2,0,P|266:52|244:67,1,53.9999983520508,10|8,0:0|0:0,0:0:0:0:
176,91,215568,6,0,P|177:117|176:144,1,53.9999983520508,10|0,0:0|3:0,0:0:0:0:
150,214,215810,2,0,P|176:220|201:229,1,53.9999983520508,10|0,0:0|3:0,0:0:0:0:
258,276,216052,2,0,P|272:253|288:231,1,53.9999983520508,10|0,0:0|3:0,0:0:0:0:
350,192,216294,2,0,P|332:171|317:148,1,53.9999983520508,10|0,0:0|3:0,0:0:0:0:
284,84,216536,6,0,P|267:91|250:96,5,35.9999989013672,0|8|8|8|8|8,3:0|3:2|3:2|3:2|3:2|3:2,0:0:0:0:
293,48,217020,6,0,L|346:54,1,53.9999983520508,8|8,3:2|3:2,0:0:0:0:
385,118,217262,2,0,L|438:111,1,53.9999983520508,8|8,3:2|3:2,0:0:0:0:
452,84,217504,5,0,3:0:0:0:
