osu file format v14

[General]
AudioFilename: audio.mp3
AudioLeadIn: 0
PreviewTime: 54742
Countdown: 0
SampleSet: Soft
StackLeniency: 0.4
Mode: 0
LetterboxInBreaks: 0
WidescreenStoryboard: 0

[Editor]
DistanceSpacing: 1
BeatDivisor: 4
GridSize: 32
TimelineZoom: 3.099999

[Metadata]
Title:Gomi no Hi
TitleUnicode:ゴミの日
Artist:Fujikawa Chiai
ArtistUnicode:藤川千愛
Creator:a_Blue
Version:Nostalgia
Source:
Tags:laika ライカ japanese rock furuya kan 古谷完 fujinaga ryutaro 藤永龍太郎 ablue
BeatmapID:2567564
BeatmapSetID:1235121

[Difficulty]
HPDrainRate:6
CircleSize:4
OverallDifficulty:9
ApproachRate:9.6
SliderMultiplier:2
SliderTickRate:1

[Events]
//Background and Video events
0,0,"bg (5).png",0,0
//Break Periods
2,171131,172479
//Storyboard Layer 0 (Background)
//Storyboard Layer 1 (Fail)
//Storyboard Layer 2 (Pass)
//Storyboard Layer 3 (Foreground)
//Storyboard Layer 4 (Overlay)
//Storyboard Sound Samples

[TimingPoints]
730,241.935483870968,4,2,1,40,1,0
730,-133.333333333333,4,2,1,40,0,0
911,-133.333333333333,4,2,1,5,0,0
971,-133.333333333333,4,2,1,40,0,0
1637,-133.333333333333,4,2,1,5,0,0
1697,-133.333333333333,4,2,1,40,0,0
2181,-111.111111111111,4,2,1,40,0,0
2363,-111.111111111111,4,2,1,5,0,0
2423,-111.111111111111,4,2,1,40,0,0
2665,-133.333333333333,4,2,1,60,0,0
4600,-90.9090909090909,4,2,1,70,0,0
11889,-90.9090909090909,4,2,1,5,0,0
11980,-90.9090909090909,4,2,1,70,0,0
12010,-90.9090909090909,4,2,1,5,0,0
12100,-90.9090909090909,4,2,1,70,0,0
12131,-90.9090909090909,4,2,1,5,0,0
12221,-90.9090909090909,4,2,1,70,0,0
12252,-90.9090909090909,4,2,1,5,0,0
12342,-133.333333333333,4,2,1,60,0,0
20084,-133.333333333333,4,2,1,50,0,0
27100,-117.647058823529,4,2,1,50,0,0
35568,-1000,4,2,1,30,0,0
42342,-133.333333333333,4,2,1,50,0,0
43310,-100,4,2,1,60,0,0
51052,-133.333333333333,4,2,1,60,0,0
52988,-200,4,2,1,60,0,0
53713,-200,4,2,1,60,0,0
54802,-133.333333333333,4,2,1,70,0,0
55105,-133.333333333333,4,2,1,5,0,0
55165,-90.9090909090909,4,2,1,70,0,0
59943,-90.9090909090909,4,2,1,5,0,0
60004,-90.9090909090909,4,2,1,70,0,0
60669,-90.9090909090909,4,2,1,5,0,0
60730,-90.9090909090909,4,2,1,70,0,0
62544,-117.647058823529,4,2,1,70,0,0
62846,-117.647058823529,4,2,1,5,0,0
62907,-90.9090909090909,4,2,1,70,0,0
70286,-133.333333333333,4,2,1,70,0,0
70588,-133.333333333333,4,2,1,5,0,0
70649,-83.3333333333333,4,2,1,70,0,0
78028,-133.333333333333,4,2,1,70,0,0
78330,-133.333333333333,4,2,1,5,0,0
78391,-83.3333333333333,4,2,1,70,0,0
84923,-100,4,2,1,70,0,0
85891,-133.333333333333,4,2,1,60,0,0
93633,-133.333333333333,4,2,1,50,0,0
100891,-133.333333333333,4,2,1,30,0,0
101375,-117.647058823529,4,2,1,50,0,0
109117,-117.647058823529,4,2,1,60,0,0
120246,-166.666666666667,4,2,1,60,0,0
120488,-166.666666666667,4,2,1,5,0,0
120609,-133.333333333333,4,2,1,70,0,0
120911,-133.333333333333,4,2,1,5,0,0
120971,-90.9090909090909,4,2,1,70,0,0
122544,-83.3333333333333,4,2,1,70,0,0
122907,-90.9090909090909,4,2,1,70,0,0
124117,-125,4,2,1,70,0,0
124177,-125,4,2,1,5,0,0
124238,-90.9090909090909,4,2,1,70,0,0
124298,-90.9090909090909,4,2,1,5,0,0
124359,-90.9090909090909,4,2,1,70,0,0
124540,-90.9090909090909,4,2,1,5,0,0
124600,-90.9090909090909,4,2,1,70,0,0
125750,-90.9090909090909,4,2,1,5,0,0
125810,-90.9090909090909,4,2,1,70,0,0
126052,-90.9090909090909,4,2,1,70,0,0
126113,-90.9090909090909,4,2,1,5,0,0
126173,-76.9230769230769,4,2,1,70,0,0
126234,-76.9230769230769,4,2,1,5,0,0
126294,-90.9090909090909,4,2,1,70,0,0
127504,-76.9230769230769,4,2,1,70,0,0
128350,-125,4,2,1,70,0,0
128653,-125,4,2,1,5,0,0
128713,-90.9090909090909,4,2,1,70,0,0
130286,-83.3333333333333,4,2,1,70,0,0
130649,-90.9090909090909,4,2,1,70,0,0
132524,-90.9090909090909,4,2,1,5,0,0
132584,-90.9090909090909,4,2,1,70,0,0
136092,-125,4,2,1,70,0,0
136395,-125,4,2,1,5,0,0
136455,-90.9090909090909,4,2,1,70,0,0
141052,-83.3333333333333,4,2,1,70,0,0
143834,-125,4,2,1,70,0,0
144137,-125,4,2,1,5,0,0
144197,-76.9230769230769,4,2,1,70,0,0
151213,-83.3333333333333,4,2,1,70,0,0
151697,-125,4,2,1,70,0,0
153633,-100,4,2,1,70,0,0
155568,-125,4,2,1,70,0,0
157504,-100,4,2,1,70,0,0
159439,-90.9090909090909,4,2,1,70,0,0
167181,-200,4,2,1,45,0,0
170931,-500,4,2,1,55,0,0
173048,-500,4,2,1,5,0,0
173955,-500,4,2,1,20,0,0
174016,-500,4,2,1,55,0,0
174923,-500,4,2,1,55,0,0
178673,-200,4,2,1,60,0,0
184600,-100,4,2,1,70,0,0
186415,-111.111111111111,4,2,1,80,0,0
186717,-111.111111111111,4,2,1,5,0,0
186778,-76.9230769230769,4,2,1,80,0,0
194157,-100,4,2,1,80,0,0
194459,-100,4,2,1,5,0,0
194520,-76.9230769230769,4,2,1,80,0,0
201052,-90.9090909090909,4,2,1,80,0,0
202020,-90.9090909090909,4,2,1,70,0,0
209762,-100,4,2,1,60,0,0
217504,-250,4,2,1,30,0,0
219439,-166.666666666667,4,2,1,40,0,0
220165,-250.000000000001,4,2,1,30,0,0
220891,-500.000000000005,4,2,1,20,0,0

[Colours]
Combo1 : 255,136,136
Combo2 : 128,128,255
Combo3 : 254,152,90
Combo4 : 150,150,150

[HitObjects]
21,239,730,6,0,P|70:212|125:210,1,112.500004291535
178,155,971,2,0,P|190:119|189:82,1,75.0000028610231
21,239,1455,6,0,P|70:212|125:210,1,112.500004291535
178,155,1697,2,0,P|190:119|189:82,1,75.0000028610231
510,101,2181,6,0,B|413:104|478:128|381:130,1,134.999995880127
368,118,2423,1,0,0:0:0:0:
491,181,2544,1,0,0:0:0:0:
313,228,2665,6,0,L|302:318,1,75.0000028610231,2|2,0:0|0:0,0:0:0:0:
384,304,2907,2,0,L|393:378,1,75.0000028610231,2|2,0:0|0:0,0:0:0:0:
128,304,3391,6,0,L|118:378,1,75.0000028610231,2|2,0:0|0:0,0:0:0:0:
199,228,3633,2,0,L|210:318,1,75.0000028610231,2|2,0:0|0:0,0:0:0:0:
223,315,4117,1,8,0:0:0:0:
223,315,4600,5,12,3:2:0:0:
112,191,4721,1,2,0:0:0:0:
236,80,4842,1,0,3:0:0:0:
346,204,4963,5,12,3:2:0:0:
326,217,5084,1,2,0:0:0:0:
304,212,5205,1,0,3:0:0:0:
393,142,5326,5,12,3:2:0:0:
497,185,5447,1,2,0:0:0:0:
408,253,5568,1,0,3:0:0:0:
304,129,5689,5,12,3:2:0:0:
312,123,5810,1,2,0:0:0:0:
313,133,5931,1,0,3:0:0:0:
310,127,6052,6,0,L|318:9,1,110.000003356934,12|0,3:2|0:0,0:0:0:0:
122,178,6294,2,0,L|114:68,1,110.000003356934,12|0,3:2|0:0,0:0:0:0:
61,12,6536,5,12,3:2:0:0:
231,60,6657,1,2,0:0:0:0:
182,231,6778,1,0,3:0:0:0:
11,182,6899,5,12,3:2:0:0:
24,168,7020,1,2,0:0:0:0:
43,173,7141,1,0,3:0:0:0:
182,231,7262,5,12,3:2:0:0:
134,358,7383,1,2,0:0:0:0:
48,252,7504,1,0,3:0:0:0:
125,282,7625,5,12,3:2:0:0:
117,283,7746,1,2,0:0:0:0:
120,275,7867,1,0,3:0:0:0:
121,280,7988,6,0,L|237:291,1,110.000003356934,12|0,3:2|3:0,0:0:0:0:
301,47,8230,2,0,L|191:57,1,110.000003356934,12|0,3:2|3:0,0:0:0:0:
155,127,8471,5,12,3:2:0:0:
235,273,8592,1,2,0:0:0:0:
381,193,8713,1,0,3:0:0:0:
268,160,8834,5,12,3:2:0:0:
254,176,8955,1,2,0:0:0:0:
258,198,9076,1,0,3:0:0:0:
447,298,9197,5,12,3:2:0:0:
440,85,9318,1,2,0:0:0:0:
258,198,9439,1,0,3:0:0:0:
381,193,9560,5,12,3:2:0:0:
382,169,9681,1,2,0:0:0:0:
367,155,9802,1,0,3:0:0:0:
322,247,9923,6,0,L|314:356,1,110.000003356934,12|0,3:2|0:0,0:0:0:0:
110,273,10165,2,0,L|102:163,1,110.000003356934,12|0,3:2|0:0,0:0:0:0:
35,125,10407,5,12,3:2:0:0:
183,50,10528,1,2,0:0:0:0:
258,198,10649,1,0,3:0:0:0:
110,273,10770,5,12,3:2:0:0:
118,249,10891,1,2,0:0:0:0:
142,240,11012,1,0,3:0:0:0:
220,270,11133,5,12,3:2:0:0:
259,117,11254,1,2,0:0:0:0:
106,78,11375,1,0,3:0:0:0:
183,167,11496,5,12,3:2:0:0:
35,229,11617,1,2,0:0:0:0:
101,384,11738,1,0,3:0:0:0:
101,384,11798,1,0,3:0:0:0:
101,384,11859,6,0,L|133:388,1,27.5000008392334,4|0,0:0|0:0,0:0:0:0:
130,203,11980,6,0,L|162:207,1,27.5000008392334,8|0,0:0|0:0,0:0:0:0:
322,311,12100,6,0,L|354:315,1,27.5000008392334,8|0,0:0|0:0,0:0:0:0:
351,130,12221,6,0,L|383:134,1,27.5000008392334,8|0,0:0|0:0,0:0:0:0:
406,370,12342,5,4,3:2:0:0:
426,293,12463,1,0,0:0:0:0:
505,285,12584,1,2,3:2:0:0:
479,175,12705,5,0,3:0:0:0:
328,206,12826,1,10,0:0:0:0:
258,67,12947,1,0,3:0:0:0:
452,102,13068,5,2,3:2:0:0:
414,280,13189,1,8,0:0:0:0:
414,280,13310,6,0,L|337:301,1,75.0000028610231,2|8,3:2|0:0,0:0:0:0:
271,262,13552,1,2,0:0:0:0:
127,243,13673,6,0,L|199:223,1,75.0000028610231,2|10,3:2|0:0,0:0:0:0:
241,155,13915,1,0,0:0:0:0:
356,68,14036,6,0,L|278:88,1,75.0000028610231,2|8,3:2|0:0,0:0:0:0:
83,137,14278,5,6,3:2:0:0:
11,104,14399,1,0,0:0:0:0:
22,26,14520,1,2,3:2:0:0:
174,28,14641,5,0,0:0:0:0:
241,155,14762,1,10,0:0:0:0:
127,243,14883,1,0,3:0:0:0:
157,169,15004,5,2,3:2:0:0:
341,299,15125,1,8,0:0:0:0:
341,299,15246,6,0,L|413:279,1,75.0000028610231,2|8,3:2|0:0,0:0:0:0:
322,374,15488,1,2,0:0:0:0:
188,308,15609,6,0,L|116:328,1,75.0000028610231,2|10,3:2|0:0,0:0:0:0:
244,364,15850,1,0,0:0:0:0:
307,202,15971,6,0,L|379:182,1,75.0000028610231,8|8,3:2|0:0,0:0:0:0:
455,207,16213,5,6,3:2:0:0:
478,109,16334,1,0,0:0:0:0:
388,61,16455,1,2,3:2:0:0:
300,9,16576,5,0,0:0:0:0:
183,127,16697,1,10,0:0:0:0:
266,270,16818,1,0,3:0:0:0:
307,202,16939,5,2,3:2:0:0:
286,171,17060,1,8,3:2:0:0:
253,167,17181,1,2,3:2:0:0:
118,69,17302,6,0,P|87:137|73:226,1,150.000005722046,8|0,0:0|0:0,0:0:0:0:
9,251,17665,1,10,0:0:0:0:
186,283,17786,6,0,P|201:317|208:353,1,75.0000028610231,2|2,0:0|3:2,0:0:0:0:
128,380,18028,2,0,P|112:345|105:309,1,75.0000028610231,8|4,0:0|3:2,0:0:0:0:
287,373,18270,5,0,0:0:0:0:
349,288,18391,1,2,3:2:0:0:
453,299,18512,1,0,3:0:0:0:
486,371,18633,5,10,0:0:0:0:
271,272,18754,1,0,3:0:0:0:
310,38,18875,1,2,3:2:0:0:
419,106,18996,5,8,3:2:0:0:
385,179,19117,1,2,3:2:0:0:
306,166,19238,1,8,0:0:0:0:
310,38,19359,5,2,3:2:0:0:
335,60,19480,1,8,3:2:0:0:
340,93,19600,1,8,3:2:0:0:
258,100,19721,5,8,3:2:0:0:
407,26,19842,1,0,3:0:0:0:
464,173,19963,1,0,3:0:0:0:
464,173,20084,6,0,L|452:322,1,150.000005722046,4|0,3:2|3:0,0:0:0:0:
451,322,20568,2,0,P|417:307|380:304,1,75.0000028610231,8|0,0:0|0:0,0:0:0:0:
246,251,20810,1,0,3:0:0:0:
310,205,20931,2,0,P|344:220|381:223,1,75.0000028610231,8|0,0:0|3:0,0:0:0:0:
222,356,21173,1,8,0:0:0:0:
149,329,21294,2,0,L|159:179,1,150.000005722046,0|8,3:0|0:0,0:0:0:0:
28,59,21778,6,0,P|55:83|91:95,1,75.0000028610231,0|0,3:0|0:0,0:0:0:0:
141,158,22020,2,0,L|292:130,1,150.000005722046,0|0,3:0|3:0,0:0:0:0:
333,63,22383,1,0,0:0:0:0:
478,115,22504,1,8,0:0:0:0:
421,268,22625,1,0,0:0:0:0:
369,135,22746,1,0,3:0:0:0:
429,188,22867,1,8,0:0:0:0:
400,263,22988,1,0,3:0:0:0:
341,210,23109,2,0,L|264:228,1,75.0000028610231,8|0,0:0|3:0,0:0:0:0:
200,360,23471,6,0,B|156:361|144:277|57:307,1,150.000005722046,8|0,0:0|3:0,0:0:0:0:
44,302,23774,1,0,3:0:0:0:
24,291,23834,1,0,3:0:0:0:
13,271,23895,1,0,3:0:0:0:
13,248,23955,2,0,P|27:175|51:100,1,150.000005722046,4|0,3:2|3:0,0:0:0:0:
113,194,24439,6,0,P|144:196|187:183,1,75.0000028610231,8|0,0:0|0:0,0:0:0:0:
257,221,24681,1,0,3:0:0:0:
315,322,24802,1,8,0:0:0:0:
192,267,24923,1,0,3:0:0:0:
255,142,25044,1,8,0:0:0:0:
327,106,25165,2,0,P|399:93|473:58,1,150.000005722046,0|0,3:0|0:0,0:0:0:0:
498,134,25649,6,0,P|486:169|486:206,1,75.0000028610231,0|0,3:0|0:0,0:0:0:0:
393,258,25891,2,0,P|463:289|476:363,1,150.000005722046,0|0,3:0|3:0,0:0:0:0:
325,298,26254,1,0,0:0:0:0:
322,220,26375,2,0,P|285:213|249:201,1,75.0000028610231,8|0,0:0|0:0,0:0:0:0:
94,296,26617,1,0,3:0:0:0:
133,362,26738,2,0,P|168:349|205:343,1,75.0000028610231,8|0,0:0|0:0,0:0:0:0:
206,265,26980,1,8,0:0:0:0:
103,139,27100,2,0,P|32:180|21:261,1,170.000003242493,0|8,3:0|0:0,0:0:0:0:
115,62,27584,5,8,0:0:0:0:
115,62,27705,1,8,0:0:0:0:
164,187,27826,2,0,P|207:182|249:191,1,85.0000016212464,4|0,3:2|0:0,0:0:0:0:
171,10,28068,2,0,P|212:18|254:13,1,85.0000016212464,0|0,3:0|0:0,0:0:0:0:
404,33,28310,2,0,P|325:54|303:132,1,170.000003242493,8|0,0:0|0:0,0:0:0:0:
366,182,28673,2,0,L|451:175,1,85.0000016212464,8|0,0:0|3:0,0:0:0:0:
309,313,28915,2,0,L|394:320,1,85.0000016212464,8|0,0:0|3:0,0:0:0:0:
188,384,29157,1,0,3:0:0:0:
112,378,29278,6,0,B|123:282|204:346|220:248,1,170.000003242493,8|0,0:0|3:0,0:0:0:0:
212,235,29580,1,0,3:0:0:0:
193,216,29641,1,0,3:0:0:0:
176,194,29701,1,0,3:0:0:0:
173,169,29762,2,0,P|176:111|161:-12,2,170.000003242493,0|0|8,3:0|3:0|0:0,0:0:0:0:
443,54,30488,6,0,L|432:96,1,42.5000008106232,0|0,3:0|0:0,0:0:0:0:
358,117,30609,1,0,0:0:0:0:
492,147,30730,1,0,3:0:0:0:
419,175,30850,1,8,0:0:0:0:
419,175,30971,2,0,B|318:137|356:202|251:170,1,170.000003242493,0|8,3:0|0:0,0:0:0:0:
370,239,31334,1,0,0:0:0:0:
301,281,31455,2,0,P|363:284|392:337,1,127.50000243187
313,361,31697,6,0,L|229:375,1,85.0000016212464,0|0,3:0|0:0,0:0:0:0:
253,218,31939,2,0,L|169:203,1,85.0000016212464,0|0,3:0|0:0,0:0:0:0:
106,313,32181,1,8,0:0:0:0:
12,353,32423,6,0,L|19:311,1,42.5000008106232,0|0,3:0|0:0,0:0:0:0:
94,298,32544,1,8,0:0:0:0:
0,196,32665,1,0,3:0:0:0:
70,77,32786,1,8,0:0:0:0:
70,77,32907,2,0,P|153:62|238:56,1,170.000003242493,0|8,3:0|0:0,0:0:0:0:
239,56,33391,5,0,3:0:0:0:
264,59,33451,1,0,3:0:0:0:
284,75,33512,1,0,3:0:0:0:
293,98,33572,1,0,3:0:0:0:
290,123,33633,2,0,P|374:117|458:101,2,170.000003242493,0|0|8,3:0|3:0|0:0,0:0:0:0:
477,24,34359,5,0,3:0:0:0:
512,167,34480,2,0,P|478:179|420:190,1,85.0000016212464,8|0,0:0|0:0,0:0:0:0:
418,208,34721,5,8,0:0:0:0:
371,372,34842,2,0,P|412:364|453:351,1,85.0000016212464,0|0,3:0|0:0,0:0:0:0:
390,285,35084,5,0,3:0:0:0:
261,228,35205,1,0,3:0:0:0:
212,361,35326,1,0,3:0:0:0:
279,323,35447,1,0,0:0:0:0:
279,323,35568,6,0,L|275:302,7,20,4|0|0|0|0|0|0|0,3:2|0:0|3:0|0:0|3:0|0:0|3:0|0:0,0:0:0:0:
261,228,37504,2,0,L|257:207,7,20,0|0|0|0|0|0|0|0,3:0|0:0|3:0|0:0|3:0|0:0|3:0|0:0,0:0:0:0:
77,115,39439,6,0,L|73:134,3,20,0|0|0|0,3:0|0:0|3:0|0:0,0:0:0:0:
151,134,40407,2,0,L|147:153,3,20,0|0|0|0,3:0|0:0|3:0|0:0,0:0:0:0:
257,208,41375,6,0,L|260:227,1,20,0|0,3:0|0:0,0:0:0:0:
183,227,41859,2,0,L|186:246,1,20,0|0,3:0|0:0,0:0:0:0:
14,282,42342,6,0,B|91:258|78:333|135:350,2,150.000005722046,0|0|8,3:0|0:0|0:0,0:0:0:0:
14,282,43068,1,0,0:0:0:0:
14,282,43310,6,0,P|104:293|141:190,1,200,4|0,0:0|3:0,0:0:0:0:
83,155,43673,1,0,0:0:0:0:
152,39,43794,1,8,0:0:0:0:
272,104,43915,1,0,0:0:0:0:
145,205,44036,5,0,3:0:0:0:
157,127,44157,2,0,P|204:130|256:125,2,100,8|0|8,0:0|3:0|0:0,0:0:0:0:
308,248,44520,1,0,0:0:0:0:
322,171,44641,1,0,3:0:0:0:
474,219,44762,2,0,B|428:240|428:240|381:223,1,100,8|0,0:0|0:0,0:0:0:0:
272,104,45004,2,0,B|318:83|318:83|364:99,1,100,0|0,3:0|0:0,0:0:0:0:
322,171,45246,6,0,P|336:266|340:370,1,200,0|0,3:0|3:0,0:0:0:0:
340,369,45609,2,0,P|295:349|248:363,1,100,0|8,0:0|0:0,0:0:0:0:
176,335,45850,1,0,0:0:0:0:
51,303,45971,1,0,3:0:0:0:
133,196,46092,1,8,0:0:0:0:
256,229,46213,5,0,3:0:0:0:
125,276,46334,1,8,0:0:0:0:
64,147,46455,1,0,3:0:0:0:
201,92,46576,1,0,0:0:0:0:
373,158,46697,6,0,L|274:143,1,100,8|0,0:0|0:0,0:0:0:0:
176,335,46939,2,0,L|274:320,1,100,0|0,3:0|0:0,0:0:0:0:
191,78,47181,6,0,P|130:83|91:211,2,200,4|0|8,3:2|3:0|0:0,0:0:0:0:
256,37,47786,1,0,0:0:0:0:
332,55,47907,1,0,3:0:0:0:
276,111,48028,1,8,0:0:0:0:
201,92,48149,1,0,3:0:0:0:
353,225,48270,6,0,B|369:178|369:178|352:131,1,100,8|0,0:0|3:0,0:0:0:0:
290,271,48512,1,0,0:0:0:0:
362,303,48633,2,0,L|461:292,1,100,8|0,0:0|0:0,0:0:0:0:
299,348,48875,2,0,L|199:337,1,100,0|8,3:0|0:0,0:0:0:0:
130,379,49117,5,0,3:0:0:0:
156,229,49238,1,0,0:0:0:0:
9,207,49359,1,0,3:0:0:0:
60,266,49480,2,0,L|169:247,1,100,0|8,0:0|0:0,0:0:0:0:
329,97,49721,5,0,0:0:0:0:
189,25,49842,1,0,3:0:0:0:
117,162,49963,1,8,0:0:0:0:
264,239,50084,1,0,3:0:0:0:
245,99,50205,5,8,0:0:0:0:
166,101,50326,1,0,3:0:0:0:
209,167,50447,1,0,0:0:0:0:
285,165,50568,5,8,0:0:0:0:
268,25,50689,1,8,0:0:0:0:
186,241,50810,1,8,0:0:0:0:
394,344,50931,1,8,0:0:0:0:
426,273,51052,6,0,P|463:268|500:268,1,75.0000028610231,0|0,3:0|0:0,0:0:0:0:
459,188,51294,2,0,P|421:192|384:192,1,75.0000028610231,0|0,3:0|0:0,0:0:0:0:
415,115,51536,1,8,0:0:0:0:
494,118,51657,1,0,0:0:0:0:
371,206,51778,5,0,3:0:0:0:
350,55,51899,1,8,0:0:0:0:
194,72,52020,1,0,3:0:0:0:
213,227,52141,1,8,0:0:0:0:
253,159,52262,5,0,3:0:0:0:
176,145,52383,1,0,0:0:0:0:
281,272,52504,5,8,0:0:0:0:
345,71,52625,1,8,0:0:0:0:
135,213,52746,1,8,0:0:0:0:
402,338,52867,1,8,0:0:0:0:
431,266,52988,6,0,P|357:260|291:294,2,150,0|0|0,1:0|1:0|1:0,0:0:0:0:
431,266,54197,5,0,3:0:0:0:
480,208,54278,1,0,3:0:0:0:
439,141,54359,1,0,3:0:0:0:
491,83,54439,1,0,3:0:0:0:
489,59,54802,6,0,B|402:104|393:-15|305:26,1,187.500007152558,4|0,1:2|0:0,0:0:0:0:
293,31,55165,6,0,P|305:84|310:139,1,110.000003356934,8|0,0:0|0:0,0:0:0:0:
376,304,55407,2,0,P|323:288|273:265,1,110.000003356934,0|0,1:0|3:0,0:0:0:0:
98,240,55649,2,0,P|138:202|182:170,1,110.000003356934,8|0,0:0|0:0,0:0:0:0:
414,144,55891,6,0,P|373:181|329:213,1,110.000003356934,0|0,1:0|0:0,0:0:0:0:
218,352,56133,2,0,P|205:298|200:243,1,110.000003356934,8|0,0:0|0:0,0:0:0:0:
135,79,56375,2,0,P|187:94|237:117,1,110.000003356934,0|0,1:0|3:0,0:0:0:0:
256,192,56617,5,8,0:0:0:0:
57,123,56738,2,0,P|63:231|56:342,1,220.000006713867,4|0,3:2|0:0,0:0:0:0:
123,384,57100,2,0,B|187:363|146:332|208:313,1,110.000003356934,8|0,0:0|0:0,0:0:0:0:
436,373,57342,5,0,3:0:0:0:
270,348,57463,1,0,3:0:0:0:
412,301,57584,2,0,P|410:191|419:81,1,220.000006713867,8|0,0:0|3:0,0:0:0:0:
368,26,57947,1,0,0:0:0:0:
103,150,58068,6,0,B|150:176|150:176|203:160,1,110.000003356934,8|0,0:0|0:0,0:0:0:0:
240,88,58310,1,0,3:0:0:0:
201,243,58431,5,0,3:0:0:0:
346,125,58552,1,8,0:0:0:0:
172,46,58673,1,0,0:0:0:0:
280,247,58794,6,0,B|408:265|320:348|453:365,1,220.000006713867,4|8,1:2|0:0,0:0:0:0:
494,300,59157,1,0,0:0:0:0:
290,329,59278,1,0,3:0:0:0:
484,218,59399,1,0,3:0:0:0:
280,247,59520,2,0,P|230:238|171:216,1,110.000003356934,8|0,0:0|0:0,0:0:0:0:
10,79,59762,6,0,B|92:57|68:165|156:140,1,165.000005035401,0|0,1:0|0:0,0:0:0:0:
206,86,60004,2,0,P|256:95|315:117,1,110.000003356934,8|0,0:0|0:0,0:0:0:0:
381,77,60246,1,0,3:0:0:0:
509,42,60367,1,0,3:0:0:0:
382,155,60488,2,0,P|380:222|395:339,1,165.000005035401,8|0,0:0|0:0,0:0:0:0:
342,382,60730,6,0,P|241:357|232:255,1,220.000006713867,0|8,1:0|0:0,0:0:0:0:
309,265,61092,1,0,0:0:0:0:
143,349,61213,2,0,P|88:343|33:349,1,110.000003356934,0|0,3:0|3:0,0:0:0:0:
173,170,61455,2,0,P|228:176|283:170,1,110.000003356934,8|0,0:0|0:0,0:0:0:0:
468,44,61697,5,8,0:0:0:0:
320,11,61818,1,0,3:0:0:0:
292,154,61939,1,8,0:0:0:0:
437,193,62060,1,0,3:0:0:0:
376,66,62181,5,8,0:0:0:0:
379,88,62261,1,8,0:0:0:0:
383,111,62342,1,8,0:0:0:0:
386,133,62422,1,8,0:0:0:0:
488,260,62544,6,0,B|371:273|439:362|324:376,1,212.500004053116,4|0,1:2|0:0,0:0:0:0:
319,351,62907,6,0,P|277:313|239:269,1,110.000003356934,8|0,0:0|0:0,0:0:0:0:
84,167,63149,2,0,P|139:149|196:138,1,110.000003356934,0|0,1:0|3:0,0:0:0:0:
361,54,63391,2,0,P|350:111|331:165,1,110.000003356934,8|0,0:0|0:0,0:0:0:0:
148,327,63633,6,0,P|161:270|180:216,1,110.000003356934,0|0,1:0|0:0,0:0:0:0:
191,31,63875,2,0,P|235:69|272:113,1,110.000003356934,8|0,0:0|0:0,0:0:0:0:
426,215,64117,2,0,P|373:233|316:244,1,110.000003356934,0|0,1:0|3:0,0:0:0:0:
255,191,64359,5,8,0:0:0:0:
9,58,64480,2,0,B|137:36|64:162|198:138,1,220.000006713867,4|0,3:2|0:0,0:0:0:0:
226,66,64842,2,0,P|279:47|336:40,1,110.000003356934,8|0,0:0|0:0,0:0:0:0:
491,257,65084,5,0,3:0:0:0:
475,93,65205,1,0,3:0:0:0:
417,233,65326,2,0,P|313:268|204:285,1,220.000006713867,8|0,0:0|3:0,0:0:0:0:
182,209,65689,1,0,0:0:0:0:
19,329,65810,6,0,P|22:274|44:224,1,110.000003356934,8|0,0:0|0:0,0:0:0:0:
108,179,66052,1,0,3:0:0:0:
133,331,66173,5,0,3:0:0:0:
240,153,66294,1,8,3:0:0:0:
36,145,66415,1,8,3:0:0:0:
261,231,66536,6,0,L|478:196,1,220.000006713867,4|8,1:2|0:0,0:0:0:0:
444,9,66899,1,0,0:0:0:0:
299,29,67020,1,0,3:0:0:0:
319,174,67141,1,0,3:0:0:0:
397,71,67262,6,0,L|179:36,1,220.000006713867,8|0,0:0|3:0,0:0:0:0:
110,0,67625,1,0,0:0:0:0:
25,132,67746,6,0,B|80:121|80:121|114:79,1,110.000003356934,8|0,0:0|0:0,0:0:0:0:
175,300,67988,2,0,B|138:257|138:257|84:248,1,110.000003356934,0|0,3:0|3:0,0:0:0:0:
246,86,68230,2,0,B|227:139|227:139|246:189,1,110.000003356934,8|0,0:0|0:0,0:0:0:0:
471,294,68471,6,0,B|378:232|378:232|284:286,1,220.000006713867,0|8,1:0|0:0,0:0:0:0:
99,358,68834,1,0,0:0:0:0:
32,315,68955,2,0,P|46:205|46:96,1,220.000006713867,0|8,1:0|0:0,0:0:0:0:
55,20,69318,1,8,0:0:0:0:
262,291,69439,5,8,0:0:0:0:
369,192,69560,1,0,3:0:0:0:
230,147,69681,1,0,3:0:0:0:
126,243,69802,1,0,3:0:0:0:
198,222,69923,5,8,0:0:0:0:
207,148,70004,1,8,0:0:0:0:
216,74,70084,1,8,0:0:0:0:
225,0,70165,1,8,0:0:0:0:
512,241,70286,6,0,B|403:274|476:315|363:352,1,187.500007152558,4|0,1:2|0:0,0:0:0:0:
367,350,70649,6,0,P|346:289|299:232,1,119.999996337891,8|0,0:0|0:0,0:0:0:0:
390,194,70891,2,0,P|332:165|258:158,1,119.999996337891,0|0,1:0|3:0,0:0:0:0:
295,67,71133,2,0,P|234:88|176:135,1,119.999996337891,8|0,0:0|0:0,0:0:0:0:
401,339,71375,6,0,P|369:282|313:234,1,119.999996337891,0|0,1:0|0:0,0:0:0:0:
406,162,71617,2,0,P|343:144|270:150,1,119.999996337891,8|0,0:0|0:0,0:0:0:0:
283,33,71859,2,0,P|226:64|178:120,1,119.999996337891,0|0,1:0|3:0,0:0:0:0:
57,234,72100,5,8,0:0:0:0:
3,290,72221,2,0,B|55:267|55:267|178:308|178:308|224:281,1,239.999992675781,4|0,3:2|3:0,0:0:0:0:
289,231,72584,2,0,B|243:192|243:192|185:209,1,119.999996337891,8|0,0:0|0:0,0:0:0:0:
74,157,72826,5,0,3:0:0:0:
60,79,72947,1,0,3:0:0:0:
254,166,73068,2,0,L|271:48,1,119.999996337891,8|0,0:0|0:0,0:0:0:0:
342,12,73310,1,0,3:0:0:0:
492,95,73431,1,0,0:0:0:0:
404,245,73552,1,8,0:0:0:0:
360,178,73673,5,0,0:0:0:0:
486,243,73794,1,0,3:0:0:0:
374,322,73915,1,0,3:0:0:0:
246,255,74036,1,8,0:0:0:0:
209,285,74117,1,8,0:0:0:0:
164,271,74197,1,8,0:0:0:0:
126,299,74278,2,0,P|115:240|95:183,1,119.999996337891,4|0,1:2|0:0,0:0:0:0:
124,107,74520,5,8,0:0:0:0:
244,62,74641,1,0,3:0:0:0:
338,150,74762,1,0,3:0:0:0:
222,188,74883,1,0,3:0:0:0:
197,119,75004,6,0,P|213:61|219:1,1,119.999996337891,8|0,0:0|0:0,0:0:0:0:
335,61,75246,2,0,P|225:89|209:202,1,239.999992675781,0|8,3:0|0:0,0:0:0:0:
279,252,75609,5,0,0:0:0:0:
392,354,75730,1,0,3:0:0:0:
359,204,75850,1,0,3:0:0:0:
296,343,75971,1,8,0:0:0:0:
428,268,76092,1,0,3:0:0:0:
481,100,76213,6,0,B|352:169|478:210|350:284,1,239.999992675781,0|8,3:0|0:0,0:0:0:0:
279,252,76576,1,0,0:0:0:0:
185,171,76697,1,0,3:0:0:0:
62,222,76818,1,0,3:0:0:0:
152,308,76939,1,8,0:0:0:0:
139,233,77060,5,0,3:0:0:0:
54,342,77181,5,8,0:0:0:0:
108,158,77302,1,0,3:0:0:0:
213,360,77423,1,8,0:0:0:0:
265,174,77544,1,0,0:0:0:0:
139,311,77665,5,0,3:0:0:0:
207,272,77786,1,0,3:0:0:0:
139,233,77907,1,8,0:0:0:0:
289,382,78028,6,0,P|374:362|473:351,1,187.500007152558,4|0,1:2|0:0,0:0:0:0:
474,331,78391,6,0,P|429:291|371:278,1,119.999996337891,8|0,0:0|0:0,0:0:0:0:
404,184,78633,2,0,P|344:187|294:219,1,119.999996337891,0|0,1:0|3:0,0:0:0:0:
250,129,78875,2,0,P|210:173|197:231,1,119.999996337891,8|0,0:0|0:0,0:0:0:0:
490,298,79117,6,0,P|439:266|380:263,1,119.999996337891,0|0,1:0|0:0,0:0:0:0:
391,149,79359,2,0,P|333:162|289:202,1,119.999996337891,8|0,0:0|0:0,0:0:0:0:
216,113,79600,2,0,P|184:163|181:222,1,119.999996337891,0|0,1:0|3:0,0:0:0:0:
45,289,79842,5,8,0:0:0:0:
102,343,79963,2,0,P|75:226|34:113,1,239.999992675781,4|0,3:2|0:0,0:0:0:0:
59,40,80326,2,0,P|116:28|167:62,1,119.999996337891,8|0,0:0|0:0,0:0:0:0:
235,123,80568,5,0,3:0:0:0:
313,111,80689,1,0,3:0:0:0:
461,268,80810,6,0,B|404:248|404:248|343:286,1,119.999996337891,8|0,0:0|0:0,0:0:0:0:
312,367,81052,2,0,L|330:127,1,239.999992675781,0|8,3:0|0:0,0:0:0:0:
410,99,81415,5,0,0:0:0:0:
247,2,81536,1,0,1:0:0:0:
154,163,81657,1,0,3:0:0:0:
238,277,81778,5,8,0:0:0:0:
235,258,81859,1,8,0:0:0:0:
232,240,81939,1,8,0:0:0:0:
229,222,82020,1,4,1:2:0:0:
165,175,82141,5,0,0:0:0:0:
66,317,82262,1,8,0:0:0:0:
239,376,82383,1,0,0:0:0:0:
341,231,82504,1,2,1:2:0:0:
235,206,82625,5,0,3:0:0:0:
53,237,82746,2,0,B|113:242|113:242|144:294,1,119.999996337891,8|0,0:0|0:0,0:0:0:0:
431,301,82988,5,2,1:2:0:0:
364,97,83110,1,0,0:0:0:0:
154,163,83230,1,8,0:0:0:0:
224,365,83350,1,2,1:2:0:0:
331,242,83471,5,0,3:0:0:0:
322,320,83592,1,0,3:0:0:0:
157,148,83713,6,0,L|38:129,1,119.999996337891,10|0,0:0|0:0,0:0:0:0:
94,52,83955,2,0,P|206:67|234:176,1,239.999992675781,4|8,1:2|0:0,0:0:0:0:
185,236,84318,1,0,0:0:0:0:
447,190,84439,6,0,P|334:204|306:313,1,239.999992675781,2|8,1:2|0:0,0:0:0:0:
383,327,84802,1,0,0:0:0:0:
325,156,84923,6,0,P|332:101|330:47,1,100,2|0,1:2|3:0,0:0:0:0:
417,2,85165,2,0,P|410:57|412:111,1,100,8|8,0:0|0:0,0:0:0:0:
277,273,85407,5,8,0:0:0:0:
252,200,85488,1,8,0:0:0:0:
180,230,85568,1,8,0:0:0:0:
155,157,85649,5,8,0:0:0:0:
90,244,85770,1,8,0:0:0:0:
175,308,85891,5,4,3:2:0:0:
227,126,86012,1,0,0:0:0:0:
56,43,86133,1,2,3:2:0:0:
4,225,86254,5,0,3:0:0:0:
90,244,86375,1,8,0:0:0:0:
124,164,86496,1,2,3:2:0:0:
28,337,86617,5,0,3:0:0:0:
222,379,86738,1,8,0:0:0:0:
222,378,86859,6,0,P|258:369|295:367,1,75.0000028610231,2|8,3:2|0:0,0:0:0:0:
345,305,87100,1,0,0:0:0:0:
468,231,87221,2,0,P|431:240|394:242,1,75.0000028610231,2|8,3:2|0:0,0:0:0:0:
331,197,87463,1,0,0:0:0:0:
194,163,87584,2,0,P|230:153|267:151,1,75.0000028610231,2|8,3:2|0:0,0:0:0:0:
409,17,87826,5,4,3:2:0:0:
491,63,87947,1,0,0:0:0:0:
459,151,88068,1,2,3:2:0:0:
186,274,88189,5,0,0:0:0:0:
124,127,88310,1,8,0:0:0:0:
242,23,88431,1,2,3:2:0:0:
377,105,88552,5,0,3:0:0:0:
342,258,88673,1,0,3:0:0:0:
342,258,88794,6,0,P|305:252|267:253,1,75.0000028610231,2|8,3:2|0:0,0:0:0:0:
210,197,89036,1,0,0:0:0:0:
68,358,89157,6,0,P|91:328|109:295,1,75.0000028610231,2|8,3:2|0:0,0:0:0:0:
186,274,89399,1,0,0:0:0:0:
118,71,89520,6,0,P|131:106|151:138,1,75.0000028610231,10|8,3:2|0:0,0:0:0:0:
132,214,89762,5,4,3:2:0:0:
298,331,89883,1,0,0:0:0:0:
443,188,90004,1,2,3:2:0:0:
277,71,90125,1,0,0:0:0:0:
246,230,90246,5,8,0:0:0:0:
322,252,90367,1,2,3:2:0:0:
328,174,90488,1,0,3:0:0:0:
252,151,90609,1,8,3:2:0:0:
405,315,90730,5,2,3:2:0:0:
464,270,90850,2,0,L|480:96,1,150.000005722046,8|0,0:0|0:0,0:0:0:0:
512,54,91213,1,8,0:0:0:0:
360,41,91334,2,0,L|434:56,1,75.0000028610231,2|0,0:0|3:0,0:0:0:0:
308,98,91576,2,0,L|234:112,1,75.0000028610231,8|4,0:0|3:2,0:0:0:0:
168,72,91818,5,0,0:0:0:0:
44,130,91939,1,2,3:2:0:0:
104,257,92060,1,0,3:0:0:0:
229,197,92181,5,8,0:0:0:0:
118,180,92302,1,2,3:2:0:0:
42,307,92423,1,0,3:0:0:0:
152,324,92544,1,8,3:2:0:0:
30,206,92665,5,2,3:2:0:0:
90,372,92786,1,8,0:0:0:0:
249,308,92907,1,0,3:0:0:0:
186,258,93028,5,10,3:2:0:0:
186,258,93088,1,8,3:2:0:0:
186,258,93149,1,8,3:2:0:0:
318,235,93270,1,8,3:2:0:0:
337,370,93391,1,2,3:2:0:0:
469,347,93512,1,2,3:2:0:0:
412,291,93633,6,0,P|415:217|411:142,1,150.000005722046,4|0,3:2|3:0,0:0:0:0:
383,70,94117,2,0,P|379:107|379:144,1,75.0000028610231,8|0,0:0|0:0,0:0:0:0:
322,20,94359,1,0,3:0:0:0:
206,61,94480,2,0,P|202:98|202:135,1,75.0000028610231,8|0,0:0|3:0,0:0:0:0:
280,102,94721,1,8,0:0:0:0:
124,93,94842,2,0,P|58:125|42:195,1,150.000005722046,0|8,3:0|0:0,0:0:0:0:
11,338,95326,6,0,P|41:315|79:309,1,75.0000028610231,0|0,3:0|0:0,0:0:0:0:
110,238,95568,2,0,L|257:266,1,150.000005722046,0|0,3:0|3:0,0:0:0:0:
322,221,95931,1,0,0:0:0:0:
454,308,96052,1,8,0:0:0:0:
320,384,96173,1,0,0:0:0:0:
354,314,96294,1,0,3:0:0:0:
431,309,96415,1,8,0:0:0:0:
397,379,96536,1,0,3:0:0:0:
335,304,96657,2,0,L|343:229,1,75.0000028610231,8|0,0:0|3:0,0:0:0:0:
485,161,97020,6,0,B|417:157|430:88|362:85,1,150.000005722046,8|0,0:0|3:0,0:0:0:0:
339,86,97322,1,0,3:0:0:0:
318,77,97382,1,0,3:0:0:0:
303,59,97443,1,0,3:0:0:0:
298,36,97504,2,0,P|223:40|148:36,1,150.000005722046,4|0,3:2|3:0,0:0:0:0:
30,178,97988,6,0,P|67:175|104:177,1,75.0000028610231,8|0,0:0|3:0,0:0:0:0:
151,115,98230,1,0,3:0:0:0:
283,154,98350,1,8,0:0:0:0:
150,241,98471,1,0,3:0:0:0:
73,98,98592,1,8,0:0:0:0:
15,152,98713,2,0,P|20:226|15:301,1,150.000005722046,0|8,3:0|0:0,0:0:0:0:
167,318,99197,6,0,P|133:301|96:299,1,75.0000028610231,0|0,3:0|0:0,0:0:0:0:
224,264,99439,2,0,P|280:310|278:382,1,150.000005722046,0|0,3:0|3:0,0:0:0:0:
425,304,99802,1,0,0:0:0:0:
354,280,99923,2,0,P|352:242|357:205,1,75.0000028610231,8|0,0:0|0:0,0:0:0:0:
252,45,100165,1,0,3:0:0:0:
322,68,100286,2,0,P|323:105|318:142,1,75.0000028610231,8|0,0:0|0:0,0:0:0:0:
109,113,100528,5,8,0:0:0:0:
103,36,100649,1,0,3:0:0:0:
31,120,100891,5,0,3:0:0:0:
31,120,101012,1,0,3:0:0:0:
31,120,101133,2,0,P|23:83|23:44,1,75.0000028610231,0|0,3:0|0:0,0:0:0:0:
50,368,101375,6,0,P|91:357|133:353,1,85.0000016212464,0|0,3:0|0:0,0:0:0:0:
21,215,101617,2,0,P|63:210|104:200,1,85.0000016212464,0|0,3:0|0:0,0:0:0:0:
178,289,101859,2,0,P|262:293|343:320,1,170.000003242493,8|0,0:0|3:0,0:0:0:0:
408,366,102221,2,0,B|425:327|425:327|414:285,1,85.0000016212464,8|0,0:0|3:0,0:0:0:0:
267,134,102463,2,0,B|250:173|250:173|260:214,1,85.0000016212464,8|0,0:0|3:0,0:0:0:0:
412,120,102705,1,0,3:0:0:0:
466,66,102826,6,0,B|395:-1|374:100|299:35,1,170.000003242493,8|0,0:0|3:0,0:0:0:0:
289,33,103129,1,0,3:0:0:0:
268,32,103189,1,0,3:0:0:0:
248,40,103250,1,0,3:0:0:0:
232,54,103310,2,0,P|148:48|63:50,2,170.000003242493,0|0|8,3:0|3:0|0:0,0:0:0:0:
16,213,104036,6,0,P|32:199|53:194,1,42.5000008106232,0|0,3:0|0:0,0:0:0:0:
118,153,104157,2,0,P|165:159|210:177,1,85.0000016212464,8|0,0:0|3:0,0:0:0:0:
271,142,104399,1,8,0:0:0:0:
297,318,104520,1,0,3:0:0:0:
133,332,104641,1,0,3:0:0:0:
263,219,104762,6,0,L|388:242,1,127.50000243187,8|0,0:0|0:0,0:0:0:0:
408,265,105004,1,0,3:0:0:0:
480,99,105125,1,0,0:0:0:0:
480,311,105246,6,0,P|488:268|482:224,1,85.0000016212464,0|0,3:0|0:0,0:0:0:0:
352,56,105488,2,0,P|344:99|350:143,1,85.0000016212464,0|0,3:0|0:0,0:0:0:0:
235,361,105730,1,8,0:0:0:0:
225,345,105971,6,0,L|183:339,1,42.5000008106232,0|0,3:0|0:0,0:0:0:0:
117,382,106092,1,8,0:0:0:0:
149,235,106213,1,0,3:0:0:0:
297,273,106334,1,8,0:0:0:0:
72,319,106455,6,0,L|62:149,1,170.000003242493,0|8,3:0|0:0,0:0:0:0:
142,151,106939,1,0,3:0:0:0:
143,127,106999,1,0,3:0:0:0:
154,106,107059,1,0,3:0:0:0:
172,91,107121,1,0,3:0:0:0:
195,85,107181,2,0,P|279:84|364:74,2,170.000003242493,0|0|8,3:0|3:0|0:0,0:0:0:0:
430,116,107907,5,0,3:0:0:0:
396,302,108028,2,0,P|354:302|311:307,1,85.0000016212464,8|0,0:0|0:0,0:0:0:0:
252,253,108270,5,8,0:0:0:0:
468,195,108391,2,0,P|426:195|383:190,1,85.0000016212464,0|0,3:0|0:0,0:0:0:0:
280,52,108633,5,8,0:0:0:0:
252,253,108754,1,0,0:0:0:0:
51,225,108875,1,4,3:0:0:0:
79,24,108996,1,4,3:0:0:0:
140,78,109117,6,0,B|154:146|154:146|145:177|145:177|161:242,1,170.000003242493,4|0,3:2|3:0,0:0:0:0:
227,179,109480,1,0,0:0:0:0:
231,335,109600,2,0,L|252:253,1,85.0000016212464,8|0,0:0|0:0,0:0:0:0:
227,179,109842,5,0,3:0:0:0:
51,225,109963,1,8,0:0:0:0:
157,362,110084,1,0,3:0:0:0:
343,315,110205,1,8,0:0:0:0:
405,363,110326,5,0,3:0:0:0:
447,155,110447,5,0,0:0:0:0:
471,318,110568,2,0,L|458:226,1,85.0000016212464,8|0,0:0|0:0,0:0:0:0:
447,155,110810,1,0,3:0:0:0:
384,204,110931,1,0,3:0:0:0:
365,43,111052,6,0,B|297:29|297:29|266:38|266:38|201:22,1,170.000003242493,0|0,3:0|3:0,0:0:0:0:
123,39,111415,1,0,0:0:0:0:
62,138,111536,2,0,L|45:55,1,85.0000016212464,8|0,0:0|0:0,0:0:0:0:
23,207,111778,5,0,3:0:0:0:
183,167,111899,1,8,0:0:0:0:
223,327,112020,1,0,3:0:0:0:
63,367,112141,1,8,0:0:0:0:
109,209,112262,5,0,3:0:0:0:
223,327,112383,6,0,L|266:335,1,42.5000008106232,0|0,3:0|3:0,0:0:0:0:
327,384,112504,2,0,L|410:368,1,85.0000016212464,8|0,0:0|3:0,0:0:0:0:
432,294,112746,1,0,3:0:0:0:
487,351,112867,1,0,0:0:0:0:
512,148,112988,6,0,B|444:140|444:140|418:121|418:121|349:111,1,170.000003242493,4|0,3:2|3:0,0:0:0:0:
284,155,113350,1,0,0:0:0:0:
376,27,113471,2,0,B|291:39,1,85.0000016212464,8|0,0:0|0:0,0:0:0:0:
118,65,113713,5,0,3:0:0:0:
28,231,113834,1,8,0:0:0:0:
194,321,113955,1,0,3:0:0:0:
284,155,114076,1,8,0:0:0:0:
343,209,114197,5,0,3:0:0:0:
450,21,114318,5,0,3:0:0:0:
419,184,114439,2,0,L|434:100,1,85.0000016212464,8|0,0:0|0:0,0:0:0:0:
450,21,114681,1,0,3:0:0:0:
478,238,114802,1,0,3:0:0:0:
374,47,114923,6,0,B|307:63|307:63|276:54|276:54|208:68,1,170.000003242493,0|0,3:0|3:0,0:0:0:0:
273,136,115286,1,0,0:0:0:0:
115,149,115407,2,0,B|198:166,1,85.0000016212464,8|0,0:0|0:0,0:0:0:0:
273,136,115649,5,0,3:0:0:0:
202,291,115770,1,8,0:0:0:0:
47,220,115891,1,0,3:0:0:0:
118,65,116012,1,8,0:0:0:0:
273,136,116133,5,0,3:0:0:0:
233,374,116254,1,0,0:0:0:0:
47,220,116375,2,0,P|39:177|40:135,1,85.0000016212464,8|0,0:0|0:0,0:0:0:0:
315,202,116617,2,0,P|323:245|322:286,1,85.0000016212464,0|0,3:0|0:0,0:0:0:0:
512,97,116859,6,0,B|443:107|443:107|417:126|417:126|349:134,1,170.000003242493,4|0,3:2|3:0,0:0:0:0:
385,50,117221,1,0,3:0:0:0:
476,183,117342,2,0,L|488:267,1,85.0000016212464,8|0,0:0|0:0,0:0:0:0:
503,346,117584,5,0,3:0:0:0:
342,365,117705,1,8,0:0:0:0:
315,202,117826,1,0,3:0:0:0:
476,183,117947,1,8,0:0:0:0:
342,365,118068,5,0,3:0:0:0:
251,157,118189,1,0,3:0:0:0:
117,340,118310,2,0,P|71:338|32:329,1,85.0000016212464,8|0,0:0|0:0,0:0:0:0:
218,76,118552,2,0,P|264:78|302:86,1,85.0000016212464,0|0,3:0|0:0,0:0:0:0:
251,157,118794,5,0,3:0:0:0:
173,256,118915,1,0,3:0:0:0:
150,129,119036,1,0,3:0:0:0:
249,297,119157,5,8,0:0:0:0:
218,76,119278,1,0,3:0:0:0:
89,260,119399,1,0,3:0:0:0:
138,43,119520,5,8,0:0:0:0:
155,340,119641,1,8,0:0:0:0:
304,87,119762,1,0,3:0:0:0:
355,65,119842,1,0,3:0:0:0:
409,83,119923,1,0,3:0:0:0:
438,131,120003,1,0,3:0:0:0:
428,186,120084,1,0,3:0:0:0:
385,222,120165,1,0,3:0:0:0:
313,185,120246,6,0,P|287:230|273:314,1,119.999996337891,8|0,0:0|0:0,0:0:0:0:
300,378,120609,6,0,B|231:370|231:370|201:335|201:335|128:326,1,187.500007152558,4|0,1:2|0:0,0:0:0:0:
53,354,120971,6,0,B|39:244,1,110.000003356934,8|0,0:0|0:0,0:0:0:0:
164,248,121213,2,0,B|178:139,1,110.000003356934,0|0,1:0|3:0,0:0:0:0:
52,142,121455,2,0,B|38:32,1,110.000003356934,8|0,0:0|0:0,0:0:0:0:
187,60,121697,6,0,P|235:33|289:27,1,110.000003356934,0|0,1:0|0:0,0:0:0:0:
365,139,121939,2,0,P|310:134|262:107,1,110.000003356934,8|0,0:0|0:0,0:0:0:0:
251,291,122181,2,0,P|305:284|352:257,1,110.000003356934,0|0,1:0|3:0,0:0:0:0:
282,209,122423,1,8,0:0:0:0:
447,59,122544,6,0,B|477:88|476:133|476:133|447:156|444:201|444:201|471:230|467:281,1,239.999992675781,4|0,3:2|3:0,0:0:0:0:
336,369,122907,2,0,P|343:315|370:268,1,110.000003356934,8|0,0:0|0:0,0:0:0:0:
419,339,123149,5,0,3:0:0:0:
202,356,123270,1,0,3:0:0:0:
215,275,123391,6,0,B|130:281|130:281|94:314|94:314|8:320,1,220.000006713867,8|0,0:0|3:0,0:0:0:0:
6,47,123754,1,0,0:0:0:0:
46,223,123875,6,0,P|36:169|54:117,1,110.000003356934,8|0,0:0|0:0,0:0:0:0:
229,199,124117,2,0,P|209:197|190:201,1,40,0|0,1:0|0:0,0:0:0:0:
117,174,124238,2,0,P|137:144|170:129,1,55.0000016784668,0|0,3:0|0:0,0:0:0:0:
339,64,124359,2,0,B|333:35|333:35|287:40|259:93|284:143,1,165.000005035401,8|0,0:0|0:0,0:0:0:0:
349,185,124600,6,0,B|444:179|494:255|494:255|470:256|446:275,1,220.000006713867,4|8,1:2|0:0,0:0:0:0:
229,199,124963,1,0,0:0:0:0:
425,347,125084,2,0,P|380:317|369:265,1,110.000003356934,0|0,3:0|3:0,0:0:0:0:
458,111,125326,5,8,0:0:0:0:
502,333,125447,1,0,0:0:0:0:
285,259,125568,2,0,P|203:265|127:297,1,165.000005035401,0|0,3:0|0:0,0:0:0:0:
105,221,125810,2,0,P|57:193|18:154,1,110.000003356934,8|0,0:0|0:0,0:0:0:0:
48,278,126052,6,0,P|50:306|39:331,1,55.0000016784668,0|0,1:0|0:0,0:0:0:0:
177,191,126173,2,0,P|165:166|124:146,1,64.9999970245363,0|0,3:0|0:0,0:0:0:0:
108,72,126294,2,0,B|167:-9|263:24|263:24|247:66,1,220.000006713867,8|4,0:0|3:2,0:0:0:0:
382,33,126657,5,0,3:0:0:0:
257,78,126778,5,8,0:0:0:0:
482,119,126899,1,0,0:0:0:0:
332,294,127020,1,0,3:0:0:0:
357,164,127141,1,0,3:0:0:0:
457,250,127262,1,8,0:0:0:0:
332,294,127383,1,0,0:0:0:0:
381,235,127504,6,0,P|363:298|365:363,1,129.999994049073,8|0,0:0|3:0,0:0:0:0:
162,203,127746,2,0,P|163:267|146:330,1,129.999994049073,8|0,0:0|3:0,0:0:0:0:
240,187,127988,1,8,0:0:0:0:
231,162,128068,1,8,0:0:0:0:
213,142,128149,1,8,0:0:0:0:
190,129,128229,1,8,0:0:0:0:
84,252,128350,6,0,B|25:175|89:99|89:99|120:131,1,200,4|0,1:2|3:0,0:0:0:0:
190,129,128713,6,0,P|210:77|210:23,1,110.000003356934,8|0,0:0|0:0,0:0:0:0:
288,248,128955,2,0,P|268:299|268:353,1,110.000003356934,0|0,1:0|3:0,0:0:0:0:
404,159,129197,2,0,P|349:158|298:138,1,110.000003356934,8|0,0:0|0:0,0:0:0:0:
403,249,129439,6,0,P|453:229|508:228,1,110.000003356934,0|0,1:0|0:0,0:0:0:0:
365,81,129681,2,0,P|317:53|283:10,1,110.000003356934,8|0,0:0|0:0,0:0:0:0:
141,204,129923,2,0,P|113:156|105:102,1,110.000003356934,0|0,1:0|3:0,0:0:0:0:
186,129,130165,1,8,0:0:0:0:
54,357,130286,6,0,B|101:259|205:287|205:287|184:307|182:339,1,239.999992675781,4|0,3:2|3:0,0:0:0:0:
40,245,130649,2,0,P|31:190|3:143,1,110.000003356934,8|0,0:0|3:0,0:0:0:0:
33,71,130891,5,0,3:0:0:0:
141,204,131012,1,0,3:0:0:0:
54,357,131133,2,0,B|128:341|196:377|196:377|239:375|258:344,1,220.000006713867,8|0,0:0|3:0,0:0:0:0:
200,290,131496,1,0,3:0:0:0:
424,226,131617,5,8,0:0:0:0:
256,64,131738,1,0,0:0:0:0:
200,290,131859,1,0,3:0:0:0:
419,145,131980,1,0,3:0:0:0:
188,108,132100,1,4,3:0:0:0:
272,326,132221,1,0,3:0:0:0:
293,194,132342,6,0,P|209:167|126:166,1,165.000005035401,4|0,1:2|0:0,0:0:0:0:
70,115,132584,1,8,0:0:0:0:
29,255,132705,1,0,0:0:0:0:
130,360,132826,1,0,3:0:0:0:
272,326,132947,1,0,3:0:0:0:
200,290,133068,6,0,B|163:275|169:214|239:185|307:218|324:264,1,220.000006713867,8|0,0:0|3:0,0:0:0:0:
359,332,133431,1,0,0:0:0:0:
442,186,133552,6,0,P|442:244|427:293,1,110.000003356934,8|0,0:0|0:0,0:0:0:0:
215,186,133794,2,0,P|215:128|230:79,1,110.000003356934,0|0,3:0|3:0,0:0:0:0:
384,86,134036,6,0,P|352:129|299:139,1,110.000003356934,8|0,0:0|0:0,0:0:0:0:
141,80,134278,2,0,B|102:50|167:8|257:19|327:74,1,220.000006713867,0|8,1:0|0:0,0:0:0:0:
215,186,134641,1,0,0:0:0:0:
66,121,134762,6,0,B|59:72|135:88|191:159|201:248,1,220.000006713867,0|8,1:0|0:0,0:0:0:0:
215,186,135125,1,0,0:0:0:0:
103,362,135246,5,0,1:0:0:0:
133,169,135367,1,0,0:0:0:0:
327,148,135488,1,8,0:0:0:0:
297,341,135609,1,0,0:0:0:0:
224,260,135730,5,8,0:0:0:0:
215,186,135810,1,8,0:0:0:0:
206,112,135891,1,8,0:0:0:0:
197,38,135972,1,8,0:0:0:0:
398,188,136092,6,0,B|412:229|485:218|486:143|467:95|413:76,1,200,4|0,1:2|0:0,0:0:0:0:
378,20,136455,6,0,P|330:47|277:58,1,110.000003356934,8|0,0:0|0:0,0:0:0:0:
133,169,136697,2,0,P|85:141|32:130,1,110.000003356934,0|0,1:0|0:0,0:0:0:0:
148,31,136939,2,0,P|184:41|172:112,1,110.000003356934,8|0,0:0|0:0,0:0:0:0:
237,268,137181,6,0,P|284:240|337:229,1,110.000003356934,0|0,1:0|0:0,0:0:0:0:
412,173,137423,2,0,P|459:200|512:211,1,110.000003356934,8|0,0:0|0:0,0:0:0:0:
415,357,137665,2,0,P|387:313|419:272,1,110.000003356934,0|0,1:0|0:0,0:0:0:0:
334,147,137907,1,8,0:0:0:0:
274,349,138028,6,0,B|237:256|135:275|135:275|151:292|148:320,1,220.000006713867,4|0,3:2|3:0,0:0:0:0:
255,100,138391,2,0,P|302:73|355:62,1,110.000003356934,8|0,0:0|0:0,0:0:0:0:
334,147,138633,5,0,3:0:0:0:
183,31,138754,1,0,3:0:0:0:
67,182,138875,2,0,B|0:155|18:86|18:86|58:52|62:-3,1,220.000006713867,8|0,0:0|3:0,3:0:0:0:
105,111,139238,5,0,0:0:0:0:
29,253,139359,1,8,0:0:0:0:
170,329,139480,1,0,0:0:0:0:
246,188,139600,1,0,3:0:0:0:
105,111,139721,1,0,3:0:0:0:
170,329,139842,5,8,0:0:0:0:
241,305,139922,1,8,0:0:0:0:
314,322,140003,1,8,0:0:0:0:
364,377,140084,2,0,P|418:373|471:358,1,110.000003356934,4|0,1:2|0:0,0:0:0:0:
482,280,140326,5,8,0:0:0:0:
501,144,140447,2,0,P|406:187|403:292,1,220.000006713867,0|0,3:0|0:0,0:0:0:0:
383,93,140810,2,0,B|329:109|329:109|286:75,1,110.000003356934,8|0,0:0|0:0,0:0:0:0:
261,163,141052,5,0,3:0:0:0:
167,56,141173,1,0,0:0:0:0:
85,165,141294,1,8,0:0:0:0:
183,271,141415,1,0,0:0:0:0:
160,135,141536,5,0,3:0:0:0:
57,323,141657,1,0,3:0:0:0:
255,368,141778,2,0,B|309:341|309:341|317:281,1,119.999996337891,8|0,0:0|0:0,0:0:0:0:
93,86,142020,6,0,P|-6:135|14:245,1,239.999992675781,0|8,3:0|0:0,0:0:0:0:
63,308,142383,1,0,0:0:0:0:
243,173,142504,5,0,3:0:0:0:
167,152,142625,1,0,3:0:0:0:
63,308,142746,6,0,B|102:260|102:260|80:205,1,119.999996337891,8|0,0:0|0:0,0:0:0:0:
84,72,142988,5,0,3:0:0:0:
8,93,143109,1,0,3:0:0:0:
208,244,143230,6,0,B|169:292|169:292|190:346,1,119.999996337891,12|0,0:0|0:0,0:0:0:0:
180,362,143471,5,0,3:0:0:0:
364,326,143592,1,0,3:0:0:0:
318,144,143713,1,8,0:0:0:0:
438,359,143834,6,0,L|453:159,1,200,4|0,1:2|0:0,0:0:0:0:
418,83,144197,6,0,B|374:131|374:131|309:126,1,129.999994049073,8|0,0:0|0:0,0:0:0:0:
270,55,144439,2,0,P|206:41|144:22,1,129.999994049073,0|0,1:0|0:0,0:0:0:0:
205,255,144681,2,0,P|267:236|331:224,1,129.999994049073,8|0,0:0|0:0,0:0:0:0:
71,63,144923,6,0,B|31:114|31:114|47:177,1,129.999994049073,0|0,1:0|0:0,0:0:0:0:
48,373,145165,2,0,P|37:308|13:248,1,129.999994049073,8|0,0:0|0:0,0:0:0:0:
223,120,145407,2,0,P|199:180|188:244,1,129.999994049073,0|0,1:0|0:0,0:0:0:0:
118,287,145649,1,8,0:0:0:0:
118,133,145770,6,0,P|229:82|309:172,1,259.999988098145,4|0,3:2|3:0,0:0:0:0:
313,257,146133,2,0,B|374:235|374:235|396:174,1,129.999994049073,8|0,0:0|0:0,0:0:0:0:
501,345,146375,5,0,3:0:0:0:
491,267,146496,1,0,3:0:0:0:
484,358,146617,6,0,B|379:280|379:280|257:320,1,259.999988098145,8|0,0:0|3:0,0:0:0:0:
210,383,146980,1,0,0:0:0:0:
61,302,147100,5,8,0:0:0:0:
70,218,147221,1,0,0:0:0:0:
76,295,147342,1,0,3:0:0:0:
86,211,147463,1,0,3:0:0:0:
194,103,147584,5,8,0:0:0:0:
141,156,147665,1,8,0:0:0:0:
88,101,147746,1,8,0:0:0:0:
142,48,147826,2,0,B|198:81|198:81|261:63,1,129.999994049073,4|0,1:2|0:0,0:0:0:0:
302,0,148068,5,8,0:0:0:0:
445,14,148189,1,0,0:0:0:0:
451,169,148310,1,2,1:2:0:0:
392,74,148431,1,0,3:0:0:0:
311,157,148552,2,0,L|325:286,1,129.999994049073,8|0,0:0|0:0,0:0:0:0:
268,343,148794,5,2,1:2:0:0:
132,265,148915,1,0,0:0:0:0:
219,136,149036,1,8,0:0:0:0:
294,169,149157,5,2,1:2:0:0:
310,47,149278,1,0,3:0:0:0:
187,25,149399,1,0,3:0:0:0:
227,216,149520,6,0,L|99:242,1,129.999994049073,10|0,0:0|0:0,0:0:0:0:
268,343,149762,2,0,P|390:323|419:204,1,259.999988098145,4|8,1:2|0:0,0:0:0:0:
343,226,150125,1,0,0:0:0:0:
201,303,150246,6,0,P|79:282|50:163,1,259.999988098145,2|8,1:2|0:0,0:0:0:0:
123,195,150609,1,0,0:0:0:0:
118,271,150730,6,0,B|99:333|99:333|38:354,1,129.999994049073,2|0,1:2|0:0,0:0:0:0:
29,189,150971,2,0,B|47:126|47:126|108:105,1,129.999994049073,8|8,0:0|0:0,0:0:0:0:
512,307,151213,6,0,P|500:271|470:246,1,80,8|8,1:2|1:2,0:0:0:0:
186,339,151375,2,0,P|225:342|263:329,1,80,8|8,1:2|1:2,0:0:0:0:
327,38,151536,2,0,P|301:68|295:107,1,79.9999975585938,8|8,1:2|1:2,0:0:0:0:
343,226,151697,5,6,1:2:0:0:
309,190,151818,5,0,0:0:0:0:
389,217,151939,1,10,0:0:0:0:
326,272,152060,1,2,3:2:0:0:
294,106,152181,6,0,P|301:67|327:37,1,79.9999975585938,2|0,1:2|3:0,0:0:0:0:
263,329,152423,2,0,P|225:342|186:339,1,80,10|0,0:0|0:0,0:0:0:0:
467,245,152665,2,0,P|497:270|514:306,1,80,2|0,1:2|3:0,0:0:0:0:
294,106,152907,6,0,P|301:67|327:37,1,79.9999975585938,10|0,0:0|0:0,0:0:0:0:
213,207,153149,2,0,P|183:181|170:144,2,79.9999975585938,2|0|10,1:2|3:0|0:0,0:0:0:0:
86,277,153512,5,0,3:0:0:0:
18,233,153633,2,0,P|29:138|114:85,1,200,6|10,1:2|0:0,0:0:0:0:
81,357,153996,2,0,P|155:297|253:321,1,200,2|0,1:2|0:0,0:0:0:0:
297,163,154359,2,0,L|309:264,1,100,10|0,0:0|0:0,0:0:0:0:
512,135,154600,6,0,P|436:74|342:96,1,200,2|10,1:2|0:0,0:0:0:0:
376,170,154963,1,0,3:0:0:0:
262,90,155084,2,0,B|212:99|212:99|166:80,1,100,2|0,0:0|3:0,0:0:0:0:
221,16,155326,1,10,0:0:0:0:
83,71,155447,1,8,0:0:0:0:
83,71,155568,6,0,P|87:110|85:150,1,80,6|0,1:2|0:0,0:0:0:0:
113,224,155810,1,10,0:0:0:0:
31,372,155931,2,0,P|75:309|152:313,1,160,2|0,1:2|0:0,0:0:0:0:
346,355,156294,2,0,B|359:317|359:317|348:278,1,80,10|0,0:0|0:0,0:0:0:0:
191,243,156536,2,0,B|177:280|177:280|188:319,1,80,2|0,1:2|3:0,0:0:0:0:
246,184,156778,6,0,L|325:175,1,80,10|0,0:0|0:0,0:0:0:0:
346,355,157020,2,0,L|425:363,2,80,2|0|10,1:2|3:0|0:0,0:0:0:0:
278,314,157383,5,0,3:0:0:0:
348,277,157504,2,0,P|352:178|370:79,1,200,6|10,1:2|0:0,0:0:0:0:
158,64,157867,2,0,P|225:-3|318:17,1,200,2|0,1:2|0:0,0:0:0:0:
174,144,158230,2,0,B|123:145|123:145|90:109,1,100,10|0,0:0|0:0,0:0:0:0:
56,267,158471,6,0,P|-11:199|9:106,1,200,2|8,1:2|0:0,0:0:0:0:
87,128,158834,1,0,0:0:0:0:
129,297,158955,5,8,0:0:0:0:
135,264,159035,1,8,0:0:0:0:
158,239,159116,1,8,0:0:0:0:
189,227,159197,1,8,0:0:0:0:
362,233,159318,5,0,3:0:0:0:
337,62,159439,6,0,P|443:47|523:118,1,220.000006713867,6|10,1:2|0:0,0:0:0:0:
475,322,159802,2,0,P|369:336|289:265,1,220.000006713867,2|0,1:2|0:0,0:0:0:0:
285,120,160165,2,0,B|231:111|231:111|189:146,1,110.000003356934,10|0,0:0|0:0,0:0:0:0:
362,137,160407,2,0,B|415:128|415:128|457:163,1,110.000003356934,2|0,1:2|3:0,0:0:0:0:
165,144,160649,6,0,B|130:101|130:101|140:47,1,110.000003356934,10|0,0:0|0:0,0:0:0:0:
169,222,160891,2,0,P|175:276|167:330,2,110.000003356934,2|0|10,1:2|3:0|0:0,0:0:0:0:
97,187,161254,1,0,3:0:0:0:
181,348,161375,6,0,P|285:349|328:254,1,220.000006713867,6|10,1:2|0:0,0:0:0:0:
255,12,161738,2,0,P|244:121|252:230,1,220.000006713867,2|0,1:2|0:0,0:0:0:0:
503,248,162100,2,0,B|456:217|456:217|402:227,1,110.000003356934,10|0,0:0|0:0,0:0:0:0:
489,83,162342,6,0,P|385:82|341:176,1,220.000006713867,2|10,1:2|0:0,0:0:0:0:
427,30,162705,1,0,0:0:0:0:
329,193,162826,2,0,B|282:224|282:224|229:213,1,110.000003356934,2|0,3:2|3:0,0:0:0:0:
264,140,163068,1,10,0:0:0:0:
115,359,163189,1,8,0:0:0:0:
115,359,163310,6,0,P|100:306|105:251,1,110.000003356934,6|0,1:2|0:0,0:0:0:0:
56,190,163552,1,10,0:0:0:0:
100,38,163673,2,0,P|204:37|248:131,1,220.000006713867,2|0,1:2|0:0,0:0:0:0:
184,271,164036,2,0,P|189:216|175:164,1,110.000003356934,10|0,0:0|0:0,0:0:0:0:
329,6,164278,2,0,P|323:60|338:113,1,110.000003356934,2|0,1:2|0:0,0:0:0:0:
378,229,164520,6,0,B|433:233|433:233|481:205,1,110.000003356934,10|0,0:0|0:0,0:0:0:0:
304,263,164762,2,0,B|248:258|248:258|200:286,2,110.000003356934,2|0|10,1:2|3:0|0:0,0:0:0:0:
370,309,165125,1,0,3:0:0:0:
312,184,165246,5,8,0:0:0:0:
235,162,165367,1,0,3:0:0:0:
408,52,165488,5,8,0:0:0:0:
485,30,165609,1,0,3:0:0:0:
389,139,165730,5,8,0:0:0:0:
241,49,165850,1,0,3:0:0:0:
151,197,165971,1,8,0:0:0:0:
299,285,166092,1,8,0:0:0:0:
293,107,166213,5,8,0:0:0:0:
117,129,166334,1,0,3:0:0:0:
123,307,166455,2,0,L|224:263,1,110.000003356934,8|0,0:0|0:0,0:0:0:0:
74,66,166697,5,8,0:0:0:0:
57,81,166777,1,8,0:0:0:0:
45,100,166858,1,8,0:0:0:0:
40,122,166938,1,8,0:0:0:0:
74,192,167060,1,0,3:0:0:0:
42,263,167181,6,0,P|45:312|41:362,1,100,0|0,3:0|0:0,0:0:0:0:
123,307,167544,1,0,3:0:0:0:
203,363,167665,2,0,P|200:314|204:264,1,100,8|0,0:0|3:0,0:0:0:0:
322,243,168028,6,0,P|298:251|281:268,1,50,8|0,0:0|3:0,0:0:0:0:
279,347,168270,1,8,0:0:0:0:
357,365,168391,2,0,P|405:357|455:362,1,100,0|8,3:0|0:0,0:0:0:0:
470,347,168875,5,0,3:0:0:0:
427,281,169117,2,0,P|431:230|424:181,1,100,8|0,0:0|3:0,0:0:0:0:
453,12,169480,2,0,P|447:61|454:110,1,100,8|0,0:0|3:0,0:0:0:0:
377,119,169842,2,0,B|327:106|327:106|284:128,1,100,8|0,0:0|3:0,0:0:0:0:
266,118,170205,1,0,3:0:0:0:
141,240,170326,5,8,3:0:0:0:
172,231,170406,1,0,3:0:0:0:
201,247,170487,1,0,3:0:0:0:
211,278,170567,1,8,3:2:0:0:
256,192,170931,5,4,1:2:0:0:
315,247,172988,6,0,B|389:261|389:261|398:267|398:267|470:279,2,160,4|0|4,3:2|3:0|3:2,0:0:0:0:
315,247,175649,5,0,3:0:0:0:
315,247,175770,5,0,3:0:0:0:
315,247,175891,5,8,3:0:0:0:
273,113,176254,1,8,3:0:0:0:
179,216,176617,1,8,3:0:0:0:
256,192,176859,5,4,3:2:0:0:
179,216,178673,5,4,1:2:0:0:
179,216,179036,6,0,L|175:166,1,50,0|0,3:0|0:0,0:0:0:0:
164,161,179278,2,0,L|168:211,1,50,0|0,3:0|0:0,0:0:0:0:
157,206,179520,2,0,L|153:156,1,50,0|0,3:0|0:0,0:0:0:0:
142,151,179762,2,0,L|146:201,1,50,0|0,3:0|0:0,0:0:0:0:
135,196,180004,2,0,L|131:146,1,50,0|0,3:0|0:0,0:0:0:0:
120,141,180246,2,0,L|124:191,1,50,0|0,3:0|0:0,0:0:0:0:
71,247,180488,6,0,L|75:297,1,50,0|8,3:0|0:0,0:0:0:0:
134,347,180730,2,0,P|182:338|232:336,2,100,0|0|0,3:0|3:0|3:0,0:0:0:0:
378,288,181455,6,0,P|329:278|279:276,2,100,0|0|0,3:0|3:0|3:0,0:0:0:0:
441,242,182181,1,0,3:0:0:0:
424,172,182302,1,8,0:0:0:0:
424,172,182423,1,0,3:0:0:0:
487,126,182544,1,8,0:0:0:0:
487,126,182665,2,0,P|437:124|388:114,1,100,4|0,3:2|3:0,0:0:0:0:
142,129,183149,6,0,P|191:130|240:140,2,100,0|0|0,3:0|3:0|3:0,0:0:0:0:
310,98,183875,1,0,3:0:0:0:
345,231,184117,2,0,P|295:229|246:219,1,100,0|0,3:0|3:0,0:0:0:0:
25,278,184480,5,0,3:0:0:0:
21,358,184600,2,0,P|94:273|189:287,1,200,4|8,1:2|0:0,0:0:0:0:
356,372,184963,5,8,0:0:0:0:
457,208,185084,1,8,0:0:0:0:
293,107,185205,1,8,0:0:0:0:
192,271,185326,1,8,0:0:0:0:
358,293,185447,5,8,0:0:0:0:
277,122,185568,5,8,3:2:0:0:
163,96,185649,5,8,3:2:0:0:
77,144,185730,5,8,3:2:0:0:
53,221,185810,5,8,3:2:0:0:
67,279,185891,5,8,3:2:0:0:
99,305,185971,5,10,3:2:0:0:
121,308,186052,5,10,3:2:0:0:
121,308,186415,6,0,B|239:354|214:196|325:248,1,224.999993133545,4|0,1:2|0:0,0:0:0:0:
366,308,186778,6,0,P|415:290|471:212,1,129.999994049073,8|0,0:0|0:0,0:0:0:0:
333,101,187020,2,0,P|341:164|317:224,1,129.999994049073,0|0,1:0|3:0,0:0:0:0:
147,100,187262,2,0,P|197:139|223:198,1,129.999994049073,8|0,0:0|0:0,0:0:0:0:
367,288,187504,6,0,P|412:261|453:175,1,129.999994049073,0|0,1:0|0:0,0:0:0:0:
297,84,187746,2,0,P|316:146|303:209,1,129.999994049073,8|0,0:0|0:0,0:0:0:0:
109,114,187988,2,0,P|165:144|201:198,1,129.999994049073,0|0,1:0|3:0,0:0:0:0:
367,288,188230,5,8,0:0:0:0:
416,352,188350,2,0,P|411:222|424:93,1,259.999988098145,4|0,3:2|0:0,0:0:0:0:
387,24,188713,2,0,P|320:25|280:75,1,129.999994049073,8|0,0:0|0:0,0:0:0:0:
38,37,188955,5,0,3:0:0:0:
195,12,189076,1,0,3:0:0:0:
89,99,189197,2,0,P|91:163|84:228,1,129.999994049073,8|0,0:0|0:0,0:0:0:0:
127,295,189439,1,0,3:0:0:0:
281,348,189560,1,0,0:0:0:0:
340,188,189681,1,8,0:0:0:0:
179,130,189802,5,0,0:0:0:0:
282,245,189923,1,0,3:0:0:0:
427,189,190044,1,0,3:0:0:0:
324,80,190165,1,8,0:0:0:0:
280,80,190246,1,8,0:0:0:0:
246,51,190326,1,8,0:0:0:0:
202,57,190407,2,0,P|138:64|73:57,1,129.999994049073,4|0,1:2|0:0,0:0:0:0:
25,121,190649,5,8,0:0:0:0:
7,247,190770,1,0,3:0:0:0:
110,327,190891,1,0,3:0:0:0:
126,198,191012,1,0,3:0:0:0:
181,289,191133,6,0,P|245:282|310:289,1,129.999994049073,8|0,0:0|0:0,0:0:0:0:
231,66,191375,2,0,P|347:108|366:231,1,259.999988098145,0|8,3:0|0:0,0:0:0:0:
290,205,191738,5,0,0:0:0:0:
231,66,191859,1,0,3:0:0:0:
198,217,191980,1,0,3:0:0:0:
311,113,192100,1,8,0:0:0:0:
159,129,192221,1,0,3:0:0:0:
290,205,192342,6,0,B|424:255|369:57|493:98,1,259.999988098145,0|8,3:0|0:0,0:0:0:0:
495,18,192705,1,0,0:0:0:0:
330,78,192826,1,0,3:0:0:0:
477,177,192947,1,0,3:0:0:0:
477,176,193068,2,0,P|473:242|479:308,1,129.999994049073,8|0,0:0|0:0,0:0:0:0:
401,368,193310,5,0,3:0:0:0:
348,357,193391,1,0,3:0:0:0:
312,317,193471,1,0,3:0:0:0:
259,306,193552,1,8,3:2:0:0:
231,66,193794,5,0,3:0:0:0:
178,77,193875,1,0,3:0:0:0:
142,117,193955,1,0,3:0:0:0:
89,128,194036,1,8,3:2:0:0:
278,1,194157,6,0,P|367:77|331:190,1,250,4|0,1:2|0:0,0:0:0:0:
258,159,194520,6,0,B|175:149|224:111|139:98,1,129.999994049073,8|0,0:0|0:0,0:0:0:0:
168,220,194762,2,0,B|91:252|114:195|34:226,1,129.999994049073,0|0,1:0|3:0,0:0:0:0:
120,317,195004,2,0,B|69:383|61:322|13:382,1,129.999994049073,8|0,0:0|0:0,0:0:0:0:
273,144,195246,6,0,B|192:119|247:90|166:63,1,129.999994049073,0|0,1:0|0:0,0:0:0:0:
174,201,195488,2,0,B|92:219|125:167|41:184,1,129.999994049073,8|0,0:0|0:0,0:0:0:0:
116,299,195730,2,0,B|54:356|57:294|-7:350,1,129.999994049073,0|0,1:0|3:0,0:0:0:0:
368,275,195971,5,8,0:0:0:0:
393,351,196092,2,0,B|417:298|417:298|375:155|375:155|398:105,1,259.999988098145,4|0,1:2|0:0,0:0:0:0:
349,41,196455,2,0,B|410:21|410:21|465:58,1,129.999994049073,8|0,0:0|0:0,0:0:0:0:
277,119,196697,5,0,3:0:0:0:
198,133,196818,1,0,3:0:0:0:
131,56,196939,6,0,B|76:92|76:92|14:73,1,129.999994049073,8|0,0:0|0:0,0:0:0:0:
183,117,197181,2,0,L|150:375,1,259.999988098145,0|8,3:0|0:0,0:0:0:0:
74,384,197544,5,0,0:0:0:0:
54,232,197665,1,0,1:0:0:0:
206,212,197786,1,0,3:0:0:0:
170,325,197907,5,8,0:0:0:0:
149,321,197988,1,8,0:0:0:0:
128,316,198068,1,8,0:0:0:0:
107,311,198149,1,4,1:2:0:0:
65,247,198270,5,0,0:0:0:0:
172,141,198391,1,8,0:0:0:0:
356,210,198512,1,0,0:0:0:0:
248,315,198633,1,2,1:2:0:0:
128,205,198754,5,0,3:0:0:0:
195,55,198875,2,0,B|254:24|254:24|312:47,1,129.999994049073,8|0,0:0|0:0,0:0:0:0:
331,299,199117,5,2,1:2:0:0:
261,120,199238,1,0,0:0:0:0:
440,50,199359,1,8,0:0:0:0:
510,229,199480,1,2,1:2:0:0:
385,123,199600,5,0,3:0:0:0:
373,199,199721,1,0,3:0:0:0:
183,45,199842,6,0,B|124:68|124:68|65:37,1,129.999994049073,8|0,0:0|0:0,0:0:0:0:
8,91,200084,2,0,P|26:212|145:244,1,259.999988098145,4|8,1:2|0:0,0:0:0:0:
142,167,200447,1,0,0:0:0:0:
373,199,200568,6,0,P|354:320|235:352,1,259.999988098145,2|8,1:2|0:0,0:0:0:0:
235,275,200931,1,0,0:0:0:0:
41,353,201052,6,0,P|44:298|38:243,1,110.000003356934,2|0,1:2|0:0,0:0:0:0:
125,182,201294,2,0,P|121:236|127:291,1,110.000003356934,8|8,0:0|0:0,0:0:0:0:
68,126,201536,5,2,1:2:0:0:
89,81,201616,1,0,3:0:0:0:
134,60,201697,1,0,3:0:0:0:
182,73,201777,1,8,0:0:0:0:
303,83,201899,5,8,0:0:0:0:
370,35,202020,5,12,3:2:0:0:
400,31,202141,1,2,0:0:0:0:
430,28,202262,1,0,3:0:0:0:
439,151,202383,5,12,3:2:0:0:
400,145,202504,1,2,0:0:0:0:
361,141,202625,1,0,3:0:0:0:
347,267,202746,5,12,3:2:0:0:
397,259,202867,1,2,0:0:0:0:
448,253,202988,1,0,3:0:0:0:
464,384,203109,5,12,3:2:0:0:
399,373,203230,1,2,0:0:0:0:
332,365,203351,1,0,3:0:0:0:
280,174,203471,5,12,3:2:0:0:
280,174,203592,1,0,3:0:0:0:
89,226,203713,5,12,3:2:0:0:
89,226,203834,1,0,3:0:0:0:
37,35,203955,5,12,3:2:0:0:
31,68,204076,1,2,0:0:0:0:
25,101,204197,1,0,3:0:0:0:
163,113,204318,5,12,3:2:0:0:
155,70,204439,1,2,0:0:0:0:
147,27,204560,1,0,3:0:0:0:
312,18,204681,5,12,3:2:0:0:
301,73,204802,1,2,0:0:0:0:
291,129,204923,1,0,3:0:0:0:
470,150,205044,5,12,3:2:0:0:
455,78,205165,1,2,0:0:0:0:
442,5,205286,1,0,3:0:0:0:
420,209,205407,5,12,3:2:0:0:
420,209,205528,1,0,3:0:0:0:
216,187,205649,5,12,3:2:0:0:
216,187,205770,1,0,3:0:0:0:
279,139,205891,5,12,3:2:0:0:
75,117,206012,1,2,0:0:0:0:
53,321,206133,1,0,3:0:0:0:
257,343,206254,5,12,3:2:0:0:
255,317,206375,1,2,0:0:0:0:
234,305,206496,1,0,3:0:0:0:
337,384,206617,5,12,3:2:0:0:
457,335,206738,1,2,0:0:0:0:
354,256,206859,1,0,3:0:0:0:
378,324,206980,5,12,3:2:0:0:
384,329,207101,1,2,0:0:0:0:
385,321,207222,1,0,3:0:0:0:
382,324,207342,6,0,L|390:215,1,110.000003356934,12|0,3:2|0:0,0:0:0:0:
180,133,207584,2,0,L|188:242,1,110.000003356934,12|0,3:2|0:0,0:0:0:0:
252,289,207826,5,12,3:2:0:0:
408,217,207947,1,2,0:0:0:0:
336,61,208068,1,0,3:0:0:0:
279,115,208189,5,12,3:2:0:0:
298,134,208310,1,2,0:0:0:0:
326,139,208431,1,0,3:0:0:0:
260,37,208552,5,12,3:2:0:0:
260,37,208673,1,2,0:0:0:0:
46,86,208794,5,0,3:0:0:0:
14,188,208875,5,8,3:2:0:0:
65,262,208955,5,8,3:2:0:0:
122,272,209036,5,8,3:2:0:0:
161,243,209117,5,8,3:2:0:0:
162,217,209197,5,8,3:2:0:0:
153,205,209278,5,0,3:0:0:0:
153,205,209762,6,0,P|148:254|151:304,1,100,4|0,3:2|0:0,0:0:0:0:
30,95,210004,2,0,P|35:45|32:-4,1,100,10|0,0:0|3:0,0:0:0:0:
90,149,210246,5,2,0:0:0:0:
242,46,210367,1,0,3:0:0:0:
317,213,210488,1,10,3:2:0:0:
165,316,210609,1,0,3:0:0:0:
153,205,210730,6,0,B|203:200|203:200|239:234,1,100,2|0,0:0|3:0,0:0:0:0:
317,213,210971,1,8,0:0:0:0:
406,75,211092,2,0,B|385:120|385:120|337:134,1,100,2|0,0:0|3:0,0:0:0:0:
317,213,211333,1,0,3:0:0:0:
392,359,211455,2,0,B|362:318|362:318|374:269,1,100,10|0,0:0|0:0,0:0:0:0:
317,213,211697,5,6,3:2:0:0:
312,207,211818,1,0,0:0:0:0:
310,191,211939,1,10,0:0:0:0:
323,161,212060,1,0,3:0:0:0:
371,150,212181,5,2,0:0:0:0:
426,205,212302,5,0,3:0:0:0:
407,293,212423,5,10,0:0:0:0:
289,314,212544,5,0,3:0:0:0:
204,184,212665,6,0,P|202:134|212:85,1,100,2|0,0:0|3:0,0:0:0:0:
152,34,212907,1,8,0:0:0:0:
82,286,213028,6,0,P|83:335|73:384,1,100,2|0,3:2|0:0,0:0:0:0:
4,329,213270,1,0,3:0:0:0:
136,227,213391,5,10,0:0:0:0:
112,211,213471,1,8,0:0:0:0:
84,205,213552,1,8,0:0:0:0:
56,211,213632,1,6,3:2:0:0:
154,326,213754,1,0,0:0:0:0:
303,299,213875,1,10,0:0:0:0:
204,184,213996,1,0,3:0:0:0:
220,269,214117,5,2,0:0:0:0:
278,105,214238,1,0,3:0:0:0:
114,47,214359,1,10,0:0:0:0:
56,211,214480,1,0,3:0:0:0:
278,105,214600,6,0,P|327:106|377:99,1,100,2|0,0:0|3:0,0:0:0:0:
451,81,214842,1,8,0:0:0:0:
221,186,214963,2,0,P|197:142|166:102,1,100,2|0,0:0|3:0,0:0:0:0:
114,47,215205,1,0,3:0:0:0:
320,195,215326,2,0,P|293:237|275:284,1,100,10|8,0:0|0:0,0:0:0:0:
254,356,215568,5,10,0:0:0:0:
177,336,215689,1,0,3:0:0:0:
366,276,215810,5,10,0:0:0:0:
443,256,215931,1,0,3:0:0:0:
277,125,216052,5,10,0:0:0:0:
199,262,216173,1,0,3:0:0:0:
62,184,216294,1,10,0:0:0:0:
140,47,216415,1,0,3:0:0:0:
134,123,216536,5,0,3:0:0:0:
167,161,216617,1,8,3:2:0:0:
148,206,216697,1,8,3:2:0:0:
180,244,216778,1,8,3:2:0:0:
159,288,216859,1,8,3:2:0:0:
194,323,216939,1,8,3:2:0:0:
171,367,217020,1,8,3:2:0:0:
248,379,217141,5,8,3:2:0:0:
405,279,217262,1,8,3:2:0:0:
239,193,217383,1,8,3:2:0:0:
297,283,217504,6,0,L|299:243,3,40,0|0|0|0,3:0|0:0|0:0|0:0,0:0:0:0:
456,219,218230,6,0,L|453:179,3,40
393,138,218955,5,0,0:0:0:0:
393,138,219197,2,0,L|395:98,1,40
341,51,219439,6,0,P|312:50|282:43,1,59.9999981689454,2|2,0:0|0:0,0:0:0:0:
270,76,219681,2,0,P|299:69|329:69,1,59.9999981689454,2|2,0:0|0:0,0:0:0:0:
218,133,220165,6,0,P|193:131|172:126,1,40,2|2,0:0|0:0,0:0:0:0:
170,151,220407,2,0,P|189:148|209:146,1,40,2|2,0:0|0:0,0:0:0:0:
118,208,220891,6,0,P|105:207|95:204,1,20,2|2,0:0|0:0,0:0:0:0:
94,217,221133,2,0,P|103:215|113:214,1,20,2|2,0:0|0:0,0:0:0:0:
