osu file format v14

[General]
AudioFilename: audio.mp3
AudioLeadIn: 0
PreviewTime: 54742
Countdown: 0
SampleSet: Soft
StackLeniency: 0.7
Mode: 0
LetterboxInBreaks: 0
WidescreenStoryboard: 1

[Editor]
DistanceSpacing: 1
BeatDivisor: 2
GridSize: 8
TimelineZoom: 1

[Metadata]
Title:Gomi no Hi
TitleUnicode:ゴミの日
Artist:Fujikawa Chiai
ArtistUnicode:藤川千愛
Creator:a_Blue
Version:Normal
Source:
Tags:laika ライカ japanese rock furuya kan 古谷完 fujinaga ryutaro 藤永龍太郎 ablue
BeatmapID:2729417
BeatmapSetID:1235121

[Difficulty]
HPDrainRate:3
CircleSize:3
OverallDifficulty:4
ApproachRate:6
SliderMultiplier:0.800000005960464
SliderTickRate:1

[Events]
//Background and Video events
0,0,"bg (5).png",0,0
//Break Periods
2,35768,41776
2,171131,171938
//Storyboard Layer 0 (Background)
//Storyboard Layer 1 (Fail)
//Storyboard Layer 2 (Pass)
//Storyboard Layer 3 (Foreground)
//Storyboard Layer 4 (Overlay)
//Storyboard Sound Samples

[TimingPoints]
730,241.935483870968,4,2,1,70,1,0
12342,-100,4,2,1,60,0,0
20084,-100,4,2,1,50,0,0
35568,-100,4,2,1,30,0,0
42826,-100,4,2,1,50,0,0
43310,-100,4,2,1,60,0,0
54802,-100,4,2,1,70,0,0
85891,-100,4,2,1,60,0,0
93633,-100,4,2,1,50,0,0
109117,-100,4,2,1,60,0,0
120609,-100,4,2,1,70,0,0
151697,-100,4,2,1,60,0,0
167181,-100,4,2,1,45,0,0
170931,-100,4,2,1,50,0,0
178673,-100,4,2,1,60,0,0
184600,-100,4,2,1,70,0,0
186415,-100,4,2,1,80,0,0
202020,-100,4,2,1,70,0,0
209762,-100,4,2,1,60,0,0
217504,-100,4,2,1,30,0,0

[Colours]
Combo1 : 255,136,136
Combo2 : 128,128,255
Combo3 : 254,152,90
Combo4 : 150,150,150

[HitObjects]
270,56,4117,5,8,0:0:0:0:
147,115,4600,6,0,B|136:175|136:175|168:224,1,120.00000089407,12|12,3:2|3:2,0:0:0:0:
171,304,5326,2,0,L|292:280,1,120.00000089407,12|12,3:2|3:2,0:0:0:0:
365,305,6052,2,0,L|375:223,1,80.0000005960464,12|12,3:2|3:2,0:0:0:0:
442,184,6536,6,0,L|427:64,1,120.00000089407,12|12,3:2|3:2,0:0:0:0:
349,50,7262,2,0,B|298:81|298:81|240:61,1,120.00000089407,12|12,3:2|3:2,0:0:0:0:
176,107,7988,2,0,B|141:86|141:86|103:99,1,80.0000005960464,12|12,3:2|3:2,0:0:0:0:
75,173,8471,6,0,L|89:292,1,120.00000089407,12|12,3:2|3:2,0:0:0:0:
161,328,9197,2,0,B|212:323|212:323|224:312|224:312|277:307,1,120.00000089407,12|12,3:2|3:2,0:0:0:0:
302,232,9923,2,0,L|381:239,1,80.0000005960464,12|12,3:2|3:2,0:0:0:0:
439,183,10407,6,0,P|441:125|397:88,1,120.00000089407,12|12,3:2|3:2,0:0:0:0:
340,32,11133,2,0,P|285:55|227:73,1,120.00000089407,12|12,3:2|3:2,0:0:0:0:
246,149,11738,1,0,3:0:0:0:
179,190,11980,2,0,P|140:179|103:163,1,80.0000005960464,8|8,0:0|0:0,0:0:0:0:
79,174,12342,6,0,L|88:344,1,160.000001192093,4|10,3:2|0:0,0:0:0:0:
163,362,13068,1,2,3:2:0:0:
234,324,13310,2,0,L|313:319,1,80.0000005960464,2|2,3:2|0:0,0:0:0:0:
346,247,13794,2,0,L|425:251,1,80.0000005960464,10|2,0:0|3:2,0:0:0:0:
473,188,14278,6,0,P|472:110|410:64,1,160.000001192093,6|10,3:2|0:0,0:0:0:0:
333,78,15004,1,2,3:2:0:0:
309,3,15246,2,0,P|270:6|230:2,1,80.0000005960464,2|2,3:2|0:0,0:0:0:0:
185,68,15730,2,0,P|145:64|105:67,1,80.0000005960464,10|8,0:0|3:2,0:0:0:0:
61,132,16213,6,0,B|36:212|97:204|68:295,1,160.000001192093,6|10,3:2|0:0,0:0:0:0:
131,339,16939,1,2,3:2:0:0:
198,294,17181,2,0,B|235:306|235:306|275:294,1,80.0000005960464,2|0,3:2|0:0,0:0:0:0:
344,332,17665,2,0,B|381:319|381:319|421:332,1,80.0000005960464,10|2,0:0|3:2,0:0:0:0:
472,271,18149,6,0,P|477:194|412:153,1,160.000001192093,4|10,3:2|0:0,0:0:0:0:
337,172,18875,1,2,3:2:0:0:
324,95,19117,2,0,P|285:87|247:75,1,80.0000005960464,2|2,3:2|3:2,0:0:0:0:
182,28,19600,2,0,P|143:35|105:47,1,80.0000005960464,8|0,3:2|3:0,0:0:0:0:
83,123,20084,6,0,L|89:202,1,80.0000005960464,4|0,3:2|3:0,0:0:0:0:
42,266,20568,2,0,P|66:318|123:332,1,120.00000089407,8|8,0:0|0:0,0:0:0:0:
200,313,21173,2,0,P|224:260|281:246,1,120.00000089407,8|8,0:0|0:0,0:0:0:0:
336,301,21778,1,0,3:0:0:0:
415,293,22020,6,0,L|409:213,1,80.0000005960464,0|0,3:0|3:0,0:0:0:0:
463,156,22504,2,0,L|471:36,1,120.00000089407,8|8,0:0|0:0,0:0:0:0:
398,7,23109,2,0,P|342:16|319:71,1,120.00000089407,8|8,0:0|0:0,0:0:0:0:
258,119,23713,1,0,3:0:0:0:
203,62,23955,6,0,P|166:79|129:93,1,80.0000005960464,4|0,3:2|3:0,0:0:0:0:
52,73,24439,2,0,P|5:105|1:163,1,120.00000089407,8|8,0:0|0:0,0:0:0:0:
76,190,25044,2,0,P|123:222|127:280,1,120.00000089407,8|0,0:0|0:0,0:0:0:0:
156,354,25649,1,0,3:0:0:0:
230,321,25891,6,0,B|269:330|269:330|304:311,1,80.0000005960464,0|0,3:0|3:0,0:0:0:0:
381,329,26375,2,0,L|390:209,1,120.00000089407,8|8,0:0|0:0,0:0:0:0:
319,175,26980,2,0,L|309:55,1,120.00000089407,8|8,0:0|0:0,0:0:0:0:
383,27,27584,1,8,0:0:0:0:
454,65,27826,5,4,3:2:0:0:
465,182,28310,2,0,P|408:191|378:241,1,120.00000089407,8|8,0:0|0:0,0:0:0:0:
300,252,28915,2,0,L|303:291,1,40.0000002980232,8|0,0:0|3:0,0:0:0:0:
246,346,29278,1,8,0:0:0:0:
166,340,29520,1,0,3:0:0:0:
174,260,29762,6,0,L|180:180,1,80.0000005960464,0|0,3:0|3:0,0:0:0:0:
105,158,30246,2,0,P|89:100|63:45,1,120.00000089407,8|0,0:0|0:0,0:0:0:0:
130,5,30850,2,0,L|168:15,1,40.0000002980232,8|0,0:0|3:0,0:0:0:0:
218,77,31213,2,0,P|254:59|292:48,1,80.0000005960464,8|0,0:0|0:0,0:0:0:0:
343,109,31697,6,0,P|421:120|493:156,1,160.000001192093,0|8,3:0|0:0,0:0:0:0:
487,238,32423,1,0,3:0:0:0:
487,238,32544,2,0,P|449:282|391:277,1,120.00000089407,8|0,0:0|3:0,0:0:0:0:
314,292,33149,1,8,0:0:0:0:
286,218,33391,1,0,3:0:0:0:
211,246,33633,6,0,P|132:257|60:293,1,160.000001192093,0|8,3:0|0:0,0:0:0:0:
13,228,34359,1,0,3:0:0:0:
13,228,34480,2,0,P|12:171|58:137,1,120.00000089407,8|0,0:0|3:0,0:0:0:0:
93,66,35084,2,0,P|136:60|175:95,1,80.0000005960464,0|0,3:0|3:0,0:0:0:0:
183,157,35568,5,4,3:2:0:0:
192,68,42826,5,8,0:0:0:0:
324,93,43310,6,0,P|342:128|367:162,1,80.0000005960464,4|0,0:0|3:0,0:0:0:0:
339,236,43794,2,0,P|285:254|235:223,1,120.00000089407,8|8,0:0|0:0,0:0:0:0:
167,184,44399,2,0,P|171:165|173:145,1,40.0000002980232,8|0,0:0|0:0,0:0:0:0:
191,68,44762,1,8,0:0:0:0:
123,27,45004,1,0,3:0:0:0:
48,54,45246,6,0,P|57:92|61:132,1,80.0000005960464,0|0,3:0|3:0,0:0:0:0:
89,207,45730,2,0,P|51:251|58:309,1,120.00000089407,8|8,0:0|0:0,0:0:0:0:
129,346,46334,2,0,L|170:341,1,40.0000002980232,8|0,0:0|3:0,0:0:0:0:
228,288,46697,1,8,0:0:0:0:
292,336,46939,1,0,3:0:0:0:
338,270,47181,6,0,P|374:254|407:232,1,80.0000005960464,4|0,3:2|3:0,0:0:0:0:
428,156,47665,2,0,P|409:100|355:80,1,120.00000089407,8|8,0:0|0:0,0:0:0:0:
278,69,48270,2,0,L|271:29,1,40.0000002980232,8|0,0:0|3:0,0:0:0:0:
192,31,48633,1,8,0:0:0:0:
128,78,48875,1,0,3:0:0:0:
144,156,49117,6,0,L|130:234,1,80.0000005960464,0|0,3:0|3:0,0:0:0:0:
202,267,49600,2,0,B|267:283|235:318|300:334,1,120.00000089407,8|8,0:0|0:0,0:0:0:0:
364,291,50205,2,0,L|357:251,1,40.0000002980232,8|0,0:0|3:0,0:0:0:0:
400,185,50568,1,8,0:0:0:0:
412,106,50810,1,8,0:0:0:0:
349,57,51052,6,0,B|283:102|283:102|205:80,1,160.000001192093,0|8,3:0|0:0,0:0:0:0:
138,40,51778,1,0,3:0:0:0:
109,114,52020,2,0,P|134:189|146:268,1,160.000001192093,0|8,3:0|0:0,0:0:0:0:
223,288,52746,1,8,0:0:0:0:
272,226,52988,6,0,P|328:236|352:289,2,120.00000089407,0|0|0,1:0|1:0|1:0,0:0:0:0:
235,157,54802,6,0,P|183:186|126:205,1,120.00000089407,4|8,1:2|0:0,0:0:0:0:
66,153,55407,2,0,P|73:115|105:94,1,80.0000005960464,0|8,1:0|0:0,0:0:0:0:
161,39,55891,2,0,P|197:25|231:42,1,80.0000005960464,0|8,1:0|0:0,0:0:0:0:
307,62,56375,2,0,P|337:86|339:125,1,80.0000005960464,0|8,1:0|0:0,0:0:0:0:
360,150,56738,6,0,P|335:204|322:263,1,120.00000089407,4|8,3:2|0:0,0:0:0:0:
249,292,57342,2,0,P|219:268|217:229,1,80.0000005960464,0|8,3:0|0:0,0:0:0:0:
178,160,57826,1,0,3:0:0:0:
99,172,58068,2,0,L|113:340,1,160.000001192093,8|8,0:0|0:0,0:0:0:0:
190,348,58794,6,0,P|266:327|346:330,1,160.000001192093,4|0,1:2|3:0,0:0:0:0:
426,334,59520,1,8,0:0:0:0:
423,255,59762,2,0,P|423:216|395:189,1,80.0000005960464,0|8,1:0|0:0,0:0:0:0:
404,111,60246,2,0,P|376:83|337:83,1,80.0000005960464,0|8,3:0|0:0,0:0:0:0:
261,63,60730,5,0,1:0:0:0:
147,90,61213,2,0,P|134:127|128:167,1,80.0000005960464,0|8,3:0|0:0,0:0:0:0:
53,200,61697,2,0,P|66:237|72:277,1,80.0000005960464,8|8,0:0|0:0,0:0:0:0:
148,303,62181,2,0,P|134:340|128:380,1,80.0000005960464,8|8,0:0|0:0,0:0:0:0:
160,364,62544,6,0,P|217:368|250:321,1,120.00000089407,4|8,1:2|0:0,0:0:0:0:
327,301,63149,2,0,P|311:263|299:225,1,80.0000005960464,0|8,1:0|0:0,0:0:0:0:
219,235,63633,2,0,P|224:195|233:156,1,80.0000005960464,0|8,1:0|0:0,0:0:0:0:
157,122,64117,2,0,P|181:90|208:60,1,80.0000005960464,0|8,1:0|0:0,0:0:0:0:
248,58,64480,6,0,P|305:57|338:104,1,120.00000089407,4|8,3:2|0:0,0:0:0:0:
403,148,65084,2,0,P|390:185|383:224,1,80.0000005960464,0|8,3:0|0:0,0:0:0:0:
418,297,65568,1,0,3:0:0:0:
362,354,65810,2,0,L|202:364,1,160.000001192093,8|8,0:0|3:0,0:0:0:0:
184,287,66536,6,0,P|123:241|139:166,1,160.000001192093,4|0,1:2|3:0,0:0:0:0:
104,96,67262,2,0,P|178:123|258:128,1,160.000001192093,8|8,0:0|0:0,0:0:0:0:
317,76,67988,1,0,3:0:0:0:
395,91,68230,1,8,0:0:0:0:
423,165,68471,6,0,B|385:235|385:235|399:313,1,160.000001192093,0|0,1:0|1:0,0:0:0:0:
358,380,69197,1,8,0:0:0:0:
291,336,69439,2,0,P|252:335|219:356,1,80.0000005960464,8|0,0:0|3:0,0:0:0:0:
150,319,69923,2,0,P|110:320|77:299,1,80.0000005960464,8|8,0:0|0:0,0:0:0:0:
49,292,70286,6,0,L|67:173,1,120.00000089407,4|8,1:2|0:0,0:0:0:0:
34,102,70891,2,0,P|67:80|106:82,1,80.0000005960464,0|8,1:0|0:0,0:0:0:0:
180,53,71375,2,0,P|218:61|245:90,1,80.0000005960464,0|8,1:0|0:0,0:0:0:0:
317,121,71859,2,0,P|338:154|336:193,1,80.0000005960464,0|8,1:0|0:0,0:0:0:0:
359,213,72221,6,0,P|305:236|297:299,1,120.00000089407,4|8,3:2|0:0,0:0:0:0:
229,339,72826,2,0,P|191:332|173:298,1,80.0000005960464,0|8,3:0|0:0,0:0:0:0:
200,223,73310,1,0,3:0:0:0:
126,194,73552,2,0,L|136:34,1,160.000001192093,8|8,0:0|0:0,0:0:0:0:
213,17,74278,6,0,P|287:32|309:105,1,160.000001192093,4|0,1:2|3:0,0:0:0:0:
331,181,75004,1,8,0:0:0:0:
408,200,75246,2,0,P|396:238|393:277,1,80.0000005960464,0|8,3:0|0:0,0:0:0:0:
316,295,75730,2,0,P|327:333|330:372,1,80.0000005960464,0|8,3:0|0:0,0:0:0:0:
251,383,76213,6,0,P|183:348|178:271,1,160.000001192093,0|0,3:0|3:0,0:0:0:0:
123,216,76939,1,8,0:0:0:0:
46,200,77181,2,0,P|48:160|44:120,1,80.0000005960464,8|8,0:0|0:0,0:0:0:0:
100,64,77665,2,0,P|138:68|162:99,1,80.0000005960464,0|8,3:0|0:0,0:0:0:0:
186,113,78028,6,0,P|242:94|294:63,1,120.00000089407,4|8,1:2|0:0,0:0:0:0:
371,43,78633,2,0,P|399:70|401:111,1,80.0000005960464,0|8,1:0|0:0,0:0:0:0:
451,171,79117,2,0,P|451:211|424:241,1,80.0000005960464,0|8,1:0|0:0,0:0:0:0:
417,318,79600,2,0,P|389:346|348:348,1,80.0000005960464,0|8,1:0|0:0,0:0:0:0:
320,359,79963,6,0,B|266:331|266:331|209:347,1,120.00000089407,4|8,3:2|0:0,0:0:0:0:
141,310,80568,2,0,L|152:230,1,80.0000005960464,0|8,3:0|0:0,0:0:0:0:
200,168,81052,1,0,3:0:0:0:
269,207,81294,2,0,B|340:169|340:169|415:192,1,160.000001192093,8|8,0:0|0:0,0:0:0:0:
467,132,82020,5,4,1:2:0:0:
401,26,82504,2,0,P|367:48|332:67,1,80.0000005960464,2|8,1:2|0:0,0:0:0:0:
254,59,82988,2,0,P|217:80|183:103,1,80.0000005960464,2|8,1:2|0:0,0:0:0:0:
115,67,83471,2,0,P|81:89|46:108,1,80.0000005960464,0|10,3:0|0:0,0:0:0:0:
48,187,83955,6,0,P|121:209|138:283,1,160.000001192093,4|2,1:2|1:2,0:0:0:0:
182,349,84681,1,8,0:0:0:0:
249,307,84923,2,0,P|259:259|273:226,1,80.0000005960464,2|8,1:2|0:0,0:0:0:0:
310,162,85407,2,0,P|300:114|286:81,1,80.0000005960464,8|8,0:0|0:0,0:0:0:0:
330,19,85891,6,0,P|405:21|442:93,1,160.000001192093,4|8,3:2|0:0,0:0:0:0:
397,154,86617,1,0,3:0:0:0:
467,190,86859,2,0,P|458:228|454:268,1,80.0000005960464,2|0,3:2|0:0,0:0:0:0:
380,297,87342,2,0,P|370:335|366:375,1,80.0000005960464,8|2,0:0|3:2,0:0:0:0:
287,371,87826,6,0,B|198:365|239:310|149:301,1,160.000001192093,4|8,3:2|0:0,0:0:0:0:
76,274,88552,1,0,3:0:0:0:
115,206,88794,2,0,P|110:167|79:142,1,80.0000005960464,2|0,3:2|0:0,0:0:0:0:
42,74,89278,2,0,P|46:35|77:10,1,80.0000005960464,8|10,0:0|3:2,0:0:0:0:
140,57,89762,6,0,P|215:58|248:127,1,160.000001192093,4|8,3:2|0:0,0:0:0:0:
221,202,90488,1,0,3:0:0:0:
293,235,90730,2,0,B|329:248|329:248|367:233,1,80.0000005960464,2|0,3:2|0:0,0:0:0:0:
366,155,91213,2,0,B|396:129|396:129|402:88,1,80.0000005960464,8|0,0:0|3:0,0:0:0:0:
379,14,91697,6,0,B|306:25|306:25|300:36|300:36|227:47,1,160.000001192093,4|8,3:2|0:0,0:0:0:0:
150,63,92423,1,0,3:0:0:0:
162,141,92665,2,0,L|148:228,1,80.0000005960464,2|0,3:2|3:0,0:0:0:0:
87,269,93149,1,8,3:2:0:0:
196,358,93633,6,0,P|234:348|257:316,1,80.0000005960464,4|0,3:2|3:0,0:0:0:0:
296,248,94117,2,0,P|353:257|378:309,1,120.00000089407,8|8,0:0|0:0,0:0:0:0:
456,327,94721,2,0,P|461:268|474:209,1,120.00000089407,8|8,0:0|0:0,0:0:0:0:
421,150,95326,1,0,3:0:0:0:
369,90,95568,6,0,L|291:108,1,80.0000005960464,0|0,3:0|3:0,0:0:0:0:
216,83,96052,2,0,B|162:109|162:109|104:94,1,120.00000089407,8|8,0:0|0:0,0:0:0:0:
54,156,96657,2,0,L|76:273,1,120.00000089407,8|8,0:0|0:0,0:0:0:0:
148,310,97262,1,0,3:0:0:0:
204,254,97504,6,0,P|242:244|281:252,1,80.0000005960464,4|0,3:2|3:0,0:0:0:0:
358,274,97988,2,0,L|369:154,1,120.00000089407,8|8,0:0|0:0,0:0:0:0:
446,135,98592,2,0,L|434:15,1,120.00000089407,8|8,0:0|0:0,0:0:0:0:
357,7,99197,1,0,3:0:0:0:
297,59,99439,6,0,P|265:81|258:120,1,80.0000005960464,0|0,3:0|3:0,0:0:0:0:
186,152,99923,2,0,L|198:271,1,120.00000089407,8|8,0:0|0:0,0:0:0:0:
149,332,100528,2,0,L|144:371,1,40.0000002980232,8|0,0:0|3:0,0:0:0:0:
332,343,101375,6,0,P|327:304|295:281,1,80.0000005960464,0|0,3:0|3:0,0:0:0:0:
218,263,101859,2,0,L|230:143,1,120.00000089407,8|8,0:0|0:0,0:0:0:0:
288,89,102463,2,0,P|346:88|377:159,1,120.00000089407,8|8,0:0|0:0,0:0:0:0:
447,174,103068,1,0,3:0:0:0:
404,240,103310,6,0,P|381:271|391:309,1,80.0000005960464,0|0,3:0|3:0,0:0:0:0:
329,357,103794,2,0,L|210:341,1,120.00000089407,8|8,0:0|0:0,0:0:0:0:
132,357,104399,2,0,P|84:326|76:269,1,120.00000089407,8|8,0:0|0:0,0:0:0:0:
142,224,105004,1,0,3:0:0:0:
103,155,105246,6,0,P|103:115|77:87,1,80.0000005960464,0|0,3:0|3:0,0:0:0:0:
105,14,105730,2,0,P|159:38|216:58,1,120.00000089407,8|8,0:0|0:0,0:0:0:0:
262,123,106334,2,0,P|316:98|373:78,1,120.00000089407,8|8,0:0|0:0,0:0:0:0:
430,133,106939,1,0,3:0:0:0:
448,211,107181,6,0,P|380:247|378:323,1,160.000001192093,0|8,3:0|0:0,0:0:0:0:
312,364,107907,2,0,L|273:360,1,40.0000002980232,0|8,3:0|0:0,0:0:0:0:
204,322,108270,2,0,L|165:326,1,40.0000002980232,8|0,0:0|3:0,0:0:0:0:
90,355,108633,1,8,0:0:0:0:
56,283,108875,1,4,3:0:0:0:
98,214,109117,6,0,L|125:56,1,160.000001192093,4|8,3:2|0:0,0:0:0:0:
204,67,109842,1,0,3:0:0:0:
272,26,110084,2,0,B|336:73|336:73|413:49,1,160.000001192093,0|8,3:0|0:0,0:0:0:0:
465,109,110810,1,8,3:0:0:0:
462,189,111052,6,0,P|416:253|384:327,1,160.000001192093,0|8,3:0|0:0,0:0:0:0:
311,356,111778,1,0,3:0:0:0:
285,281,112020,2,0,P|209:278|164:340,1,160.000001192093,0|8,3:0|0:0,0:0:0:0:
85,351,112746,1,0,3:0:0:0:
81,272,112988,6,0,P|20:255|7:165,1,160.000001192093,4|8,3:2|0:0,0:0:0:0:
83,164,113713,1,0,3:0:0:0:
88,85,113955,2,0,P|166:101|245:110,1,160.000001192093,0|8,3:0|0:0,0:0:0:0:
289,44,114681,1,0,3:0:0:0:
360,80,114923,6,0,P|425:120|424:196,1,160.000001192093,0|8,3:0|0:0,0:0:0:0:
420,276,115649,2,0,P|347:298|283:255,1,160.000001192093,0|0,3:0|3:0,0:0:0:0:
217,211,116375,1,8,0:0:0:0:
142,238,116617,1,0,3:0:0:0:
75,196,116859,6,0,L|93:37,1,160.000001192093,4|8,3:2|0:0,0:0:0:0:
173,34,117584,1,0,3:0:0:0:
241,77,117826,2,0,B|325:54|313:110|396:85,1,160.000001192093,0|8,3:0|0:0,0:0:0:0:
451,143,118552,1,0,3:0:0:0:
446,223,118794,6,0,L|327:240,1,120.00000089407,0|8,3:0|0:0,0:0:0:0:
281,306,119399,1,0,3:0:0:0:
281,306,119520,2,0,L|122:283,1,160.000001192093,8|0,0:0|3:0,0:0:0:0:
64,230,120246,1,8,0:0:0:0:
30,120,120609,6,0,P|81:91|110:39,1,120.00000089407,4|8,1:2|0:0,0:0:0:0:
189,35,121213,2,0,P|230:31|260:73,1,80.0000005960464,0|8,1:0|0:0,0:0:0:0:
331,83,121697,2,0,P|354:116|333:163,1,80.0000005960464,0|8,1:0|0:0,0:0:0:0:
360,229,122181,2,0,P|342:266|291:271,1,80.0000005960464,0|8,1:0|0:0,0:0:0:0:
277,294,122544,6,0,P|248:242|196:212,1,120.00000089407,4|8,3:2|0:0,0:0:0:0:
146,272,123149,2,0,P|107:278|80:308,1,80.0000005960464,0|8,3:0|0:0,0:0:0:0:
7,277,123633,1,0,3:0:0:0:
14,198,123875,2,0,P|2:118|63:83,1,160.000001192093,8|8,0:0|0:0,0:0:0:0:
137,59,124600,6,0,P|212:86|290:100,1,160.000001192093,4|0,1:2|3:0,0:0:0:0:
370,105,125326,1,8,0:0:0:0:
358,184,125568,2,0,P|394:198|410:235,1,80.0000005960464,0|8,3:0|0:0,0:0:0:0:
358,293,126052,2,0,P|374:328|359:365,1,80.0000005960464,0|8,1:0|0:0,0:0:0:0:
288,330,126536,6,0,B|203:321|237:267|152:256,1,160.000001192093,4|0,3:2|3:0,0:0:0:0:
75,271,127262,1,8,0:0:0:0:
70,193,127504,2,0,P|60:155|42:119,1,80.0000005960464,8|8,0:0|0:0,0:0:0:0:
97,62,127988,2,0,P|135:55|167:78,1,80.0000005960464,8|8,0:0|0:0,0:0:0:0:
193,90,128350,6,0,P|249:77|273:24,1,120.00000089407,4|8,1:2|0:0,0:0:0:0:
351,8,128955,2,0,P|355:47|364:86,1,80.0000005960464,0|8,1:0|0:0,0:0:0:0:
303,136,129439,2,0,P|320:171|342:205,1,80.0000005960464,0|8,1:0|0:0,0:0:0:0:
301,272,129923,2,0,P|329:299|361:323,1,80.0000005960464,0|8,1:0|0:0,0:0:0:0:
378,352,130286,6,0,P|432:332|451:277,1,120.00000089407,4|8,3:2|0:0,0:0:0:0:
498,213,130891,2,0,P|471:173|437:165,1,80.0000005960464,0|8,3:0|0:0,0:0:0:0:
397,101,131375,1,0,3:0:0:0:
335,149,131617,2,0,P|255:137|180:112,1,160.000001192093,8|4,0:0|3:0,0:0:0:0:
111,151,132342,6,0,P|38:173|25:248,1,160.000001192093,4|0,1:2|3:0,0:0:0:0:
61,318,133068,2,0,P|140:306|215:281,1,160.000001192093,8|8,0:0|0:0,0:0:0:0:
239,205,133794,1,0,3:0:0:0:
210,131,134036,1,8,0:0:0:0:
257,67,134278,6,0,P|329:89|342:164,1,160.000001192093,0|0,1:0|1:0,0:0:0:0:
378,235,135004,1,8,0:0:0:0:
379,314,135246,2,0,P|339:316|299:313,1,80.0000005960464,0|8,1:0|0:0,0:0:0:0:
239,262,135730,2,0,P|199:259|159:261,1,80.0000005960464,8|8,0:0|0:0,0:0:0:0:
135,279,136092,6,0,P|79:263|61:208,1,120.00000089407,4|8,1:2|0:0,0:0:0:0:
20,139,136697,2,0,P|56:124|90:102,1,80.0000005960464,0|8,1:0|0:0,0:0:0:0:
152,152,137181,2,0,P|181:124|205:92,1,80.0000005960464,0|8,1:0|0:0,0:0:0:0:
280,118,137665,2,0,P|298:82|309:44,1,80.0000005960464,0|8,1:0|0:0,0:0:0:0:
348,36,138028,6,0,P|404:46|427:99,1,120.00000089407,4|8,3:2|0:0,0:0:0:0:
444,176,138633,2,0,P|425:211|414:249,1,80.0000005960464,0|8,3:0|0:0,0:0:0:0:
350,297,139117,1,0,3:0:0:0:
292,352,139359,2,0,B|202:355|238:296|139:297,1,160.000001192093,8|8,0:0|0:0,0:0:0:0:
72,325,140084,6,0,P|17:273|39:200,1,160.000001192093,4|0,1:2|0:0,0:0:0:0:
86,136,140810,1,8,0:0:0:0:
147,186,141052,2,0,P|186:189|226:186,1,80.0000005960464,0|8,3:0|0:0,0:0:0:0:
249,110,141536,2,0,P|288:106|328:110,1,80.0000005960464,0|8,3:0|0:0,0:0:0:0:
398,73,142020,6,0,P|455:122|437:196,1,160.000001192093,0|0,3:0|3:0,0:0:0:0:
360,216,142746,1,8,0:0:0:0:
372,294,142988,2,0,P|335:306|298:322,1,80.0000005960464,0|12,3:0|0:0,0:0:0:0:
266,249,143471,2,0,P|228:236|191:220,1,80.0000005960464,0|8,3:0|0:0,0:0:0:0:
170,243,143834,6,0,P|113:231|93:177,1,120.00000089407,4|8,1:2|0:0,0:0:0:0:
87,98,144439,2,0,P|124:89|158:109,1,80.0000005960464,0|8,1:0|0:0,0:0:0:0:
233,81,144923,2,0,P|266:100|276:138,1,80.0000005960464,0|8,1:0|0:0,0:0:0:0:
348,172,145407,2,0,P|357:209|337:243,1,80.0000005960464,0|8,1:0|0:0,0:0:0:0:
358,276,145770,6,0,P|416:265|476:268,1,120.00000089407,4|8,3:2|0:0,0:0:0:0:
495,192,146375,2,0,P|504:154|484:120,1,80.0000005960464,0|8,3:0|0:0,0:0:0:0:
419,75,146859,1,0,3:0:0:0:
474,19,147100,2,0,L|314:7,1,160.000001192093,8|8,0:0|0:0,0:0:0:0:
249,54,147826,5,4,1:2:0:0:
199,166,148310,2,0,P|184:203|163:237,1,80.0000005960464,2|8,1:2|0:0,0:0:0:0:
84,247,148794,2,0,P|69:209|48:175,1,80.0000005960464,2|8,1:2|0:0,0:0:0:0:
103,118,149278,2,0,P|117:80|138:46,1,80.0000005960464,0|10,3:0|0:0,0:0:0:0:
216,34,149762,6,0,B|305:53|257:98|344:119,1,160.000001192093,4|2,1:2|1:2,0:0:0:0:
422,101,150488,1,8,0:0:0:0:
414,180,150730,2,0,P|398:230|395:262,1,80.0000005960464,2|8,1:2|0:0,0:0:0:0:
329,300,151213,2,0,P|345:350|348:382,1,80.0000005960464,8|8,1:2|1:2,0:0:0:0:
268,370,151697,6,0,P|194:347|171:270,1,160.000001192093,6|2,1:2|1:2,0:0:0:0:
96,246,152423,1,10,0:0:0:0:
141,181,152665,2,0,P|142:100|130:19,1,160.000001192093,2|2,1:2|1:2,0:0:0:0:
209,11,153391,1,10,0:0:0:0:
281,43,153633,6,0,B|365:35|343:102|429:94,1,160.000001192093,6|0,1:2|0:0,0:0:0:0:
493,134,154359,1,10,0:0:0:0:
440,191,154600,2,0,P|429:267|359:298,1,160.000001192093,2|2,1:2|0:0,0:0:0:0:
295,255,155326,1,10,0:0:0:0:
263,326,155568,6,0,P|183:335|107:359,1,160.000001192093,6|0,1:2|0:0,0:0:0:0:
50,305,156294,1,10,0:0:0:0:
107,251,156536,2,0,B|91:157|151:195|138:98,1,160.000001192093,2|2,1:2|1:2,0:0:0:0:
136,22,157262,1,10,0:0:0:0:
213,5,157504,6,0,P|288:13|319:83,1,160.000001192093,6|0,1:2|0:0,0:0:0:0:
383,130,158230,1,10,0:0:0:0:
342,196,158471,2,0,P|335:234|301:253,1,80.0000005960464,2|8,1:2|0:0,0:0:0:0:
252,315,158955,2,0,P|215:328|181:309,1,80.0000005960464,8|8,0:0|0:0,0:0:0:0:
112,272,159439,6,0,P|144:198|169:122,1,160.000001192093,6|0,1:2|0:0,0:0:0:0:
174,44,160165,1,10,0:0:0:0:
251,27,160407,2,0,P|275:103|307:176,1,160.000001192093,2|2,1:2|1:2,0:0:0:0:
373,220,161133,1,10,0:0:0:0:
366,299,161375,6,0,P|442:298|476:231,1,160.000001192093,6|0,1:2|0:0,0:0:0:0:
434,163,162100,1,10,0:0:0:0:
505,129,162342,2,0,P|438:87|389:24,1,160.000001192093,2|2,1:2|3:2,0:0:0:0:
310,16,163068,1,10,0:0:0:0:
287,91,163310,6,0,P|315:162|263:218,1,160.000001192093,6|0,1:2|0:0,0:0:0:0:
212,278,164036,1,10,0:0:0:0:
168,212,164278,2,0,P|119:149|51:106,1,160.000001192093,2|2,1:2|1:2,0:0:0:0:
17,178,165004,1,10,0:0:0:0:
15,258,165246,6,0,P|55:254|102:226,1,80.0000005960464,8|8,0:0|0:0,0:0:0:0:
150,289,165730,2,0,P|190:293|237:321,1,80.0000005960464,8|8,0:0|0:0,0:0:0:0:
300,286,166213,1,8,0:0:0:0:
374,314,166455,1,8,0:0:0:0:
429,257,166697,2,0,P|426:218|430:178,1,80.0000005960464,8|8,0:0|0:0,0:0:0:0:
382,114,167181,5,0,3:0:0:0:
261,26,167665,2,0,L|149:70,1,120.00000089407,8|8,0:0|0:0,0:0:0:0:
74,50,168270,2,0,P|31:90|31:148,1,120.00000089407,8|8,0:0|0:0,0:0:0:0:
50,224,168875,1,0,3:0:0:0:
129,214,169117,6,0,P|169:258|219:291,2,120.00000089407,8|8|8,0:0|0:0|0:0,0:0:0:0:
184,157,170084,1,0,3:0:0:0:
263,165,170326,2,0,P|282:217|278:248,1,80.0000005960464,8|8,3:0|3:2,0:0:0:0:
177,333,170931,5,4,1:2:0:0:
177,333,172988,5,4,3:2:0:0:
177,333,174923,5,4,3:2:0:0:
177,333,176859,5,4,3:2:0:0:
177,333,178673,5,4,1:2:0:0:
290,314,179036,6,0,L|279:234,2,80.0000005960464,0|0|0,3:0|3:0|3:0,0:0:0:0:
369,301,179762,2,0,L|358:221,2,80.0000005960464,0|0|0,3:0|3:0|3:0,0:0:0:0:
448,288,180488,5,0,3:0:0:0:
448,288,180609,2,0,L|431:169,1,120.00000089407,8|0,0:0|3:0,0:0:0:0:
443,91,181213,2,0,P|411:67|372:68,1,80.0000005960464,0|0,3:0|3:0,0:0:0:0:
299,39,181697,2,0,P|232:81|157:110,1,160.000001192093,0|0,3:0|3:0,0:0:0:0:
102,166,182423,1,0,3:0:0:0:
51,227,182665,6,0,P|62:303|138:337,1,160.000001192093,4|0,3:2|3:0,0:0:0:0:
202,301,183391,2,0,P|212:224|288:191,1,160.000001192093,0|0,3:0|3:0,0:0:0:0:
337,246,184117,1,0,3:0:0:0:
411,218,184359,1,0,3:0:0:0:
403,139,184600,6,0,P|337:92|284:33,1,160.000001192093,4|8,1:2|0:0,0:0:0:0:
206,19,185326,1,8,0:0:0:0:
135,54,185568,2,0,L|149:143,1,80.0000005960464,8|8,3:2|3:2,0:0:0:0:
104,199,186052,1,10,3:2:0:0:
128,317,186415,6,0,P|182:293|242:283,1,120.00000089407,4|8,1:2|0:0,0:0:0:0:
313,318,187020,2,0,P|352:321|394:303,1,80.0000005960464,0|8,1:0|0:0,0:0:0:0:
382,228,187504,2,0,P|412:202|428:160,1,80.0000005960464,0|8,1:0|0:0,0:0:0:0:
367,115,187988,2,0,P|370:75|352:33,1,80.0000005960464,0|8,1:0|0:0,0:0:0:0:
325,31,188350,6,0,P|267:29|234:76,1,120.00000089407,4|8,3:2|0:0,0:0:0:0:
186,138,188955,2,0,P|146:132|132:93,1,80.0000005960464,0|8,3:0|0:0,0:0:0:0:
57,75,189439,1,0,3:0:0:0:
18,144,189681,2,0,L|36:307,1,160.000001192093,8|8,0:0|0:0,0:0:0:0:
105,342,190407,6,0,P|180:331|205:259,1,160.000001192093,4|0,1:2|3:0,0:0:0:0:
254,197,191133,1,8,0:0:0:0:
332,217,191375,2,0,P|335:178|345:139,1,80.0000005960464,0|8,3:0|0:0,0:0:0:0:
276,104,191859,2,0,P|272:64|262:25,1,80.0000005960464,0|8,3:0|0:0,0:0:0:0:
341,12,192342,6,0,P|418:21|449:93,1,160.000001192093,0|0,3:0|3:0,0:0:0:0:
420,163,193068,1,8,0:0:0:0:
463,229,193310,2,0,P|446:264|417:291,1,80.0000005960464,0|8,3:0|3:2,0:0:0:0:
339,275,193794,2,0,P|301:288|261:286,1,80.0000005960464,0|8,3:0|3:2,0:0:0:0:
235,299,194157,6,0,L|250:178,1,120.00000089407,4|8,1:2|0:0,0:0:0:0:
226,105,194762,2,0,B|192:83|192:83|153:88,1,80.0000005960464,0|8,1:0|0:0,0:0:0:0:
118,160,195246,2,0,B|78:168|78:168|54:199,1,80.0000005960464,0|8,1:0|0:0,0:0:0:0:
80,275,195730,2,0,B|58:309|58:309|63:348,1,80.0000005960464,0|8,1:0|0:0,0:0:0:0:
86,371,196092,6,0,P|144:359|204:355,1,120.00000089407,4|8,1:2|0:0,0:0:0:0:
248,289,196697,2,0,P|300:309|315:343,1,80.0000005960464,0|8,3:0|0:0,0:0:0:0:
385,360,197181,1,0,3:0:0:0:
454,319,197423,2,0,L|466:159,1,160.000001192093,8|8,0:0|0:0,0:0:0:0:
411,103,198149,5,4,1:2:0:0:
276,85,198633,2,0,P|255:60|204:51,1,80.0000005960464,2|8,1:2|0:0,0:0:0:0:
142,92,199117,2,0,L|154:251,1,160.000001192093,2|0,1:2|3:0,0:0:0:0:
142,330,199842,1,8,0:0:0:0:
222,327,200084,6,0,P|257:345|295:355,1,80.0000005960464,4|8,1:2|0:0,0:0:0:0:
321,281,200568,2,0,P|359:269|393:249,1,80.0000005960464,2|8,1:2|0:0,0:0:0:0:
358,178,201052,2,0,P|376:142|386:104,1,80.0000005960464,2|8,1:2|0:0,0:0:0:0:
311,79,201536,2,0,P|299:40|279:6,1,80.0000005960464,2|8,1:2|0:0,0:0:0:0:
203,30,202020,6,0,P|147:42|129:96,1,120.00000089407,12|12,3:2|3:2,0:0:0:0:
48,157,202746,2,0,P|57:216|66:277,1,120.00000089407,12|12,3:2|3:2,0:0:0:0:
159,323,203471,2,0,P|198:321|236:333,1,80.0000005960464,12|12,3:2|3:2,0:0:0:0:
306,296,203955,6,0,P|319:240|279:199,1,120.00000089407,12|12,3:2|3:2,0:0:0:0:
178,173,204681,2,0,P|164:117|204:76,1,120.00000089407,12|12,3:2|3:2,0:0:0:0:
288,21,205407,2,0,P|322:41|359:55,1,80.0000005960464,12|12,3:2|3:2,0:0:0:0:
437,36,205891,6,0,P|463:88|442:142,1,120.00000089407,12|12,3:2|3:2,0:0:0:0:
414,241,206617,2,0,L|295:220,1,120.00000089407,12|12,3:2|3:2,0:0:0:0:
223,148,207342,2,0,L|144:161,1,80.0000005960464,12|12,3:2|3:2,0:0:0:0:
68,144,207826,6,0,P|51:201|29:257,1,120.00000089407,12|12,3:2|3:2,0:0:0:0:
93,339,208552,2,0,L|171:325,1,80.0000005960464,12|0,3:2|3:0,0:0:0:0:
226,267,209036,1,8,3:2:0:0:
304,283,209278,1,0,3:0:0:0:
417,235,209762,6,0,P|413:155|416:75,1,160.000001192093,4|2,3:2|0:0,0:0:0:0:
371,11,210488,1,10,3:2:0:0:
300,45,210730,2,0,P|261:53|241:86,1,80.0000005960464,2|8,0:0|0:0,0:0:0:0:
182,138,211213,2,0,P|143:129|123:96,1,80.0000005960464,0|10,3:0|0:0,0:0:0:0:
47,77,211697,6,0,P|32:155|9:232,1,160.000001192093,6|2,3:2|0:0,0:0:0:0:
42,303,212423,1,10,0:0:0:0:
111,341,212665,2,0,P|187:347|229:284,1,160.000001192093,2|0,0:0|0:0,0:0:0:0:
295,241,213391,1,10,0:0:0:0:
371,221,213633,6,0,P|360:175|357:126,1,80.0000005960464,6|10,3:2|0:0,0:0:0:0:
280,128,214117,2,0,P|291:82|294:33,1,80.0000005960464,2|10,0:0|0:0,0:0:0:0:
367,21,214600,2,0,P|424:26|454:75,2,120.00000089407,2|2|10,0:0|0:0|0:0,0:0:0:0:
289,32,215568,6,0,L|209:23,1,80.0000005960464,10|10,0:0|0:0,0:0:0:0:
164,88,216052,2,0,L|90:120,1,80.0000005960464,10|10,0:0|0:0,0:0:0:0:
83,198,216536,2,0,P|65:277|122:327,1,160.000001192093,0|8,3:0|3:2,0:0:0:0:
181,278,217262,1,8,3:2:0:0:
256,304,217504,5,0,3:0:0:0:
