osu file format v14

[General]
AudioFilename: audio.mp3
AudioLeadIn: 0
PreviewTime: 54742
Countdown: 0
SampleSet: Soft
StackLeniency: 0.4
Mode: 0
LetterboxInBreaks: 0
WidescreenStoryboard: 1

[Editor]
DistanceSpacing: 0.3
BeatDivisor: 4
GridSize: 16
TimelineZoom: 3.099999

[Metadata]
Title:Gomi no Hi
TitleUnicode:ゴミの日
Artist:Fujikawa Chiai
ArtistUnicode:藤川千愛
Creator:a_Blue
Version:Extra
Source:
Tags:laika ライカ japanese rock furuya kan 古谷完 fujinaga ryutaro 藤永龍太郎 ablue
BeatmapID:2729414
BeatmapSetID:1235121

[Difficulty]
HPDrainRate:6
CircleSize:4
OverallDifficulty:8.6
ApproachRate:9.3
SliderMultiplier:1.8
SliderTickRate:1

[Events]
//Background and Video events
0,0,"bg (5).png",0,0
//Break Periods
2,171131,172434
//Storyboard Layer 0 (Background)
//Storyboard Layer 1 (Fail)
//Storyboard Layer 2 (Pass)
//Storyboard Layer 3 (Foreground)
//Storyboard Layer 4 (Overlay)
//Storyboard Sound Samples

[TimingPoints]
730,241.935483870968,4,2,1,40,1,0
730,-133.333333333333,4,2,1,40,0,0
911,-133.333333333333,4,2,1,5,0,0
971,-133.333333333333,4,2,1,40,0,0
1637,-133.333333333333,4,2,1,5,0,0
1697,-133.333333333333,4,2,1,40,0,0
2181,-111.111111111111,4,2,1,40,0,0
2363,-111.111111111111,4,2,1,5,0,0
2423,-111.111111111111,4,2,1,40,0,0
2665,-133.333333333333,4,2,1,60,0,0
4600,-90.9090909090909,4,2,1,70,0,0
12342,-111.111111111111,4,2,1,60,0,0
20084,-133.333333333333,4,2,1,50,0,0
35568,-1000,4,2,1,30,0,0
42342,-133.333333333333,4,2,1,50,0,0
43310,-100,4,2,1,60,0,0
51052,-133.333333333333,4,2,1,60,0,0
52988,-200,4,2,1,60,0,0
54802,-133.333333333333,4,2,1,70,0,0
55105,-133.333333333333,4,2,1,5,0,0
55165,-100,4,2,1,70,0,0
59943,-100,4,2,1,5,0,0
60004,-100,4,2,1,70,0,0
60669,-100,4,2,1,5,0,0
60730,-100,4,2,1,70,0,0
62544,-133.333333333333,4,2,1,70,0,0
62846,-133.333333333333,4,2,1,5,0,0
62907,-90.9090909090909,4,2,1,70,0,0
70286,-133.333333333333,4,2,1,70,0,0
70649,-90.9090909090909,4,2,1,70,0,0
78028,-133.333333333333,4,2,1,70,0,0
78391,-90.9090909090909,4,2,1,70,0,0
85891,-133.333333333333,4,2,1,60,0,0
93633,-133.333333333333,4,2,1,50,0,0
100891,-200,4,2,1,30,0,0
101375,-133.333333333333,4,2,1,50,0,0
109117,-117.647058823529,4,2,1,60,0,0
120246,-166.666666666667,4,2,1,60,0,0
120488,-166.666666666667,4,2,1,5,0,0
120609,-133.333333333333,4,2,1,70,0,0
120911,-133.333333333333,4,2,1,5,0,0
120971,-100,4,2,1,70,0,0
125750,-100,4,2,1,5,0,0
125810,-100,4,2,1,70,0,0
126475,-100,4,2,1,5,0,0
126536,-100,4,2,1,70,0,0
128350,-133.333333333333,4,2,1,70,0,0
128653,-133.333333333333,4,2,1,5,0,0
128713,-90.9090909090909,4,2,1,70,0,0
136092,-133.333333333333,4,2,1,70,0,0
136395,-133.333333333333,4,2,1,5,0,0
136455,-90.9090909090909,4,2,1,70,0,0
143834,-133.333333333333,4,2,1,70,0,0
144197,-90.9090909090909,4,2,1,70,0,0
151697,-100,4,2,1,70,0,0
159439,-90.9090909090909,4,2,1,70,0,0
167181,-200,4,2,1,45,0,0
170931,-200,4,2,1,50,0,0
178673,-200,4,2,1,60,0,0
184600,-100,4,2,1,70,0,0
186415,-111.111111111111,4,2,1,80,0,0
186717,-111.111111111111,4,2,1,5,0,0
186778,-83.3333333333333,4,2,1,80,0,0
194157,-111.111111111111,4,2,1,80,0,0
194459,-111.111111111111,4,2,1,5,0,0
194520,-83.3333333333333,4,2,1,80,0,0
202020,-90.9090909090909,4,2,1,70,0,0
209762,-90.9090909090909,4,2,1,60,0,0
217504,-200,4,2,1,30,0,0

[Colours]
Combo1 : 255,136,136
Combo2 : 128,128,255
Combo3 : 254,152,90
Combo4 : 150,150,150

[HitObjects]
57,117,730,6,0,P|111:116|157:107,1,101.250003862381,0|0,0:0|0:0,0:0:0:0:
229,141,971,2,0,P|253:118|266:87,1,67.5000025749208,0|0,0:0|0:0,0:0:0:0:
57,117,1455,6,0,P|111:116|157:107,1,101.250003862381
229,141,1697,2,0,P|253:118|266:87,1,67.5000025749208
469,186,2181,6,0,B|383:189|438:219|357:224,1,121.499996292114,0|0,0:0|0:0,0:0:0:0:
345,209,2423,1,0,0:0:0:0:
464,266,2544,1,0,0:0:0:0:
314,336,2665,6,0,P|291:311|259:301,1,67.5000025749208,2|2,0:0|0:0,0:0:0:0:
318,296,2907,2,0,P|288:281|254:281,1,67.5000025749208,2|2,0:0|0:0,0:0:0:0:
195,349,3391,6,0,P|161:347|131:363,1,67.5000025749208,2|2,0:0|0:0,0:0:0:0:
217,209,3633,2,0,P|195:185|163:175,1,67.5000025749208,2|2,0:0|0:0,0:0:0:0:
92,213,4117,5,8,0:0:0:0:
92,213,4600,6,0,P|83:157|94:93,1,99.0000030212403,12|2,3:2|0:0,0:0:0:0:
98,39,4842,1,0,3:0:0:0:
172,10,4963,2,0,P|176:59|167:107,1,99.0000030212403,12|2,3:2|0:0,0:0:0:0:
215,172,5205,1,0,3:0:0:0:
348,86,5326,2,0,P|282:91|236:107,1,99.0000030212403,12|2,3:2|0:0,0:0:0:0:
311,165,5568,1,0,3:0:0:0:
490,36,5689,2,0,P|440:34|392:21,1,99.0000030212403,12|2,3:2|0:0,0:0:0:0:
316,7,5931,1,0,3:0:0:0:
427,115,6052,5,12,3:2:0:0:
427,115,6173,1,0,0:0:0:0:
389,266,6294,1,12,3:2:0:0:
389,266,6415,1,0,0:0:0:0:
387,183,6536,6,0,P|339:195|294:217,1,99.0000030212403,12|2,3:2|0:0,0:0:0:0:
250,100,6778,1,0,3:0:0:0:
228,266,6899,2,0,P|180:253|135:231,1,99.0000030212403,12|2,3:2|0:0,0:0:0:0:
58,249,7141,1,0,3:0:0:0:
37,335,7262,2,0,P|91:322|134:319,1,99.0000030212403,12|2,3:2|0:0,0:0:0:0:
209,343,7504,1,0,3:0:0:0:
347,378,7625,2,0,P|382:334|419:306,1,99.0000030212403,12|2,3:2|0:0,0:0:0:0:
440,235,7867,1,0,3:0:0:0:
289,324,7988,5,12,3:2:0:0:
289,324,8109,1,0,3:0:0:0:
287,148,8230,1,12,3:2:0:0:
287,148,8350,1,0,3:0:0:0:
348,101,8471,6,0,P|354:52|373:6,1,99.0000030212403,12|2,3:2|0:0,0:0:0:0:
422,134,8713,1,0,3:0:0:0:
373,196,8834,2,0,P|327:177|278:171,1,99.0000030212403,12|2,3:2|0:0,0:0:0:0:
305,254,9076,1,0,3:0:0:0:
234,85,9197,2,0,P|188:103|139:109,1,99.0000030212403,12|2,3:2|0:0,0:0:0:0:
90,170,9439,1,0,3:0:0:0:
144,281,9560,2,0,P|162:235|168:186,1,99.0000030212403,12|2,3:2|0:0,0:0:0:0:
61,97,9802,1,0,3:0:0:0:
38,229,9923,5,12,3:2:0:0:
38,229,10044,1,0,0:0:0:0:
109,37,10165,1,12,3:2:0:0:
109,37,10286,1,0,0:0:0:0:
176,77,10407,6,0,P|225:77|274:84,1,99.0000030212403,12|2,3:2|0:0,0:0:0:0:
331,29,10649,1,0,3:0:0:0:
421,181,10770,2,0,P|372:181|323:188,1,99.0000030212403,12|2,3:2|0:0,0:0:0:0:
199,157,11012,1,0,3:0:0:0:
165,237,11133,2,0,P|214:237|263:244,1,99.0000030212403,12|2,3:2|0:0,0:0:0:0:
418,260,11375,1,0,3:0:0:0:
350,364,11496,2,0,L|337:240,1,99.0000030212403,12|2,3:2|0:0,0:0:0:0:
78,270,11738,1,0,3:0:0:0:
78,269,11859,6,0,P|87:230|96:172,1,99.0000030212403,4|8,0:0|0:0,0:0:0:0:
146,34,12100,2,0,P|152:83|164:132,1,99.0000030212403,8|8,0:0|0:0,0:0:0:0:
240,155,12342,5,4,3:2:0:0:
298,103,12463,1,0,0:0:0:0:
298,103,12584,1,2,3:2:0:0:
369,133,12705,1,0,3:0:0:0:
414,70,12826,5,10,0:0:0:0:
489,93,12947,1,0,3:0:0:0:
467,165,13068,1,2,3:2:0:0:
392,143,13189,1,8,0:0:0:0:
484,239,13310,6,0,L|405:258,1,80.9999975280763,2|8,3:2|0:0,0:0:0:0:
334,230,13552,1,2,0:0:0:0:
393,357,13673,2,0,L|314:338,1,80.9999975280763,2|10,3:2|0:0,0:0:0:0:
268,274,13915,1,0,0:0:0:0:
192,249,14036,2,0,L|113:268,1,80.9999975280763,2|8,3:2|0:0,0:0:0:0:
73,334,14278,5,6,3:2:0:0:
12,290,14399,1,0,0:0:0:0:
12,290,14520,1,2,3:2:0:0:
48,220,14641,1,0,0:0:0:0:
134,160,14762,5,10,0:0:0:0:
84,97,14883,1,0,3:0:0:0:
21,144,15004,1,2,3:2:0:0:
68,205,15125,1,8,0:0:0:0:
130,34,15246,6,0,L|212:23,1,80.9999975280763,2|8,3:2|0:0,0:0:0:0:
276,64,15488,1,2,0:0:0:0:
210,187,15609,2,0,L|290:197,1,80.9999975280763,2|10,3:2|0:0,0:0:0:0:
342,138,15850,1,0,0:0:0:0:
407,94,15971,2,0,L|489:83,1,80.9999975280763,8|8,3:2|0:0,0:0:0:0:
414,172,16213,5,6,3:2:0:0:
396,246,16334,1,0,0:0:0:0:
396,246,16455,1,2,3:2:0:0:
443,307,16576,1,0,0:0:0:0:
335,328,16697,5,10,0:0:0:0:
270,279,16818,1,0,3:0:0:0:
318,215,16939,1,2,3:2:0:0:
382,263,17060,1,8,3:2:0:0:
231,348,17181,2,0,L|148:358,1,80.9999975280763,2|8,3:2|0:0,0:0:0:0:
85,315,17423,5,0,3:0:0:0:
166,180,17544,1,0,0:0:0:0:
34,230,17665,2,0,L|117:240,1,80.9999975280763,10|2,0:0|0:0,0:0:0:0:
198,97,17907,2,0,L|115:107,1,80.9999975280763,2|8,3:2|0:0,0:0:0:0:
49,67,18149,5,4,3:2:0:0:
99,8,18270,1,0,0:0:0:0:
99,8,18391,1,2,3:2:0:0:
175,21,18512,1,0,3:0:0:0:
222,83,18633,1,10,0:0:0:0:
299,102,18754,1,0,3:0:0:0:
299,102,18875,1,2,3:2:0:0:
362,58,18996,1,8,3:2:0:0:
434,32,19117,2,0,P|466:46|512:52,1,80.9999975280763,2|8,3:2|0:0,0:0:0:0:
491,135,19480,5,8,3:2:0:0:
491,135,19540,1,8,3:2:0:0:
491,135,19600,2,0,P|450:140|413:155,1,80.9999975280763,8|8,3:2|3:2,0:0:0:0:
387,232,19842,2,0,P|427:237|464:252,1,80.9999975280763,0|0,3:0|3:0,0:0:0:0:
360,307,20084,6,0,L|226:325,1,135.000005149842,4|0,3:2|3:0,0:0:0:0:
159,365,20568,2,0,P|99:334|32:323,1,135.000005149842,8|0,0:0|3:0,0:0:0:0:
12,248,20931,2,0,L|79:239,1,67.5000025749208,8|0,0:0|3:0,0:0:0:0:
116,170,21173,1,8,0:0:0:0:
116,170,21294,2,0,L|249:187,1,135.000005149842,0|8,3:0|0:0,0:0:0:0:
306,60,21778,6,0,P|280:81|264:111,1,67.5000025749208,0|0,3:0|0:0,0:0:0:0:
342,132,22020,2,0,P|356:198|352:268,1,135.000005149842,0|0,3:0|3:0,0:0:0:0:
300,324,22383,1,0,0:0:0:0:
362,369,22504,1,8,0:0:0:0:
432,332,22625,1,0,0:0:0:0:
370,291,22746,1,0,3:0:0:0:
370,291,22867,1,8,0:0:0:0:
293,309,22988,1,0,3:0:0:0:
226,344,23109,2,0,L|142:329,1,67.5000025749208,8|0,0:0|3:0,0:0:0:0:
84,299,23471,6,0,B|138:260|62:218|123:177,1,135.000005149842,8|0,0:0|3:0,0:0:0:0:
117,165,23774,1,0,3:0:0:0:
130,161,23834,1,0,3:0:0:0:
143,164,23895,1,0,3:0:0:0:
148,176,23955,2,0,P|212:173|282:177,1,135.000005149842,4|0,3:2|3:0,0:0:0:0:
437,86,24439,6,0,P|403:87|369:85,1,67.5000025749208,8|0,0:0|0:0,0:0:0:0:
320,27,24681,1,0,3:0:0:0:
295,161,24802,1,8,0:0:0:0:
429,186,24923,1,0,3:0:0:0:
359,118,25044,1,8,0:0:0:0:
267,272,25165,2,0,L|416:256,1,135.000005149842,0|0,3:0|0:0,0:0:0:0:
246,347,25649,6,0,L|178:339,1,67.5000025749208,0|0,3:0|0:0,0:0:0:0:
102,356,25891,2,0,P|99:288|91:221,1,135.000005149842,0|0,3:0|3:0,0:0:0:0:
12,226,26254,1,0,0:0:0:0:
53,88,26375,2,0,P|49:121|47:155,1,67.5000025749208,8|0,0:0|0:0,0:0:0:0:
128,127,26617,1,0,3:0:0:0:
190,54,26738,2,0,P|157:50|123:48,1,67.5000025749208,8|0,0:0|0:0,0:0:0:0:
147,128,26980,1,8,0:0:0:0:
226,124,27100,2,0,P|292:140|367:184,1,135.000005149842,0|8,3:0|0:0,0:0:0:0:
475,12,27584,5,8,0:0:0:0:
475,12,27705,1,8,0:0:0:0:
425,67,27826,2,0,P|392:75|362:90,1,67.5000025749208,4|0,3:2|0:0,0:0:0:0:
421,145,28068,2,0,P|453:153|483:168,1,67.5000025749208,0|0,3:0|0:0,0:0:0:0:
491,244,28310,2,0,P|426:265|369:300,1,135.000005149842,8|0,0:0|0:0,0:0:0:0:
305,256,28673,2,0,P|273:248|243:233,1,67.5000025749208,8|0,0:0|3:0,0:0:0:0:
187,343,28915,2,0,P|155:351|125:366,1,67.5000025749208,8|0,0:0|3:0,0:0:0:0:
26,270,29157,1,0,3:0:0:0:
41,192,29278,6,0,B|124:207|68:251|148:267,1,135.000005149842,8|0,0:0|3:0,0:0:0:0:
144,266,29580,1,0,3:0:0:0:
153,256,29640,1,0,3:0:0:0:
159,243,29701,1,0,3:0:0:0:
163,231,29762,2,0,P|206:178|258:136,2,135.000005149842,0|0|8,3:0|3:0|0:0,0:0:0:0:
307,286,30488,5,0,3:0:0:0:
385,273,30609,1,0,0:0:0:0:
368,196,30730,1,0,3:0:0:0:
292,211,30850,1,8,0:0:0:0:
444,220,30971,2,0,L|454:85,1,135.000005149842,0|8,3:0|0:0,0:0:0:0:
495,18,31334,1,0,0:0:0:0:
416,16,31455,2,0,P|373:42|324:57,1,101.250003862381,0|0,0:0|0:0,0:0:0:0:
256,23,31697,6,0,L|188:15,1,67.5000025749208,0|0,3:0|0:0,0:0:0:0:
197,161,31939,2,0,L|129:168,1,67.5000025749208,0|0,3:0|0:0,0:0:0:0:
82,105,32181,1,8,0:0:0:0:
53,302,32423,5,0,3:0:0:0:
111,356,32544,1,8,0:0:0:0:
165,298,32665,1,0,3:0:0:0:
107,244,32786,1,8,0:0:0:0:
180,311,32907,2,0,L|313:293,1,135.000005149842,0|8,3:0|0:0,0:0:0:0:
343,221,33391,5,0,3:0:0:0:
321,215,33451,1,0,3:0:0:0:
304,200,33511,1,0,3:0:0:0:
296,178,33572,1,0,3:0:0:0:
300,155,33633,2,0,P|303:88|300:20,2,135.000005149842,0|0|8,3:0|3:0|0:0,0:0:0:0:
376,1,34359,5,0,3:0:0:0:
414,96,34480,2,0,P|400:126|378:152,1,67.5000025749208,8|0,0:0|0:0,0:0:0:0:
222,154,34721,5,8,0:0:0:0:
185,85,34842,2,0,P|157:65|126:53,1,67.5000025749208,0|0,3:0|0:0,0:0:0:0:
39,102,35084,5,0,3:0:0:0:
44,180,35205,1,0,3:0:0:0:
50,259,35326,1,0,3:0:0:0:
55,337,35447,1,0,0:0:0:0:
55,337,35568,6,0,L|57:358,7,18,4|0|0|0|0|0|0|0,3:2|0:0|3:0|0:0|3:0|0:0|3:0|0:0,0:0:0:0:
129,334,37504,2,0,L|136:353,7,18,0|0|0|0|0|0|0|0,3:0|0:0|3:0|0:0|3:0|0:0|3:0|0:0,0:0:0:0:
199,311,39439,6,0,L|211:328,3,18,0|0|0|0,3:0|0:0|3:0|0:0,0:0:0:0:
260,270,40407,2,0,L|276:283,3,18,0|0|0|0,3:0|0:0|3:0|0:0,0:0:0:0:
308,214,41375,6,0,L|327:222,1,18,0|0,3:0|0:0,0:0:0:0:
339,147,41859,2,0,L|359:150,1,18,0|0,3:0|0:0,0:0:0:0:
422,111,42342,6,0,P|420:46|363:15,2,135.000005149842,0|0|8,3:0|0:0|0:0,0:0:0:0:
423,111,43068,1,0,0:0:0:0:
423,111,43310,6,0,P|335:122|248:153,1,180,4|0,0:0|3:0,0:0:0:0:
174,133,43673,1,0,0:0:0:0:
62,195,43794,1,8,0:0:0:0:
179,272,43915,1,0,0:0:0:0:
140,204,44036,5,0,3:0:0:0:
96,271,44157,2,0,P|100:316|101:361,2,90,8|0|8,0:0|3:0|0:0,0:0:0:0:
179,272,44520,1,0,0:0:0:0:
183,352,44641,1,0,3:0:0:0:
337,300,44762,2,0,B|292:291|292:291|251:308,1,90,8|0,0:0|0:0,0:0:0:0:
378,366,45004,2,0,B|422:374|422:374|463:357,1,90,0|0,3:0|0:0,0:0:0:0:
414,293,45246,6,0,P|409:203|412:113,1,180,0|0,3:0|3:0,0:0:0:0:
412,113,45609,2,0,P|386:77|342:69,1,90,0|8,0:0|0:0,0:0:0:0:
272,34,45850,1,0,0:0:0:0:
148,66,45971,1,0,3:0:0:0:
180,190,46092,1,8,0:0:0:0:
206,118,46213,5,0,3:0:0:0:
104,203,46334,1,8,0:0:0:0:
229,249,46455,1,0,3:0:0:0:
229,249,46576,1,0,0:0:0:0:
331,163,46697,6,0,L|319:252,1,90,8|0,0:0|0:0,0:0:0:0:
163,356,46939,2,0,L|151:266,1,90,0|0,3:0|0:0,0:0:0:0:
104,203,47181,6,0,P|20:210|1:293,2,180,4|0|8,3:2|3:0|0:0,0:0:0:0:
177,172,47786,1,0,0:0:0:0:
224,111,47907,1,0,3:0:0:0:
239,36,48028,1,8,0:0:0:0:
315,22,48149,1,0,3:0:0:0:
380,66,48270,6,0,L|387:155,1,90,8|0,0:0|3:0,0:0:0:0:
343,219,48512,1,0,0:0:0:0:
450,334,48633,2,0,B|466:291|466:291|451:249,1,90,8|0,0:0|0:0,0:0:0:0:
267,202,48875,2,0,B|251:245|251:245|265:286,1,90,0|8,3:0|0:0,0:0:0:0:
351,357,49117,5,0,3:0:0:0:
369,331,49238,1,0,0:0:0:0:
337,329,49359,1,0,3:0:0:0:
321,355,49480,2,0,L|229:374,1,90,0|8,0:0|0:0,0:0:0:0:
173,326,49721,5,0,0:0:0:0:
33,293,49842,1,0,3:0:0:0:
66,153,49963,1,8,0:0:0:0:
206,186,50084,1,0,3:0:0:0:
96,341,50205,5,8,0:0:0:0:
14,215,50326,1,0,3:0:0:0:
143,138,50447,1,0,0:0:0:0:
118,211,50568,5,8,0:0:0:0:
171,65,50689,1,8,0:0:0:0:
285,175,50810,1,8,0:0:0:0:
285,175,50931,1,8,0:0:0:0:
334,114,51052,6,0,P|367:114|400:107,1,67.5000025749208,0|0,3:0|0:0,0:0:0:0:
326,253,51294,2,0,P|292:252|259:259,1,67.5000025749208,0|0,3:0|0:0,0:0:0:0:
400,322,51536,6,0,L|409:187,1,135.000005149842,8|0,0:0|3:0,0:0:0:0:
472,140,51899,1,8,0:0:0:0:
411,92,52020,1,0,3:0:0:0:
427,16,52141,1,8,0:0:0:0:
489,65,52262,5,0,3:0:0:0:
399,166,52383,1,0,0:0:0:0:
352,39,52504,5,8,0:0:0:0:
294,91,52625,1,8,0:0:0:0:
227,49,52746,1,8,0:0:0:0:
168,99,52867,1,8,0:0:0:0:
168,99,52988,6,0,P|104:77|37:69,2,135,0|0|0,1:0|1:0|1:0,0:0:0:0:
180,115,54197,5,0,3:0:0:0:
187,160,54277,1,0,3:0:0:0:
160,196,54358,1,0,3:0:0:0:
168,241,54438,1,0,3:0:0:0:
37,262,54802,6,0,B|129:247|88:333|153:365,1,168.750006437302,4|0,1:2|0:0,0:0:0:0:
165,360,55165,6,0,P|209:355|253:344,1,90,8|0,0:0|0:0,0:0:0:0:
328,370,55407,2,0,P|356:335|379:296,1,90,0|0,1:0|3:0,0:0:0:0:
450,261,55649,2,0,P|445:216|434:172,1,90,8|0,0:0|0:0,0:0:0:0:
174,340,55891,6,0,P|216:324|255:302,1,90,0|0,1:0|0:0,0:0:0:0:
333,292,56133,2,0,P|351:250|363:207,1,90,8|0,0:0|0:0,0:0:0:0:
411,145,56375,2,0,P|395:103|373:63,1,90,0|0,1:0|3:0,0:0:0:0:
295,78,56617,5,8,0:0:0:0:
155,21,56738,2,0,P|122:105|79:183,1,180,4|0,3:2|0:0,0:0:0:0:
33,254,57100,2,0,B|75:261|63:290|112:308,1,90,8|0,0:0|0:0,0:0:0:0:
139,235,57342,5,0,3:0:0:0:
157,360,57463,1,0,3:0:0:0:
192,149,57584,2,0,P|224:232|268:311,1,180,8|0,0:0|3:0,0:0:0:0:
234,384,57947,1,0,0:0:0:0:
343,282,58068,6,0,B|386:292|386:292|425:269,1,90,8|0,0:0|0:0,0:0:0:0:
426,190,58310,1,0,3:0:0:0:
496,230,58431,5,0,3:0:0:0:
346,202,58552,1,8,0:0:0:0:
445,86,58673,1,0,0:0:0:0:
445,86,58794,6,0,P|359:61|281:17,1,180,4|8,1:2|0:0,0:0:0:0:
209,50,59157,1,0,0:0:0:0:
132,36,59278,1,0,3:0:0:0:
60,73,59399,1,0,3:0:0:0:
40,150,59520,2,0,P|42:193|40:241,1,90,8|0,0:0|0:0,0:0:0:0:
88,304,59762,6,0,B|164:296|126:245|209:237,1,135,0|0,1:0|0:0,0:0:0:0:
221,244,60004,2,0,P|219:201|221:153,1,90,8|0,0:0|0:0,0:0:0:0:
141,175,60246,1,0,3:0:0:0:
208,322,60367,1,0,3:0:0:0:
301,192,60488,2,0,P|363:221|427:241,1,135,8|0,0:0|0:0,0:0:0:0:
442,224,60730,6,0,B|403:128|483:137|493:61,1,180,0|8,1:0|0:0,0:0:0:0:
423,25,61092,1,0,0:0:0:0:
358,130,61213,2,0,P|338:90|346:46,1,90,0|0,3:0|3:0,0:0:0:0:
442,224,61455,2,0,P|461:263|453:307,1,90,8|0,0:0|0:0,0:0:0:0:
377,329,61697,5,8,0:0:0:0:
306,365,61818,1,0,3:0:0:0:
245,312,61939,1,8,0:0:0:0:
171,343,62060,1,0,3:0:0:0:
47,215,62181,5,8,0:0:0:0:
87,213,62261,1,8,0:0:0:0:
118,238,62342,1,8,0:0:0:0:
125,278,62422,1,8,0:0:0:0:
1,279,62544,6,0,P|16:196|23:112,1,168.750006437302,4|0,1:2|0:0,0:0:0:0:
44,113,62907,6,0,P|84:85|134:82,1,99.0000030212403,8|0,0:0|0:0,0:0:0:0:
181,190,63149,2,0,P|189:142|222:104,1,99.0000030212403,0|0,1:0|3:0,0:0:0:0:
332,147,63391,2,0,P|304:106|301:57,1,99.0000030212403,8|0,0:0|0:0,0:0:0:0:
39,136,63633,6,0,P|76:104|125:97,1,99.0000030212403,0|0,1:0|0:0,0:0:0:0:
193,209,63875,2,0,P|197:160|227:120,1,99.0000030212403,8|0,0:0|0:0,0:0:0:0:
353,151,64117,2,0,P|321:113|314:64,1,99.0000030212403,0|0,1:0|3:0,0:0:0:0:
376,13,64359,5,8,0:0:0:0:
482,106,64480,2,0,P|437:197|411:293,1,198.000006042481,4|0,3:2|0:0,0:0:0:0:
354,342,64842,2,0,P|306:335|284:293,1,99.0000030212403,8|0,0:0|0:0,0:0:0:0:
342,238,65084,5,0,3:0:0:0:
230,370,65205,1,0,3:0:0:0:
158,335,65326,2,0,P|162:236|158:137,1,198.000006042481,8|0,0:0|3:0,0:0:0:0:
93,96,65689,1,0,0:0:0:0:
238,170,65810,6,0,B|285:179|285:179|331:156,1,99.0000030212403,8|0,0:0|0:0,0:0:0:0:
405,189,66052,1,0,3:0:0:0:
342,238,66173,5,0,3:0:0:0:
479,220,66294,1,8,3:0:0:0:
394,109,66415,1,8,3:0:0:0:
394,109,66536,6,0,P|299:106|260:20,1,198.000006042481,4|8,1:2|0:0,0:0:0:0:
183,43,66899,1,0,0:0:0:0:
153,185,67020,1,0,3:0:0:0:
11,155,67141,1,0,3:0:0:0:
106,120,67262,6,0,P|122:217|126:316,1,198.000006042481,8|0,0:0|3:0,0:0:0:0:
181,373,67625,1,0,0:0:0:0:
296,295,67746,2,0,B|249:315|249:315|201:296,1,99.0000030212403,8|0,0:0|0:0,0:0:0:0:
345,153,67988,2,0,B|385:183|385:183|392:231,1,99.0000030212403,0|0,3:0|3:0,0:0:0:0:
198,181,68230,2,0,B|204:130|204:130|241:100,1,99.0000030212403,8|0,0:0|0:0,0:0:0:0:
207,30,68471,6,0,P|119:-4|52:62,1,198.000006042481,0|8,1:0|0:0,0:0:0:0:
106,120,68834,1,0,0:0:0:0:
27,135,68955,2,0,P|33:234|26:333,1,198.000006042481,0|8,1:0|0:0,0:0:0:0:
88,380,69318,1,8,0:0:0:0:
122,256,69439,5,8,0:0:0:0:
240,295,69560,1,0,3:0:0:0:
333,213,69681,1,0,3:0:0:0:
215,174,69802,1,0,3:0:0:0:
185,356,69923,5,8,0:0:0:0:
230,376,70003,1,8,0:0:0:0:
278,367,70084,1,8,0:0:0:0:
311,332,70164,1,8,0:0:0:0:
398,341,70286,6,0,B|364:257|419:265|443:185,1,168.750006437302,4|0,1:2|0:0,0:0:0:0:
459,183,70649,6,0,P|428:145|416:97,1,99.0000030212403,8|0,0:0|0:0,0:0:0:0:
499,111,70891,2,0,P|490:62|503:15,1,99.0000030212403,0|0,1:0|3:0,0:0:0:0:
462,265,71133,2,0,P|415:247|381:213,1,99.0000030212403,8|0,0:0|0:0,0:0:0:0:
339,144,71375,6,0,P|334:95|351:48,1,99.0000030212403,0|0,1:0|0:0,0:0:0:0:
305,241,71617,2,0,P|273:203|261:155,1,99.0000030212403,8|0,0:0|0:0,0:0:0:0:
219,88,71859,2,0,P|239:43|277:12,1,99.0000030212403,0|0,1:0|3:0,0:0:0:0:
182,158,72100,5,8,0:0:0:0:
35,133,72221,2,0,P|47:231|52:329,1,198.000006042481,4|0,3:2|3:0,0:0:0:0:
116,376,72584,2,0,B|160:373|136:318|180:296,1,99.0000030212403,8|0,0:0|0:0,0:0:0:0:
248,281,72826,5,0,3:0:0:0:
228,358,72947,1,0,3:0:0:0:
333,321,73068,2,0,L|323:222,1,99.0000030212403,8|0,0:0|0:0,0:0:0:0:
375,164,73310,1,0,3:0:0:0:
489,278,73431,1,0,0:0:0:0:
409,267,73552,5,8,0:0:0:0:
440,118,73673,1,0,0:0:0:0:
280,53,73794,1,0,3:0:0:0:
249,202,73915,1,0,3:0:0:0:
192,147,74036,5,8,0:0:0:0:
154,174,74117,1,8,0:0:0:0:
113,149,74197,1,8,0:0:0:0:
77,176,74278,2,0,P|80:226|77:275,1,99.0000030212403,4|0,1:2|0:0,0:0:0:0:
134,332,74520,5,8,0:0:0:0:
213,321,74641,1,0,3:0:0:0:
277,276,74762,1,0,3:0:0:0:
353,288,74883,1,0,3:0:0:0:
398,353,75004,6,0,P|394:303|397:254,1,99.0000030212403,8|0,0:0|0:0,0:0:0:0:
355,189,75246,2,0,P|272:207|262:311,1,198.000006042481,0|8,3:0|0:0,0:0:0:0:
199,358,75609,1,0,0:0:0:0:
61,337,75730,1,0,3:0:0:0:
191,339,75850,1,0,3:0:0:0:
78,231,75971,5,8,0:0:0:0:
127,295,76092,1,0,3:0:0:0:
97,209,76213,2,0,P|110:110|117:12,1,198.000006042481,0|8,3:0|0:0,0:0:0:0:
195,30,76576,1,0,0:0:0:0:
271,8,76697,1,0,3:0:0:0:
330,62,76818,1,0,3:0:0:0:
253,85,76939,1,8,0:0:0:0:
195,30,77060,1,0,3:0:0:0:
271,8,77181,5,8,0:0:0:0:
280,160,77302,1,0,3:0:0:0:
412,84,77423,1,8,0:0:0:0:
332,98,77544,5,0,0:0:0:0:
360,24,77665,5,0,3:0:0:0:
253,85,77786,1,0,3:0:0:0:
385,159,77907,1,8,0:0:0:0:
440,100,78028,6,0,P|426:183|420:267,1,168.750006437302,4|0,1:2|0:0,0:0:0:0:
347,289,78391,2,0,P|308:316|248:339,1,99.0000030212403,8|0,0:0|0:0,0:0:0:0:
230,262,78633,2,0,P|182:265|119:255,1,99.0000030212403,0|0,1:0|3:0,0:0:0:0:
142,180,78875,2,0,P|99:159|49:119,1,99.0000030212403,8|0,0:0|0:0,0:0:0:0:
273,352,79117,6,0,P|225:355|162:345,1,99.0000030212403,0|0,1:0|0:0,0:0:0:0:
307,212,79359,2,0,P|264:191|214:151,1,99.0000030212403,8|0,0:0|0:0,0:0:0:0:
55,280,79600,2,0,P|28:241|5:181,1,99.0000030212403,0|0,1:0|3:0,0:0:0:0:
35,118,79842,5,8,0:0:0:0:
112,36,79963,2,0,B|217:6|196:85|294:94,1,198.000006042481,4|0,3:2|0:0,0:0:0:0:
343,36,80326,2,0,B|384:8|384:8|431:22,1,99.0000030212403,8|0,0:0|0:0,0:0:0:0:
494,191,80568,5,0,3:0:0:0:
459,95,80689,1,0,3:0:0:0:
419,209,80810,2,0,B|378:237|378:237|331:223,1,99.0000030212403,8|0,0:0|0:0,0:0:0:0:
273,279,81052,6,0,B|200:217|200:217|102:250,1,198.000006042481,0|8,3:0|0:0,0:0:0:0:
37,163,81415,1,0,0:0:0:0:
92,264,81536,1,0,1:0:0:0:
26,178,81657,1,0,3:0:0:0:
135,153,81778,5,8,0:0:0:0:
135,153,81859,1,8,0:0:0:0:
135,153,81939,1,8,0:0:0:0:
135,153,82020,1,4,1:2:0:0:
210,138,82141,5,0,0:0:0:0:
140,36,82262,1,8,0:0:0:0:
262,5,82383,1,0,0:0:0:0:
212,62,82504,1,2,1:2:0:0:
299,156,82625,5,0,3:0:0:0:
353,15,82746,2,0,B|401:31|401:31|458:4,1,99.0000030212403,8|0,0:0|0:0,0:0:0:0:
489,74,82988,5,2,1:2:0:0:
377,168,83109,1,0,0:0:0:0:
480,267,83230,1,8,0:0:0:0:
457,148,83350,1,2,1:2:0:0:
330,232,83471,5,0,3:0:0:0:
285,166,83592,1,0,3:0:0:0:
212,315,83713,6,0,L|223:216,1,99.0000030212403,10|0,0:0|0:0,0:0:0:0:
130,347,83955,2,0,L|106:150,1,198.000006042481,4|8,1:2|0:0,0:0:0:0:
136,77,84318,1,0,0:0:0:0:
380,89,84439,6,0,B|290:135|290:135|215:73,1,198.000006042481,2|8,1:2|0:0,0:0:0:0:
414,19,84802,1,0,0:0:0:0:
459,81,84923,6,0,P|449:132|443:183,1,99.0000030212403,2|0,1:2|3:0,0:0:0:0:
365,186,85165,2,0,P|375:236|381:287,1,99.0000030212403,8|8,0:0|0:0,0:0:0:0:
440,335,85407,5,8,0:0:0:0:
428,355,85488,1,8,0:0:0:0:
406,365,85568,1,8,0:0:0:0:
383,363,85649,2,0,P|332:353|274:354,1,99.0000030212403,8|8,0:0|0:0,0:0:0:0:
213,318,85891,5,4,3:2:0:0:
145,359,86012,1,0,0:0:0:0:
145,359,86133,1,2,3:2:0:0:
89,301,86254,1,0,3:0:0:0:
4,287,86375,5,8,0:0:0:0:
32,213,86496,1,2,3:2:0:0:
111,212,86617,1,0,3:0:0:0:
84,287,86738,1,8,0:0:0:0:
71,145,86859,6,0,P|86:115|97:84,1,67.5000025749208,2|8,3:2|0:0,0:0:0:0:
159,35,87100,1,0,0:0:0:0:
169,112,87221,2,0,P|180:143|195:173,1,67.5000025749208,2|8,3:2|0:0,0:0:0:0:
272,193,87463,1,0,0:0:0:0:
335,117,87584,2,0,P|323:85|308:55,1,67.5000025749208,2|8,3:2|0:0,0:0:0:0:
369,7,87826,5,4,3:2:0:0:
442,47,87947,1,0,0:0:0:0:
442,47,88068,1,2,3:2:0:0:
419,123,88189,1,0,0:0:0:0:
461,215,88310,5,8,0:0:0:0:
496,144,88431,1,2,3:2:0:0:
418,148,88552,1,0,3:0:0:0:
389,247,88673,1,0,3:0:0:0:
421,321,88794,6,0,P|388:326|356:335,1,67.5000025749208,2|8,3:2|0:0,0:0:0:0:
280,315,89036,1,0,0:0:0:0:
246,229,89157,2,0,P|279:234|311:243,1,67.5000025749208,2|8,3:2|0:0,0:0:0:0:
260,323,89399,1,0,0:0:0:0:
196,371,89520,2,0,P|162:365|130:356,1,67.5000025749208,10|8,3:2|0:0,0:0:0:0:
75,300,89762,5,4,3:2:0:0:
126,238,89883,1,0,0:0:0:0:
126,238,90004,1,2,3:2:0:0:
109,161,90125,1,0,0:0:0:0:
198,121,90246,5,8,0:0:0:0:
159,52,90367,1,2,3:2:0:0:
85,80,90488,1,0,3:0:0:0:
124,148,90609,1,8,3:2:0:0:
214,112,90730,2,0,L|280:124,1,67.5000025749208,2|8,3:2|0:0,0:0:0:0:
349,162,90971,5,0,3:0:0:0:
403,108,91092,1,0,0:0:0:0:
448,171,91213,2,0,P|435:202|424:234,1,67.5000025749208,8|2,0:0|0:0,0:0:0:0:
482,102,91455,2,0,P|471:69|458:38,1,67.5000025749208,0|8,3:0|0:0,0:0:0:0:
380,33,91697,5,4,3:2:0:0:
304,22,91818,1,0,0:0:0:0:
304,22,91939,1,2,3:2:0:0:
228,42,92060,1,0,3:0:0:0:
177,99,92181,1,8,0:0:0:0:
103,80,92302,1,2,3:2:0:0:
103,80,92423,1,0,3:0:0:0:
31,113,92544,1,8,3:2:0:0:
69,178,92665,2,0,P|74:211|79:244,1,67.5000025749208,2|8,3:2|0:0,0:0:0:0:
163,234,93028,5,10,3:2:0:0:
163,234,93088,1,8,3:2:0:0:
163,234,93149,2,0,P|157:267|152:300,1,67.5000025749208,8|8,3:2|3:2,0:0:0:0:
237,203,93391,2,0,P|243:170|248:137,1,67.5000025749208,2|2,3:2|3:2,0:0:0:0:
233,283,93633,6,0,P|299:272|366:267,1,135.000005149842,4|0,3:2|3:0,0:0:0:0:
413,204,94117,2,0,P|418:170|417:137,1,67.5000025749208,8|0,0:0|0:0,0:0:0:0:
336,191,94359,1,0,3:0:0:0:
343,113,94480,2,0,P|323:85|298:62,1,67.5000025749208,8|0,0:0|3:0,0:0:0:0:
225,86,94721,1,8,0:0:0:0:
173,30,94842,2,0,L|40:54,1,135.000005149842,0|8,3:0|0:0,0:0:0:0:
23,130,95326,6,0,B|32:163|32:163|23:195,1,67.5000025749208,0|0,3:0|0:0,0:0:0:0:
74,257,95568,2,0,B|142:244|142:244|199:276,1,135.000005149842,0|0,3:0|3:0,0:0:0:0:
267,239,95931,1,0,0:0:0:0:
307,308,96052,1,8,0:0:0:0:
307,308,96173,1,0,0:0:0:0:
366,256,96294,1,0,3:0:0:0:
430,302,96415,1,8,0:0:0:0:
430,302,96536,1,0,3:0:0:0:
491,258,96657,2,0,P|497:224|508:192,1,67.5000025749208,8|0,0:0|3:0,0:0:0:0:
430,45,97020,6,0,B|362:56|407:115|328:130,1,135.000005149842,8|0,0:0|3:0,0:0:0:0:
319,113,97322,1,0,3:0:0:0:
310,94,97382,1,0,3:0:0:0:
309,74,97443,1,0,3:0:0:0:
314,54,97504,2,0,P|247:67|186:94,1,135.000005149842,4|0,3:2|3:0,0:0:0:0:
15,90,97988,6,0,P|48:83|78:70,1,67.5000025749208,8|0,0:0|3:0,0:0:0:0:
122,135,98230,1,0,3:0:0:0:
124,213,98350,1,8,0:0:0:0:
62,262,98471,1,0,3:0:0:0:
107,326,98592,1,8,0:0:0:0:
169,278,98713,2,0,L|303:268,1,135.000005149842,0|8,3:0|0:0,0:0:0:0:
347,205,99197,6,0,P|348:171|355:139,1,67.5000025749208,0|0,3:0|0:0,0:0:0:0:
341,63,99439,2,0,P|276:55|232:103,1,135.000005149842,0|0,3:0|3:0,0:0:0:0:
415,89,99802,1,0,0:0:0:0:
492,80,99923,2,0,P|498:46|500:13,1,67.5000025749208,8|0,0:0|0:0,0:0:0:0:
460,152,100165,1,0,3:0:0:0:
447,282,100286,2,0,P|413:276|380:274,1,67.5000025749208,8|0,0:0|0:0,0:0:0:0:
347,205,100528,5,8,0:0:0:0:
281,246,100649,1,0,3:0:0:0:
213,165,100891,6,0,L|218:120,2,45,0|0|0,3:0|3:0|3:0,0:0:0:0:
174,56,101375,6,0,P|142:69|109:74,1,67.5000025749208,0|0,3:0|0:0,0:0:0:0:
71,166,101617,2,0,P|102:153|136:149,1,67.5000025749208,0|0,3:0|0:0,0:0:0:0:
37,96,101859,2,0,P|38:164|29:231,1,135.000005149842,8|0,0:0|3:0,0:0:0:0:
50,304,102221,2,0,P|83:308|114:321,1,67.5000025749208,8|0,0:0|3:0,0:0:0:0:
183,288,102463,2,0,P|203:314|216:346,1,67.5000025749208,8|0,0:0|3:0,0:0:0:0:
286,317,102705,1,0,3:0:0:0:
353,350,102826,6,0,P|371:285|379:218,1,135.000005149842,8|0,0:0|3:0,0:0:0:0:
398,207,103129,1,0,3:0:0:0:
411,191,103189,1,0,3:0:0:0:
417,171,103250,1,0,3:0:0:0:
416,150,103310,2,0,P|356:127|315:176,2,135.000005149842,0|0|8,3:0|3:0|0:0,0:0:0:0:
286,81,104036,5,0,3:0:0:0:
247,16,104157,2,0,P|214:10|182:0,1,67.5000025749208,8|0,0:0|3:0,0:0:0:0:
131,56,104399,1,8,0:0:0:0:
23,79,104520,1,0,3:0:0:0:
46,187,104641,1,0,3:0:0:0:
90,122,104762,6,0,L|80:225,1,101.250003862381,8|0,0:0|0:0,0:0:0:0:
100,245,105004,1,0,3:0:0:0:
207,188,105125,1,0,0:0:0:0:
196,322,105246,6,0,P|179:293|178:259,1,67.5000025749208,0|0,3:0|0:0,0:0:0:0:
285,202,105488,2,0,P|301:230|302:264,1,67.5000025749208,0|0,3:0|0:0,0:0:0:0:
359,315,105730,1,8,0:0:0:0:
372,322,105971,5,0,3:0:0:0:
444,297,106092,1,8,0:0:0:0:
419,225,106213,1,0,3:0:0:0:
491,200,106334,1,8,0:0:0:0:
403,217,106455,6,0,L|416:79,1,135.000005149842,0|8,3:0|0:0,0:0:0:0:
361,32,106939,1,0,3:0:0:0:
339,23,106999,1,0,3:0:0:0:
316,25,107059,1,0,3:0:0:0:
297,37,107120,1,0,3:0:0:0:
285,56,107181,2,0,P|218:64|150:59,2,135.000005149842,0|0|8,3:0|3:0|0:0,0:0:0:0:
86,101,107907,5,0,3:0:0:0:
9,98,108028,2,0,P|4:131|4:165,1,67.5000025749208,8|0,0:0|0:0,0:0:0:0:
71,203,108270,5,8,0:0:0:0:
24,302,108391,2,0,P|44:329|67:352,1,67.5000025749208,0|0,3:0|0:0,0:0:0:0:
142,341,108633,5,8,0:0:0:0:
219,334,108754,1,0,0:0:0:0:
294,350,108875,1,4,3:0:0:0:
371,358,108996,1,4,3:0:0:0:
446,340,109117,6,0,P|439:263|435:187,1,153.000002918243,4|0,3:2|3:0,0:0:0:0:
473,121,109480,1,0,0:0:0:0:
396,122,109600,2,0,B|360:108|360:108|323:116,1,76.5000014591217,8|0,0:0|0:0,0:0:0:0:
251,87,109842,5,0,3:0:0:0:
276,178,109963,1,8,0:0:0:0:
185,203,110084,1,0,3:0:0:0:
160,112,110205,2,0,L|185:33,1,76.5000014591217,8|0,0:0|3:0,0:0:0:0:
251,87,110447,1,0,0:0:0:0:
235,264,110568,2,0,L|84:216,1,153.000002918243,8|8,0:0|3:0,0:0:0:0:
85,139,110931,1,8,3:0:0:0:
254,8,111052,6,0,P|325:24|346:94,1,153.000002918243,0|0,3:0|3:0,0:0:0:0:
381,166,111415,1,0,0:0:0:0:
431,105,111536,2,0,P|411:137|398:173,1,76.5000014591217,8|0,0:0|0:0,0:0:0:0:
360,242,111778,5,0,3:0:0:0:
439,238,111899,1,8,0:0:0:0:
341,319,112020,1,0,3:0:0:0:
294,198,112141,1,8,0:0:0:0:
236,251,112262,5,0,3:0:0:0:
262,326,112383,2,0,L|299:318,1,38.2500007295609,0|0,3:0|3:0,0:0:0:0:
223,237,112504,2,0,P|152:242|129:311,1,153.000002918243,8|0,0:0|3:0,0:0:0:0:
55,342,112867,1,0,0:0:0:0:
50,262,112988,6,0,P|42:186|24:112,1,153.000002918243,4|0,3:2|3:0,0:0:0:0:
68,48,113350,1,0,0:0:0:0:
107,115,113471,2,0,B|144:122|144:122|177:103,1,76.5000014591217,8|0,0:0|0:0,0:0:0:0:
253,118,113713,5,0,3:0:0:0:
292,19,113834,1,8,0:0:0:0:
391,58,113955,1,0,3:0:0:0:
351,156,114076,2,0,B|388:149|388:149|421:168,1,76.5000014591217,8|0,0:0|3:0,0:0:0:0:
357,364,114318,1,0,3:0:0:0:
281,344,114439,2,0,P|284:267|281:191,1,153.000002918243,8|0,0:0|3:0,0:0:0:0:
205,180,114802,1,0,3:0:0:0:
205,262,114923,6,0,P|133:273|114:343,1,153.000002918243,0|0,3:0|3:0,0:0:0:0:
189,369,115286,1,0,0:0:0:0:
42,270,115407,2,0,P|40:231|42:193,1,76.5000014591217,8|0,0:0|0:0,0:0:0:0:
112,157,115649,5,0,3:0:0:0:
51,65,115770,1,8,0:0:0:0:
141,6,115891,1,0,3:0:0:0:
201,96,116012,1,8,0:0:0:0:
126,81,116133,5,0,3:0:0:0:
253,21,116254,1,0,0:0:0:0:
313,148,116375,2,0,P|310:186|313:224,1,76.5000014591217,8|0,0:0|0:0,0:0:0:0:
229,172,116617,2,0,P|231:133|228:95,1,76.5000014591217,0|0,3:0|0:0,0:0:0:0:
342,75,116859,6,0,P|414:84|446:150,1,153.000002918243,4|0,3:2|3:0,0:0:0:0:
393,211,117221,1,0,3:0:0:0:
372,331,117342,2,0,P|336:343|304:365,1,76.5000014591217,8|0,0:0|0:0,0:0:0:0:
233,334,117584,5,0,3:0:0:0:
89,309,117705,1,8,0:0:0:0:
114,165,117826,1,0,3:0:0:0:
159,272,117947,1,8,0:0:0:0:
35,171,118068,5,0,3:0:0:0:
136,47,118189,1,0,3:0:0:0:
259,148,118310,2,0,P|297:141|335:145,1,76.5000014591217,8|0,0:0|0:0,0:0:0:0:
245,258,118552,2,0,P|207:264|169:260,1,76.5000014591217,0|0,3:0|0:0,0:0:0:0:
190,184,118794,5,0,3:0:0:0:
299,37,118915,1,0,3:0:0:0:
314,221,119036,1,0,3:0:0:0:
385,65,119157,5,8,0:0:0:0:
390,200,119278,1,0,3:0:0:0:
471,93,119399,1,0,3:0:0:0:
463,230,119520,5,8,0:0:0:0:
509,164,119641,1,8,0:0:0:0:
508,296,119762,1,0,3:0:0:0:
473,311,119842,1,0,3:0:0:0:
451,342,119923,1,0,3:0:0:0:
444,379,120004,1,0,3:0:0:0:
396,367,120084,1,0,3:0:0:0:
367,327,120165,1,0,3:0:0:0:
372,277,120246,2,0,P|300:251|255:224,1,107.999996704102,8|0,0:0|0:0,0:0:0:0:
198,212,120609,6,0,B|109:245|172:293|85:326,1,168.750006437302,4|0,1:2|0:0,0:0:0:0:
75,310,120971,6,0,P|42:282|52:238,1,90,8|0,0:0|0:0,0:0:0:0:
9,176,121213,2,0,P|17:133|60:119,1,90,0|0,1:0|3:0,0:0:0:0:
93,52,121455,2,0,P|133:38|167:68,1,90,8|0,0:0|0:0,0:0:0:0:
97,317,121697,6,0,P|73:281|93:240,1,90,0|0,1:0|0:0,0:0:0:0:
14,198,121939,2,0,P|33:159|78:156,1,90,8|0,0:0|0:0,0:0:0:0:
75,67,122181,2,0,P|117:64|142:102,1,90,0|0,1:0|3:0,0:0:0:0:
216,125,122423,5,8,0:0:0:0:
279,77,122544,2,0,P|363:79|399:2,1,180,4|0,3:2|3:0,0:0:0:0:
285,163,122907,2,0,P|280:208|285:253,1,90,8|0,0:0|0:0,0:0:0:0:
246,322,123149,5,0,3:0:0:0:
364,253,123270,1,0,3:0:0:0:
325,321,123391,2,0,P|239:292|150:282,1,180,8|0,0:0|3:0,0:0:0:0:
83,321,123754,1,0,0:0:0:0:
83,243,123875,2,0,B|66:201|66:201|81:159,1,90,8|0,0:0|0:0,0:0:0:0:
36,96,124117,1,0,1:0:0:0:
151,200,124238,5,0,3:0:0:0:
196,66,124359,1,8,0:0:0:0:
63,21,124480,1,0,0:0:0:0:
224,141,124600,6,0,L|412:113,1,180,4|8,1:2|0:0,0:0:0:0:
472,146,124963,1,0,0:0:0:0:
447,219,125084,1,0,3:0:0:0:
387,267,125205,1,0,3:0:0:0:
385,344,125326,2,0,P|342:354|297:353,1,90,8|0,0:0|0:0,0:0:0:0:
224,376,125568,6,0,B|169:336|209:302|155:258,1,135,0|0,3:0|0:0,0:0:0:0:
84,286,125810,2,0,P|82:241|85:196,1,90,8|0,0:0|0:0,0:0:0:0:
163,183,126052,1,0,1:0:0:0:
37,133,126173,1,0,3:0:0:0:
120,30,126294,2,0,P|162:83|216:124,1,135,8|0,0:0|0:0,0:0:0:0:
241,198,126536,6,0,P|318:161|320:76,1,180,4|8,3:2|0:0,0:0:0:0:
246,51,126899,1,0,0:0:0:0:
416,23,127020,2,0,P|410:67|411:112,1,90,0|0,3:0|3:0,0:0:0:0:
318,277,127262,2,0,P|323:232|322:187,1,90,8|0,0:0|0:0,0:0:0:0:
375,129,127504,5,8,0:0:0:0:
476,233,127625,1,0,3:0:0:0:
372,334,127746,1,8,0:0:0:0:
402,204,127867,1,0,3:0:0:0:
468,309,127988,5,8,0:0:0:0:
448,321,128068,1,8,0:0:0:0:
450,305,128149,1,8,0:0:0:0:
464,324,128230,1,8,0:0:0:0:
372,334,128350,6,0,B|272:329|330:265|216:261,1,168.750006437302,4|0,1:2|3:0,0:0:0:0:
164,308,128713,6,0,B|142:263|142:263|162:217,1,99.0000030212403,8|0,0:0|0:0,0:0:0:0:
364,164,128955,2,0,B|386:209|386:209|366:255,1,99.0000030212403,0|0,1:0|3:0,0:0:0:0:
232,184,129197,2,0,L|223:85,1,99.0000030212403,8|0,0:0|0:0,0:0:0:0:
296,17,129439,6,0,L|304:115,1,99.0000030212403,0|0,1:0|0:0,0:0:0:0:
150,140,129681,2,0,B|128:95|128:95|148:49,1,99.0000030212403,8|0,0:0|0:0,0:0:0:0:
381,89,129923,2,0,B|403:134|403:134|383:180,1,99.0000030212403,0|0,1:0|3:0,0:0:0:0:
325,231,130165,5,8,0:0:0:0:
397,197,130286,2,0,B|304:234|380:299|282:345,1,198.000006042481,4|0,3:2|3:0,0:0:0:0:
207,332,130649,2,0,B|164:308|164:308|117:321,1,99.0000030212403,8|0,0:0|3:0,0:0:0:0:
70,384,130891,5,0,3:0:0:0:
127,236,131012,1,0,3:0:0:0:
39,311,131133,2,0,L|63:114,1,198.000006042481,8|0,0:0|3:0,0:0:0:0:
41,40,131496,1,0,3:0:0:0:
141,119,131617,6,0,B|182:91|182:91|229:105,1,99.0000030212403,8|0,0:0|0:0,0:0:0:0:
299,71,131859,1,0,3:0:0:0:
429,156,131980,5,0,3:0:0:0:
368,35,132100,1,4,3:0:0:0:
294,148,132221,1,0,3:0:0:0:
459,65,132342,6,0,B|522:143|522:143|485:233,1,198.000006042481,4|8,1:2|0:0,0:0:0:0:
406,232,132705,1,0,0:0:0:0:
334,264,132826,1,0,3:0:0:0:
304,337,132947,1,0,3:0:0:0:
230,367,133068,2,0,P|136:340|38:322,1,198.000006042481,8|0,0:0|3:0,0:0:0:0:
30,244,133431,1,0,0:0:0:0:
128,165,133552,6,0,B|139:213|139:213|108:252,1,99.0000030212403,8|0,0:0|0:0,0:0:0:0:
218,111,133794,2,0,B|170:96|170:96|152:50,1,99.0000030212403,0|0,3:0|3:0,0:0:0:0:
220,215,134036,2,0,B|256:181|256:181|305:188,1,99.0000030212403,8|0,0:0|0:0,0:0:0:0:
382,325,134278,6,0,P|383:226|390:127,1,198.000006042481,0|8,1:0|0:0,0:0:0:0:
317,115,134641,1,0,0:0:0:0:
229,32,134762,2,0,P|136:39|102:127,1,198.000006042481,0|8,1:0|0:0,0:0:0:0:
56,187,135125,1,0,0:0:0:0:
33,316,135246,5,0,1:0:0:0:
108,328,135367,1,0,0:0:0:0:
81,258,135488,1,8,0:0:0:0:
7,245,135609,1,0,0:0:0:0:
183,340,135730,5,8,0:0:0:0:
182,296,135810,1,8,0:0:0:0:
220,272,135891,1,8,0:0:0:0:
219,227,135971,1,8,0:0:0:0:
389,246,136092,6,0,P|354:174|273:170,1,168.750006437302,4|0,1:2|0:0,0:0:0:0:
197,153,136455,6,0,B|150:168|150:168|108:140,1,99.0000030212403,8|0,0:0|0:0,0:0:0:0:
253,93,136697,2,0,B|209:70|209:70|199:21,1,99.0000030212403,0|0,1:0|0:0,0:0:0:0:
335,90,136939,2,0,B|319:42|319:42|347:1,1,99.0000030212403,8|0,0:0|0:0,0:0:0:0:
273,169,137181,6,0,B|295:123|295:123|344:114,1,99.0000030212403,0|0,1:0|0:0,0:0:0:0:
310,238,137423,2,0,B|358:222|358:222|397:249,1,99.0000030212403,8|0,0:0|0:0,0:0:0:0:
287,312,137665,2,0,B|332:334|332:334|341:383,1,99.0000030212403,0|0,1:0|0:0,0:0:0:0:
419,377,137907,5,8,0:0:0:0:
478,327,138028,2,0,P|474:228|480:129,1,198.000006042481,4|0,3:2|3:0,0:0:0:0:
445,62,138391,2,0,P|395:67|346:64,1,99.0000030212403,8|0,0:0|0:0,0:0:0:0:
304,0,138633,5,0,3:0:0:0:
291,121,138754,1,0,3:0:0:0:
170,108,138875,2,0,P|173:206|167:305,1,198.000006042481,8|0,0:0|3:0,0:0:0:0:
248,279,139238,1,0,0:0:0:0:
203,376,139359,5,8,0:0:0:0:
92,260,139480,1,0,0:0:0:0:
252,201,139600,1,0,3:0:0:0:
363,317,139721,1,0,3:0:0:0:
291,345,139842,5,8,0:0:0:0:
286,322,139923,1,8,0:0:0:0:
281,299,140004,1,8,0:0:0:0:
276,275,140084,2,0,P|319:251|354:218,1,99.0000030212403,4|0,1:2|0:0,0:0:0:0:
419,263,140326,5,8,0:0:0:0:
461,198,140447,1,0,3:0:0:0:
397,153,140568,1,0,0:0:0:0:
386,76,140689,1,0,0:0:0:0:
452,33,140810,6,0,P|404:46|355:53,1,99.0000030212403,8|0,0:0|0:0,0:0:0:0:
288,15,141052,2,0,P|197:36|185:129,1,198.000006042481,0|8,3:0|0:0,0:0:0:0:
163,203,141415,1,0,0:0:0:0:
37,171,141536,1,0,3:0:0:0:
152,221,141657,1,0,3:0:0:0:
102,336,141778,5,8,0:0:0:0:
77,237,141899,1,0,0:0:0:0:
176,319,142020,2,0,P|275:314|374:317,1,198.000006042481,0|8,3:0|0:0,0:0:0:0:
420,254,142383,1,0,0:0:0:0:
490,217,142504,5,0,3:0:0:0:
401,131,142625,1,0,3:0:0:0:
344,236,142746,1,8,0:0:0:0:
488,296,142867,1,0,0:0:0:0:
475,198,142988,5,0,3:0:0:0:
327,159,143109,1,0,3:0:0:0:
400,328,143230,2,0,P|350:325|301:326,1,99.0000030212403,12|0,0:0|0:0,0:0:0:0:
241,276,143471,5,0,3:0:0:0:
327,159,143592,1,0,3:0:0:0:
313,307,143713,1,8,0:0:0:0:
255,191,143834,6,0,B|166:221|183:142|100:123,1,168.750006437302,4|0,1:2|0:0,0:0:0:0:
94,138,144197,6,0,P|85:89|70:41,1,99.0000030212403,8|0,0:0|0:0,0:0:0:0:
75,251,144439,2,0,P|49:209|20:169,1,99.0000030212403,0|0,1:0|0:0,0:0:0:0:
96,365,144681,2,0,P|57:333|16:306,1,99.0000030212403,8|0,0:0|0:0,0:0:0:0:
156,314,144923,6,0,P|155:264|149:215,1,99.0000030212403,0|0,1:0|0:0,0:0:0:0:
203,158,145165,2,0,P|185:111|163:67,1,99.0000030212403,8|0,0:0|0:0,0:0:0:0:
274,71,145407,2,0,P|241:33|205:0,1,99.0000030212403,0|0,1:0|0:0,0:0:0:0:
281,149,145649,5,8,0:0:0:0:
345,104,145770,2,0,P|409:179|481:246,1,198.000006042481,4|0,3:2|3:0,0:0:0:0:
465,323,146133,2,0,P|432:357|384:355,1,99.0000030212403,8|0,0:0|0:0,0:0:0:0:
400,279,146375,1,0,3:0:0:0:
400,279,146496,1,0,3:0:0:0:
314,372,146617,2,0,P|281:334|245:300,1,99.0000030212403,8|0,0:0|0:0,0:0:0:0:
217,225,146859,6,0,B|136:282|136:282|42:249,1,198.000006042481,0|8,3:0|0:0,0:0:0:0:
39,233,147221,1,0,0:0:0:0:
104,188,147342,1,0,3:0:0:0:
33,155,147463,1,0,3:0:0:0:
98,110,147584,5,8,0:0:0:0:
80,91,147665,1,8,0:0:0:0:
94,70,147746,1,8,0:0:0:0:
76,51,147826,1,4,1:2:0:0:
144,11,147947,5,0,0:0:0:0:
247,73,148068,1,8,0:0:0:0:
177,160,148189,1,0,0:0:0:0:
296,135,148310,1,2,1:2:0:0:
313,30,148431,5,0,3:0:0:0:
405,116,148552,2,0,B|372:152|372:152|380:201,1,99.0000030212403,8|0,0:0|0:0,0:0:0:0:
254,313,148794,5,2,1:2:0:0:
303,213,148915,1,0,0:0:0:0:
400,278,149036,1,8,0:0:0:0:
355,384,149157,1,2,1:2:0:0:
325,287,149278,5,0,3:0:0:0:
331,311,149399,1,0,3:0:0:0:
260,337,149520,6,0,P|213:321|164:312,1,99.0000030212403,10|0,0:0|0:0,0:0:0:0:
86,309,149762,2,0,P|101:211|109:112,1,198.000006042481,4|8,1:2|0:0,0:0:0:0:
35,87,150125,1,0,0:0:0:0:
166,35,150246,6,0,B|258:71|258:71|342:18,1,198.000006042481,2|8,1:2|0:0,0:0:0:0:
403,69,150609,1,0,0:0:0:0:
461,124,150730,6,0,P|450:172|444:221,1,99.0000030212403,2|0,1:2|0:0,0:0:0:0:
355,240,150971,2,0,P|365:191|371:142,1,99.0000030212403,8|8,0:0|0:0,0:0:0:0:
415,296,151213,5,8,1:2:0:0:
387,354,151293,1,8,1:2:0:0:
326,371,151374,1,8,1:2:0:0:
272,337,151455,1,8,1:2:0:0:
217,302,151535,1,8,1:2:0:0:
156,320,151616,1,8,1:2:0:0:
129,378,151697,6,0,P|109:281|80:196,1,180,6|10,1:2|0:0,0:0:0:0:
230,73,152060,2,0,P|250:170|279:255,1,180,2|0,3:2|3:0,0:0:0:0:
95,126,152423,2,0,P|110:85|151:69,1,90,10|0,0:0|0:0,0:0:0:0:
230,73,152665,2,0,P|245:114|286:130,1,90,2|0,1:2|3:0,0:0:0:0:
476,106,152907,6,0,L|463:14,1,90,10|0,0:0|0:0,0:0:0:0:
403,136,153149,2,0,L|390:225,2,90,2|0|10,1:2|3:0|0:0,0:0:0:0:
468,227,153512,5,0,3:0:0:0:
427,294,153633,2,0,B|359:240|359:240|270:266,1,180,6|10,1:2|0:0,0:0:0:0:
230,199,153996,2,0,B|162:253|162:253|73:227,1,180,2|0,1:2|0:0,0:0:0:0:
105,153,154359,2,0,L|116:63,1,90,10|0,0:0|0:0,0:0:0:0:
187,28,154600,6,0,B|255:82|255:82|344:56,1,180,2|10,1:2|0:0,0:0:0:0:
350,38,154963,1,0,3:0:0:0:
417,81,155084,2,0,P|401:123|391:167,1,90,2|0,0:0|3:0,0:0:0:0:
344,228,155326,1,10,0:0:0:0:
344,228,155447,1,8,0:0:0:0:
414,295,155568,6,0,P|327:317|247:358,1,180,6|10,1:2|0:0,0:0:0:0:
182,202,155931,2,0,P|95:179|15:138,1,180,2|0,1:2|0:0,0:0:0:0:
13,231,156294,2,0,P|19:274|61:296,1,90,10|0,0:0|0:0,0:0:0:0:
129,105,156536,6,0,P|208:63|295:41,1,180,2|10,1:2|0:0,0:0:0:0:
345,103,156899,1,0,0:0:0:0:
478,145,157020,2,0,B|494:187|494:187|478:234,2,90,2|0|10,1:2|3:0|0:0,0:0:0:0:
409,189,157383,5,0,3:0:0:0:
411,269,157504,2,0,B|321:248|321:248|248:297,1,180,6|10,1:2|0:0,0:0:0:0:
209,366,157867,2,0,L|198:172,1,180,2|0,1:2|0:0,0:0:0:0:
97,107,158230,2,0,B|82:150|82:150|104:189,1,90,10|0,0:0|0:0,0:0:0:0:
180,176,158471,6,0,P|217:100|302:102,1,180,2|8,1:2|0:0,0:0:0:0:
382,101,158834,1,0,0:0:0:0:
460,107,158955,5,8,0:0:0:0:
465,69,159036,1,8,0:0:0:0:
451,32,159117,1,8,0:0:0:0:
417,12,159197,1,8,0:0:0:0:
385,84,159318,1,0,3:0:0:0:
415,171,159439,6,0,P|411:270|416:369,1,198.000006042481,6|10,1:2|0:0,0:0:0:0:
337,378,159802,2,0,B|250:388|284:290|197:252,1,198.000006042481,2|0,1:2|0:0,0:0:0:0:
134,211,160165,2,0,B|91:235|91:235|43:221,1,99.0000030212403,10|0,0:0|0:0,0:0:0:0:
205,175,160407,2,0,B|248:151|248:151|296:165,1,99.0000030212403,2|0,1:2|3:0,0:0:0:0:
138,132,160649,6,0,P|133:82|135:33,1,99.0000030212403,10|0,0:0|0:0,0:0:0:0:
53,109,160891,2,0,P|57:158|55:207,2,99.0000030212403,2|0|10,1:2|3:0|0:0,0:0:0:0:
57,29,161254,1,0,3:0:0:0:
208,13,161375,6,0,P|302:16|342:101,1,198.000006042481,6|10,1:2|0:0,0:0:0:0:
375,174,161738,2,0,P|345:269|334:367,1,198.000006042481,2|0,1:2|0:0,0:0:0:0:
225,218,162100,2,0,P|246:175|293:163,1,99.0000030212403,10|0,0:0|0:0,0:0:0:0:
259,293,162342,6,0,P|165:290|125:205,1,198.000006042481,2|10,1:2|0:0,0:0:0:0:
172,140,162705,1,0,0:0:0:0:
95,35,162826,2,0,P|96:84|93:133,1,99.0000030212403,2|0,3:2|3:0,0:0:0:0:
46,197,163068,1,10,0:0:0:0:
178,62,163189,1,8,0:0:0:0:
177,62,163310,6,0,P|275:64|374:57,1,198.000006042481,6|10,1:2|0:0,0:0:0:0:
407,128,163673,2,0,P|491:171|484:264,1,198.000006042481,2|0,1:2|0:0,0:0:0:0:
438,326,164036,2,0,P|388:324|339:328,1,99.0000030212403,10|0,0:0|0:0,0:0:0:0:
311,245,164278,2,0,P|360:246|409:242,1,99.0000030212403,2|0,1:2|0:0,0:0:0:0:
262,309,164520,6,0,B|215:293|215:293|167:307,1,99.0000030212403,10|0,0:0|0:0,0:0:0:0:
116,246,164762,2,0,B|132:199|132:199|117:151,2,99.0000030212403,2|0|10,1:2|3:0|0:0,0:0:0:0:
211,213,165125,1,0,3:0:0:0:
196,135,165246,5,8,0:0:0:0:
233,65,165367,1,0,3:0:0:0:
308,89,165488,1,8,0:0:0:0:
271,159,165609,1,0,3:0:0:0:
154,67,165730,1,8,0:0:0:0:
292,12,165850,1,0,3:0:0:0:
351,157,165971,1,8,0:0:0:0:
211,213,166092,1,8,0:0:0:0:
254,281,166213,6,0,P|242:328|237:378,1,99.0000030212403,8|0,0:0|3:0,0:0:0:0:
115,281,166455,2,0,P|127:233|132:183,1,99.0000030212403,8|0,0:0|0:0,0:0:0:0:
90,116,166697,5,8,0:0:0:0:
68,84,166777,1,8,0:0:0:0:
69,46,166858,1,8,0:0:0:0:
93,15,166938,1,8,0:0:0:0:
154,67,167060,1,0,3:0:0:0:
292,12,167181,6,0,P|308:53|330:93,1,90,0|0,3:0|0:0,0:0:0:0:
307,168,167544,1,0,3:0:0:0:
385,150,167665,2,0,P|418:178|421:222,1,90,8|0,0:0|3:0,0:0:0:0:
469,286,168028,6,0,P|456:304|448:325,1,45,8|0,0:0|3:0,0:0:0:0:
379,367,168270,1,8,0:0:0:0:
377,288,168391,2,0,B|333:300|333:300|292:282,1,90,0|8,3:0|0:0,0:0:0:0:
288,265,168875,5,0,3:0:0:0:
218,228,169117,2,0,P|189:245|127:262,1,90,8|0,0:0|3:0,0:0:0:0:
207,324,169480,2,0,P|250:335|289:357,1,90,8|0,0:0|3:0,0:0:0:0:
361,321,169842,2,0,L|374:211,1,90,8|0,0:0|3:0,0:0:0:0:
306,191,170205,1,0,3:0:0:0:
375,154,170326,5,8,3:0:0:0:
394,138,170407,1,0,3:0:0:0:
379,118,170488,1,0,3:0:0:0:
359,134,170568,1,8,3:2:0:0:
238,151,170931,5,4,1:2:0:0:
238,151,172988,5,4,3:2:0:0:
238,151,174923,5,4,3:2:0:0:
189,92,175891,5,8,3:0:0:0:
117,89,176254,1,8,3:0:0:0:
74,115,176617,1,8,3:0:0:0:
61,153,176859,5,4,3:2:0:0:
256,192,178673,5,4,1:2:0:0:
256,192,179036,6,0,L|212:202,1,45,0|0,3:0|0:0,0:0:0:0:
243,181,179278,2,0,L|199:191,1,45,0|0,3:0|0:0,0:0:0:0:
230,170,179520,2,0,L|186:180,1,45,0|0,3:0|0:0,0:0:0:0:
217,159,179762,2,0,L|173:169,1,45,0|0,3:0|0:0,0:0:0:0:
204,148,180004,2,0,L|160:158,1,45,0|0,3:0|0:0,0:0:0:0:
191,137,180246,2,0,L|147:147,1,45,0|0,3:0|0:0,0:0:0:0:
127,73,180488,6,0,L|83:83,1,45,0|8,3:0|0:0,0:0:0:0:
71,160,180730,2,0,P|74:204|71:249,2,90,0|0|0,3:0|3:0|3:0,0:0:0:0:
150,254,181455,6,0,P|146:298|149:343,2,90,0|0|0,3:0|3:0|3:0,0:0:0:0:
222,227,182181,1,0,3:0:0:0:
301,241,182302,1,8,0:0:0:0:
301,241,182423,1,0,3:0:0:0:
378,224,182544,1,8,0:0:0:0:
378,224,182665,2,0,P|382:180|379:135,1,90,4|0,3:2|3:0,0:0:0:0:
304,73,183149,6,0,P|300:117|303:162,2,90,0|0|0,3:0|3:0|3:0,0:0:0:0:
381,56,183875,1,0,3:0:0:0:
328,0,184117,2,0,P|300:34|267:65,1,90,0|0,3:0|3:0,0:0:0:0:
154,86,184480,5,0,3:0:0:0:
220,129,184600,2,0,P|138:151|116:237,1,180,4|8,1:2|0:0,0:0:0:0:
64,294,184963,1,8,0:0:0:0:
99,364,185084,1,8,0:0:0:0:
177,372,185205,1,8,0:0:0:0:
247,336,185326,1,8,0:0:0:0:
325,328,185447,1,8,0:0:0:0:
427,359,185568,5,8,3:2:0:0:
403,318,185648,1,8,3:2:0:0:
383,275,185729,1,8,3:2:0:0:
369,231,185809,1,8,3:2:0:0:
359,185,185890,1,8,3:2:0:0:
353,139,185971,1,10,3:2:0:0:
353,92,186051,1,10,3:2:0:0:
353,92,186415,6,0,B|255:128|262:27|164:62,1,202.499993820191,4|0,1:2|0:0,0:0:0:0:
147,49,186778,6,0,P|133:101|111:150,1,107.999996704102,8|0,0:0|0:0,0:0:0:0:
184,181,187020,2,0,P|153:225|115:264,1,107.999996704102,0|0,1:0|3:0,0:0:0:0:
173,317,187262,2,0,P|129:348|80:371,1,107.999996704102,8|0,0:0|0:0,0:0:0:0:
131,40,187504,6,0,P|117:92|95:141,1,107.999996704102,0|0,1:0|0:0,0:0:0:0:
168,172,187746,2,0,P|137:216|99:255,1,107.999996704102,8|0,0:0|0:0,0:0:0:0:
157,308,187988,2,0,P|113:339|64:362,1,107.999996704102,0|0,1:0|3:0,0:0:0:0:
30,292,188230,5,8,0:0:0:0:
212,250,188350,2,0,B|325:224|280:329|372:365,1,215.999993408203,4|0,3:2|0:0,0:0:0:0:
446,384,188713,2,0,P|477:341|472:289,1,107.999996704102,8|0,0:0|0:0,0:0:0:0:
392,283,188955,5,0,3:0:0:0:
434,218,189076,1,0,3:0:0:0:
356,214,189197,2,0,P|350:160|335:108,1,107.999996704102,8|0,0:0|0:0,0:0:0:0:
378,44,189439,1,0,3:0:0:0:
476,153,189560,1,0,0:0:0:0:
356,214,189681,5,8,0:0:0:0:
258,105,189802,1,0,0:0:0:0:
378,44,189923,1,0,3:0:0:0:
476,153,190044,1,0,3:0:0:0:
334,108,190165,5,8,0:0:0:0:
291,131,190245,1,8,0:0:0:0:
244,146,190326,1,8,0:0:0:0:
195,151,190407,2,0,P|144:133|91:123,1,107.999996704102,4|0,1:2|0:0,0:0:0:0:
45,60,190649,5,8,0:0:0:0:
0,124,190770,1,0,3:0:0:0:
12,201,190891,1,0,3:0:0:0:
62,262,191012,1,0,3:0:0:0:
92,335,191133,6,0,P|143:317|196:307,1,107.999996704102,8|0,0:0|0:0,0:0:0:0:
230,236,191375,2,0,B|332:204|309:313|392:352,1,215.999993408203,0|8,3:0|0:0,0:0:0:0:
448,297,191738,1,0,0:0:0:0:
448,218,191859,1,0,3:0:0:0:
371,206,191980,1,0,3:0:0:0:
476,291,192100,5,8,0:0:0:0:
497,157,192221,1,0,3:0:0:0:
419,144,192342,2,0,P|334:77|258:1,1,215.999993408203,0|8,3:0|0:0,0:0:0:0:
189,36,192705,1,0,0:0:0:0:
25,81,192826,1,0,3:0:0:0:
165,134,192947,1,0,3:0:0:0:
165,134,193068,2,0,P|170:187|165:246,1,107.999996704102,8|0,0:0|0:0,0:0:0:0:
209,306,193310,5,0,3:0:0:0:
246,287,193391,1,0,3:0:0:0:
286,301,193471,1,0,3:0:0:0:
324,282,193552,1,8,3:2:0:0:
455,230,193794,5,0,3:0:0:0:
418,211,193875,1,0,3:0:0:0:
378,225,193955,1,0,3:0:0:0:
340,206,194036,1,8,3:2:0:0:
209,305,194157,6,0,P|88:288|66:213,1,202.499993820191,4|0,1:2|0:0,0:0:0:0:
46,212,194520,6,0,P|71:163|76:111,1,107.999996704102,8|0,0:0|0:0,0:0:0:0:
199,169,194762,2,0,P|182:117|148:76,1,107.999996704102,0|0,1:0|3:0,0:0:0:0:
276,30,195004,2,0,P|227:4|175:0,1,107.999996704102,8|0,0:0|0:0,0:0:0:0:
32,225,195246,6,0,P|57:176|62:124,1,107.999996704102,0|0,1:0|0:0,0:0:0:0:
185,182,195488,2,0,P|168:130|134:89,1,107.999996704102,8|0,0:0|0:0,0:0:0:0:
262,43,195730,2,0,P|213:17|161:12,1,107.999996704102,0|0,1:0|3:0,0:0:0:0:
84,29,195971,5,8,0:0:0:0:
250,120,196092,2,0,B|365:160|336:47|434:30,1,215.999993408203,4|0,1:2|0:0,0:0:0:0:
481,89,196455,2,0,P|478:142|480:196,1,107.999996704102,8|0,0:0|0:0,0:0:0:0:
418,247,196697,5,0,3:0:0:0:
484,371,196818,1,0,3:0:0:0:
496,201,196939,2,0,P|493:147|497:94,1,107.999996704102,8|0,0:0|0:0,0:0:0:0:
414,329,197181,6,0,B|304:308|321:392|202:372,1,215.999993408203,0|8,3:0|0:0,0:0:0:0:
131,383,197544,1,0,0:0:0:0:
164,261,197665,1,0,1:0:0:0:
42,227,197786,1,0,3:0:0:0:
77,311,197907,5,8,0:0:0:0:
92,314,197988,1,8,0:0:0:0:
96,299,198068,1,8,0:0:0:0:
81,295,198149,1,4,1:2:0:0:
42,227,198270,5,0,0:0:0:0:
154,110,198391,1,8,0:0:0:0:
61,149,198512,1,0,0:0:0:0:
164,261,198633,1,2,1:2:0:0:
133,188,198754,5,0,3:0:0:0:
228,148,198875,2,0,B|241:95|241:95|211:50,1,107.999996704102,8|0,0:0|0:0,0:0:0:0:
271,2,199117,5,2,1:2:0:0:
417,45,199238,1,0,0:0:0:0:
374,191,199359,1,8,0:0:0:0:
336,46,199480,1,2,1:2:0:0:
377,113,199600,5,0,3:0:0:0:
496,46,199721,1,0,3:0:0:0:
446,225,199842,6,0,B|416:270|416:270|429:323,1,107.999996704102,8|0,0:0|0:0,0:0:0:0:
374,191,200084,2,0,P|273:210|257:312,1,215.999993408203,4|8,1:2|0:0,0:0:0:0:
319,358,200447,1,0,0:0:0:0:
210,162,200568,6,0,P|311:181|327:283,1,215.999993408203,2|8,1:2|0:0,0:0:0:0:
255,308,200931,1,0,0:0:0:0:
134,214,201052,6,0,P|131:160|135:106,1,107.999996704102,2|0,1:2|0:0,0:0:0:0:
55,204,201294,2,0,P|57:257|53:311,1,107.999996704102,8|0,0:0|0:0,0:0:0:0:
56,126,201536,5,2,1:2:0:0:
61,82,201617,1,0,3:0:0:0:
87,45,201697,1,0,3:0:0:0:
130,30,201778,1,8,0:0:0:0:
200,63,201899,1,8,0:0:0:0:
272,34,202020,6,0,P|321:31|369:19,1,99.0000030212403,12|2,3:2|0:0,0:0:0:0:
444,41,202262,1,0,3:0:0:0:
445,120,202383,2,0,P|395:117|347:105,1,99.0000030212403,12|2,3:2|0:0,0:0:0:0:
273,127,202625,1,0,3:0:0:0:
272,206,202746,2,0,P|321:203|369:191,1,99.0000030212403,12|2,3:2|0:0,0:0:0:0:
444,213,202988,1,0,3:0:0:0:
445,292,203109,2,0,P|395:289|347:277,1,99.0000030212403,12|2,3:2|0:0,0:0:0:0:
273,299,203351,1,0,3:0:0:0:
272,378,203471,5,12,3:2:0:0:
272,378,203592,1,0,3:0:0:0:
203,334,203713,1,12,3:2:0:0:
203,334,203834,1,0,3:0:0:0:
125,353,203955,6,0,P|123:303|125:254,1,99.0000030212403,12|2,3:2|0:0,0:0:0:0:
44,305,204197,1,0,3:0:0:0:
39,226,204318,2,0,P|40:176|38:127,1,99.0000030212403,12|2,3:2|0:0,0:0:0:0:
120,177,204560,1,0,3:0:0:0:
125,98,204681,2,0,P|123:48|125:0,1,99.0000030212403,12|2,3:2|0:0,0:0:0:0:
44,49,204923,1,0,3:0:0:0:
202,48,205044,2,0,P|251:46|300:48,1,99.0000030212403,12|2,3:2|0:0,0:0:0:0:
368,10,205286,1,0,3:0:0:0:
443,44,205407,5,12,3:2:0:0:
443,44,205528,1,0,3:0:0:0:
445,125,205649,1,12,3:2:0:0:
445,125,205770,1,0,3:0:0:0:
386,175,205891,6,0,P|387:224|385:273,1,99.0000030212403,12|2,3:2|0:0,0:0:0:0:
459,299,206133,1,0,3:0:0:0:
399,351,206254,2,0,P|349:348|300:350,1,99.0000030212403,12|2,3:2|0:0,0:0:0:0:
306,271,206496,1,0,3:0:0:0:
136,304,206617,2,0,P|185:306|234:304,1,99.0000030212403,12|2,3:2|0:0,0:0:0:0:
149,226,206859,1,0,3:0:0:0:
73,253,206980,2,0,P|71:203|73:154,1,99.0000030212403,12|2,3:2|0:0,0:0:0:0:
20,97,207221,1,0,3:0:0:0:
100,82,207342,5,12,3:2:0:0:
100,82,207463,1,0,0:0:0:0:
149,20,207584,1,12,3:2:0:0:
149,20,207705,1,0,0:0:0:0:
228,10,207826,6,0,P|275:24|323:34,1,99.0000030212403,12|2,3:2|0:0,0:0:0:0:
401,45,208068,1,0,3:0:0:0:
353,107,208189,2,0,P|305:121|257:131,1,99.0000030212403,12|2,3:2|0:0,0:0:0:0:
225,203,208431,1,0,3:0:0:0:
290,300,208552,2,0,P|294:251|304:203,1,99.0000030212403,12|2,3:2|0:0,0:0:0:0:
381,181,208794,5,0,3:0:0:0:
429,178,208874,1,8,3:2:0:0:
473,200,208955,1,8,3:2:0:0:
499,242,209036,1,8,3:2:0:0:
465,277,209116,1,8,3:2:0:0:
454,325,209197,1,8,3:2:0:0:
469,371,209277,1,0,3:0:0:0:
469,371,209762,5,4,3:2:0:0:
392,369,209883,1,0,0:0:0:0:
392,369,210004,1,10,0:0:0:0:
384,290,210125,1,0,3:0:0:0:
345,219,210246,5,2,0:0:0:0:
269,238,210367,1,0,3:0:0:0:
288,314,210488,1,10,3:2:0:0:
364,294,210609,1,0,3:0:0:0:
290,162,210730,6,0,B|281:113|281:113|305:70,1,99.0000030212403,2|0,0:0|3:0,0:0:0:0:
255,11,210971,1,8,0:0:0:0:
182,40,211092,2,0,B|206:82|206:82|197:131,1,99.0000030212403,2|0,0:0|3:0,0:0:0:0:
128,168,211334,1,0,3:0:0:0:
72,292,211455,2,0,B|47:249|47:249|56:200,1,99.0000030212403,10|0,0:0|0:0,0:0:0:0:
128,168,211697,5,6,3:2:0:0:
199,212,211818,1,0,0:0:0:0:
199,212,211939,1,10,0:0:0:0:
276,199,212060,1,0,3:0:0:0:
353,241,212181,5,2,0:0:0:0:
332,317,212302,1,0,3:0:0:0:
256,296,212423,1,10,0:0:0:0:
277,220,212544,1,0,3:0:0:0:
409,298,212665,6,0,L|506:279,1,99.0000030212403,2|0,0:0|3:0,0:0:0:0:
512,201,212907,1,8,0:0:0:0:
421,80,213028,2,0,L|324:61,1,99.0000030212403,2|0,3:2|0:0,0:0:0:0:
273,121,213270,1,0,3:0:0:0:
452,151,213391,5,10,0:0:0:0:
487,124,213471,1,8,0:0:0:0:
501,82,213552,1,8,0:0:0:0:
487,39,213632,1,6,3:2:0:0:
420,3,213754,1,0,0:0:0:0:
421,80,213875,1,10,0:0:0:0:
273,121,213996,1,0,3:0:0:0:
325,61,214117,5,2,0:0:0:0:
205,20,214238,1,0,3:0:0:0:
198,145,214359,1,10,0:0:0:0:
215,36,214480,1,0,3:0:0:0:
115,138,214600,6,0,P|125:187|129:235,1,99.0000030212403,2|0,0:0|3:0,0:0:0:0:
75,292,214842,1,8,0:0:0:0:
212,222,214963,2,0,P|202:271|197:319,1,99.0000030212403,2|0,0:0|3:0,0:0:0:0:
259,366,215205,1,0,3:0:0:0:
320,316,215326,2,0,P|369:321|417:331,1,99.0000030212403,10|8,0:0|0:0,0:0:0:0:
480,286,215568,5,10,0:0:0:0:
499,210,215689,1,0,3:0:0:0:
473,137,215810,1,10,0:0:0:0:
414,86,215931,1,0,3:0:0:0:
393,11,216052,1,10,0:0:0:0:
394,89,216173,1,0,3:0:0:0:
345,150,216294,1,10,0:0:0:0:
270,174,216415,1,0,3:0:0:0:
224,237,216536,5,0,3:0:0:0:
186,205,216616,1,8,3:2:0:0:
139,191,216697,1,8,3:2:0:0:
90,197,216777,1,8,3:2:0:0:
48,222,216858,1,8,3:2:0:0:
19,261,216939,1,8,3:2:0:0:
9,309,217019,5,8,3:2:0:0:
62,250,217141,1,8,3:2:0:0:
65,170,217262,1,8,3:2:0:0:
82,92,217383,1,8,3:2:0:0:
140,38,217504,6,0,P|162:41|185:39,3,45,0|0|0|0,3:0|0:0|0:0|0:0,0:0:0:0:
249,81,218230,6,0,P|271:79|293:82,3,45,0|0|0|0,0:0|0:0|0:0|0:0,0:0:0:0:
358,38,218955,5,0,0:0:0:0:
358,38,219197,2,0,P|380:40|402:37,1,45,0|0,0:0|0:0,0:0:0:0:
464,82,219439,6,0,L|456:135,3,45,2|2|2|2,0:0|0:0|0:0|0:0,0:0:0:0:
377,118,220165,6,0,L|385:171,3,45,2|2|2|2,0:0|0:0|0:0|0:0,0:0:0:0:
463,162,220891,6,0,L|455:215,3,45,2|2|2|2,0:0|0:0|0:0|0:0,0:0:0:0:
