osu file format v14

[General]
AudioFilename: audio.mp3
AudioLeadIn: 0
PreviewTime: 44909
Countdown: 0
SampleSet: Soft
StackLeniency: 0.7
Mode: 0
LetterboxInBreaks: 0
WidescreenStoryboard: 1

[Editor]
DistanceSpacing: 1.3
BeatDivisor: 4
GridSize: 4
TimelineZoom: 1

[Metadata]
Title:Atashi ga Tonari ni Iru Uchi ni (TV Size)
TitleUnicode:あたしが隣にいるうちに (TV Size)
Artist:Fujikawa Chiai
ArtistUnicode:藤川千愛
Creator:KwAIMSuckASFuk
Version:Normal
Source:盾の勇者の成り上がり
Tags:AIR raphtalia The Rising of the Shield Hero Japanese Anime Tate no Yuusha no Nariagari ed ending
BeatmapID:2006176
BeatmapSetID:958066

[Difficulty]
HPDrainRate:3
CircleSize:3.5
OverallDifficulty:3
ApproachRate:5
SliderMultiplier:1.4
SliderTickRate:1

[Events]
//Background and Video events
0,0,"bg.jpg",0,0
Video,405,"video.mp4"
//Break Periods
//Storyboard Layer 0 (Background)
//Storyboard Layer 1 (Fail)
//Storyboard Layer 2 (Pass)
//Storyboard Layer 3 (Foreground)
//Storyboard Sound Samples

[TimingPoints]
-1573,659.340659340659,4,2,1,45,1,0
45899,-100,4,2,2,65,0,1
85459,672.268907563025,4,2,2,65,1,0
85459,-100,4,2,2,65,0,0
85788,-100,4,2,2,35,0,0
87980,-100,4,2,2,15,0,0

[Colours]
Combo1 : 175,234,0
Combo2 : 202,61,0
Combo3 : 255,156,47

[HitObjects]
32,362,734,5,2,0:2:0:0:
113,307,1064,2,0,P|161:304|205:311,1,70,6|2,3:2|0:2,0:0:0:0:
228,303,1558,2,0,P|253:268|248:226,1,70,2|2,0:2|0:2,0:0:0:0:
227,205,2053,1,2,3:2:0:0:
169,134,2383,2,0,L|172:44,2,70,0|0|0,3:2|0:0|3:2,0:0:0:0:
256,108,3372,5,2,0:2:0:0:
343,81,3701,2,0,P|396:76|433:80,1,70,6|2,3:2|0:2,0:0:0:0:
450,101,4196,2,0,L|444:191,1,70,2|2,0:2|0:2,0:0:0:0:
440,216,4690,1,2,3:2:0:0:
421,304,5020,2,0,L|430:399,2,70,0|0|0,3:2|0:0|3:2,0:0:0:0:
332,325,6009,5,2,0:2:0:0:
271,257,6339,2,0,P|241:248|194:269,1,70,6|2,3:2|0:2,0:0:0:0:
180,297,6833,2,0,P|143:310|103:292,1,70,2|2,0:2|0:2,0:0:0:0:
73,281,7328,1,2,3:2:0:0:
20,206,7657,1,0,3:2:0:0:
20,115,7987,6,0,L|29:25,2,70,2|2|2,0:2|3:2|0:2,0:0:0:0:
108,95,8976,1,4,3:2:0:0:
182,146,9306,2,0,L|187:236,2,70,2|2|2,0:2|3:2|3:2,0:0:0:0:
273,143,10295,1,0,3:2:0:0:
345,198,10624,2,0,P|361:167|363:131,1,70,0|0,0:0|3:2,0:0:0:0:
312,56,11284,5,2,0:2:0:0:
401,38,11613,2,0,L|487:46,1,70,6|2,3:2|0:2,0:0:0:0:
500,78,12108,2,0,P|496:122|478:155,1,70,2|2,0:2|0:2,0:0:0:0:
458,182,12602,1,2,3:2:0:0:
496,264,12932,1,0,3:2:0:0:
426,322,13262,6,0,L|341:319,1,70,2|2,0:2|3:2,0:0:0:0:
305,243,13921,1,2,0:2:0:0:
218,269,14251,2,0,P|205:308|215:349,1,70,6|2,3:2|0:2,0:0:0:0:
127,375,14910,1,6,3:2:0:0:
41,343,15240,2,0,P|36:293|16:259,1,70,2|4,3:2|3:2,0:0:0:0:
5,187,15899,2,0,P|-6:143|3:100,1,70,2|0,0:2|3:2,0:0:0:0:
19,30,16558,5,2,0:2:0:0:
109,34,16888,2,0,L|201:39,1,70,6|2,3:2|0:2,0:0:0:0:
258,82,17547,2,0,L|357:75,1,70,4|2,3:2|0:2,0:0:0:0:
406,30,18207,2,0,P|420:70|405:114,1,70,4|2,3:2|0:2,0:0:0:0:
352,162,18866,2,0,P|343:211|360:245,1,70,6|2,3:2|0:2,0:0:0:0:
400,304,19525,1,4,3:2:0:0:
120,339,20514,6,0,P|67:327|35:335,2,70,2|6|2,3:2|3:2|0:2,0:0:0:0:
208,360,21503,2,0,L|218:275,1,70,2|2,3:2|3:2,0:0:0:0:
206,199,22163,2,0,P|158:164|91:181,2,105,6|2|2,3:2|0:2|3:2,0:0:0:0:
368,116,23811,2,0,P|420:114|458:133,1,70,2|2,0:2|0:2,0:0:0:0:
490,192,24470,1,2,0:2:0:0:
447,272,24800,2,0,P|385:269|353:313,2,105,6|2|2,3:2|0:2|0:2,0:0:0:0:
184,345,26778,6,0,L|98:337,1,70,2|0,0:2|0:0,0:0:0:0:
23,347,27437,2,0,L|18:264,1,70,6|2,3:2|0:2,0:0:0:0:
43,238,27932,2,0,L|45:154,1,70,2|0,0:2|0:0,0:0:0:0:
29,124,28426,1,2,0:2:0:0:
99,67,28756,2,0,P|139:54|174:70,1,70,4|2,3:2|0:2,0:0:0:0:
243,107,29416,2,0,P|281:116|323:96,1,70,4|2,3:2|0:2,0:0:0:0:
391,65,30075,2,0,B|415:111|387:159|387:159|356:204|395:269,1,210,4|0,3:2|3:2,0:0:0:0:
458,326,31394,1,0,3:2:0:0:
371,353,31723,6,0,L|282:349,1,70,2|2,0:2|3:2,0:0:0:0:
227,295,32383,1,2,0:2:0:0:
151,244,32712,2,0,P|134:290|162:353,2,105,6|2|2,3:2|0:2|0:2,0:0:0:0:
306,150,34361,2,0,L|299:67,1,70,2|2,0:2|3:2,0:0:0:0:
231,20,35020,1,2,0:2:0:0:
162,80,35350,2,0,P|105:89|47:74,2,105,6|2|2,3:2|0:2|0:2,0:0:0:0:
470,276,37657,5,2,0:2:0:0:
419,200,37987,2,0,L|325:206,1,70,6|2,3:2|0:2,0:0:0:0:
303,199,38481,2,0,L|223:194,1,70,2|2,0:2|0:2,0:0:0:0:
187,190,38976,1,2,0:2:0:0:
110,139,39306,2,0,P|94:180|98:224,1,70,4|2,3:2|0:2,0:0:0:0:
139,284,39965,2,0,P|147:327|136:366,1,70,6|0,3:2|0:0,0:0:0:0:
232,361,40624,6,0,L|401:352,1,140,0|0,3:2|3:2,0:0:0:0:
456,319,41613,2,0,P|479:263|436:194,1,140,4|0,3:2|3:2,0:0:0:0:
351,196,42602,1,0,3:2:0:0:
198,96,43262,6,0,B|151:113|110:112|110:112|150:147|155:195|155:195|116:246|115:303,1,280,6|4,0:2|3:2,0:0:0:0:
117,279,45899,6,0,P|163:274|205:294,1,70,6|2,3:2|3:2,0:0:0:0:
223,306,46394,2,0,P|259:313|312:300,1,70,2|0,0:0|0:0,0:0:0:0:
336,301,46888,1,2,3:2:0:0:
375,278,47053,2,0,P|422:270|475:298,1,105,10|0,0:2|3:2,0:0:0:0:
496,207,47877,2,0,P|490:158|483:125,1,70,10|2,0:2|3:2,0:0:0:0:
449,54,48536,6,0,P|407:44|371:62,1,70,2|0,3:2|3:2,0:0:0:0:
346,79,49031,2,0,P|305:93|266:81,1,70,2|0,0:0|0:0,0:0:0:0:
237,70,49525,1,2,3:2:0:0:
197,46,49690,2,0,P|136:36|83:61,1,105,10|0,0:2|3:2,0:0:0:0:
39,121,50514,1,10,0:0:0:0:
24,210,50844,1,2,3:2:0:0:
65,290,51174,6,0,L|147:297,1,70,4|2,3:2|3:2,0:0:0:0:
179,303,51668,1,2,0:0:0:0:
218,325,51833,2,0,L|305:313,1,70,8|2,0:2|3:2,0:0:0:0:
332,310,52328,1,10,0:2:0:0:
359,345,52492,2,0,L|459:359,1,70,0|2,3:2|3:2,0:0:0:0:
479,279,53152,2,0,P|484:236|473:195,1,70,10|2,0:2|3:2,0:0:0:0:
457,169,53646,1,2,3:2:0:0:
413,156,53811,6,0,B|362:148|316:197|316:197|276:154|218:157,1,210,0|0,3:2|3:2,0:0:0:0:
182,236,55130,1,0,3:2:0:0:
120,302,55459,2,0,P|94:257|96:215,1,70,2|10,3:2|0:2,0:0:0:0:
123,154,56119,1,10,0:2:0:0:
113,63,56448,6,0,B|41:58|41:58|15:23,2,105,6|2|2,3:2|0:0|3:2,0:0:0:0:
123,154,57767,1,0,3:2:0:0:
92,239,58097,2,0,P|85:279|94:322,1,70,2|10,3:2|0:2,0:0:0:0:
157,367,58756,1,2,3:2:0:0:
242,336,59086,6,0,B|315:314|315:314|361:331,2,105,2|2|2,3:2|0:0|3:2,0:0:0:0:
191,260,60405,1,0,3:2:0:0:
191,168,60734,2,0,L|194:85,1,70,2|10,3:2|0:2,0:0:0:0:
256,32,61394,1,10,0:2:0:0:
336,74,61723,6,0,P|381:67|437:81,1,70,4|2,3:2|3:2,0:0:0:0:
471,131,62383,2,0,P|478:181|473:213,1,70,8|2,0:2|3:2,0:0:0:0:
456,241,62877,1,10,0:2:0:0:
425,274,63042,2,0,P|382:282|338:274,1,70,0|2,3:2|3:2,0:0:0:0:
288,217,63701,2,0,P|278:174|281:131,1,70,8|2,0:2|3:2,0:0:0:0:
212,84,64361,5,0,3:2:0:0:
121,72,64690,1,8,0:2:0:0:
53,132,65020,1,8,0:2:0:0:
43,222,65350,2,0,L|49:309,1,70,0|0,3:2|3:2,0:0:0:0:
105,362,66009,1,2,3:2:0:0:
187,322,66339,2,0,P|221:312|271:327,1,70,2|2,3:2|3:2,0:0:0:0:
337,354,66998,6,0,L|429:346,1,70,6|2,3:2|3:2,0:0:0:0:
451,340,67492,2,0,L|463:257,1,70,2|0,0:0|0:0,0:0:0:0:
467,225,67987,1,2,3:2:0:0:
467,179,68152,2,0,P|417:155|356:190,1,105,10|0,0:2|3:2,0:0:0:0:
304,230,68976,1,10,0:2:0:0:
214,213,69306,1,2,3:2:0:0:
175,130,69635,6,0,L|166:39,1,70,2|2,3:2|3:2,0:0:0:0:
156,16,70130,2,0,L|75:39,1,70,2|2,0:0|0:0,0:0:0:0:
18,92,70789,2,0,P|19:153|68:196,1,105,10|0,0:2|3:2,0:0:0:0:
110,249,71613,2,0,L|105:342,1,70,10|2,0:2|3:2,0:0:0:0:
179,372,72273,6,0,L|261:362,1,70,4|2,3:2|3:2,0:0:0:0:
262,320,72767,1,2,0:0:0:0:
278,277,72932,2,0,L|353:292,1,70,8|2,0:2|3:2,0:0:0:0:
389,306,73426,1,10,0:2:0:0:
433,315,73591,2,0,L|524:296,1,70,0|2,3:2|3:2,0:0:0:0:
497,208,74251,2,0,P|495:162|479:120,1,70,10|2,0:2|3:2,0:0:0:0:
457,105,74745,1,10,0:0:0:0:
413,93,74910,6,0,B|368:74|344:98|344:98|308:127|259:93,1,140,0|8,3:2|0:2,0:0:0:0:
211,47,75899,2,0,B|165:30|165:30|61:52,1,140,0|2,3:2|3:2,0:0:0:0:
34,131,76888,2,0,L|41:214,1,70,10|10,0:2|0:2,0:0:0:0:
49,245,77383,1,10,0:0:0:0:
68,286,77547,6,0,P|118:309|169:296,2,105,6|2|2,3:2|0:0|3:2,0:0:0:0:
127,216,78866,1,0,3:2:0:0:
194,154,79196,2,0,L|285:163,1,70,2|10,3:2|0:2,0:0:0:0:
355,179,79855,1,2,3:2:0:0:
444,197,80185,6,0,B|454:350|454:350|383:375,1,210,0|0,3:2|3:2,0:0:0:0:
319,327,81503,2,0,P|279:313|238:327,1,70,0|2,3:2|3:2,0:0:0:0:
167,349,82163,2,0,L|85:348,1,70,10|2,0:2|3:2,0:0:0:0:
32,284,82822,5,12,0:2:0:0:
74,106,83481,2,0,B|92:69|92:69|133:53,1,70,12|14,0:2|0:2,0:0:0:0:
206,84,84141,2,0,B|229:118|229:118|222:161,1,70,12|12,0:2|0:2,0:0:0:0:
162,213,84800,2,0,B|120:215|120:215|86:188,1,70,8|8,0:2|0:2,0:0:0:0:
74,106,85459,1,4,3:2:0:0:
256,192,85795,12,0,87980,0:2:0:0:
