osu file format v14

[General]
AudioFilename: audio.mp3
AudioLeadIn: 0
PreviewTime: 44909
Countdown: 0
SampleSet: Soft
StackLeniency: 0.7
Mode: 0
LetterboxInBreaks: 0
WidescreenStoryboard: 0

[Editor]
DistanceSpacing: 0.1
BeatDivisor: 4
GridSize: 32
TimelineZoom: 1.5

[Metadata]
Title:Atashi ga Tonari ni Iru Uchi ni (TV Size)
TitleUnicode:あたしが隣にいるうちに (TV Size)
Artist:Fujikawa Chiai
ArtistUnicode:藤川千愛
Creator:KwAIMSuckASFuk
Version:AIR's Hard
Source:盾の勇者の成り上がり
Tags:AIR raphtalia The Rising of the Shield Hero Japanese Anime Tate no Yuusha no Nariagari ed ending
BeatmapID:2008120
BeatmapSetID:958066

[Difficulty]
HPDrainRate:4
CircleSize:4
OverallDifficulty:5.5
ApproachRate:7
SliderMultiplier:2
SliderTickRate:1

[Events]
//Background and Video events
0,0,"bg.jpg",0,0
Video,405,"video.mp4"
//Break Periods
//Storyboard Layer 0 (Background)
//Storyboard Layer 1 (Fail)
//Storyboard Layer 2 (Pass)
//Storyboard Layer 3 (Foreground)
//Storyboard Sound Samples

[TimingPoints]
-1573,659.340659340659,4,2,1,45,1,0
734,-125,4,2,1,45,0,0
45899,-83.3333333333333,4,2,2,65,0,1
85459,672.268907563025,4,2,1,35,1,0
85459,-125,4,2,1,35,0,0
86777,-125,4,2,1,35,0,0
87272,-125,4,2,1,25,0,0
87931,-166.666666666667,4,2,1,25,0,0
88096,-166.666666666667,4,2,1,15,0,0
88591,-166.666666666667,4,2,1,5,0,0

[Colours]
Combo1 : 175,234,0
Combo2 : 202,61,0
Combo3 : 255,156,47

[HitObjects]
83,268,734,5,2,0:2:0:0:
83,268,1064,2,0,P|95:214|81:181,1,80,6|2,3:2|0:2,0:0:0:0:
62,160,1558,1,2,0:2:0:0:
176,122,1888,1,2,0:2:0:0:
211,122,2053,2,0,L|306:124,1,80,2|0,3:2|3:2,0:0:0:0:
286,262,2712,1,0,0:0:0:0:
434,257,3042,1,0,3:2:0:0:
368,182,3372,2,0,L|366:230,1,40,2|0,0:2|0:0,0:0:0:0:
434,257,3701,6,0,L|431:348,1,80,6|2,3:2|0:2,0:0:0:0:
430,376,4196,1,2,0:2:0:0:
279,347,4525,1,2,0:2:0:0:
240,335,4690,2,0,L|150:344,1,80,2|0,3:2|3:2,0:0:0:0:
246,209,5350,2,0,L|166:201,1,80,0|0,0:0|3:2,0:0:0:0:
10,245,6009,2,0,L|13:294,1,40,2|2,0:2|0:2,0:0:0:0:
66,302,6339,6,0,L|81:214,1,80,6|2,3:2|0:2,0:0:0:0:
86,183,6833,1,2,0:2:0:0:
0,71,7163,1,2,0:2:0:0:
39,67,7328,2,0,L|136:60,1,80,2|0,3:2|3:2,0:0:0:0:
253,0,7987,1,2,0:2:0:0:
348,76,8317,2,0,P|370:57|370:95,1,80,2|2,3:2|0:2,0:0:0:0:
253,116,8976,5,4,3:2:0:0:
348,76,9306,2,0,L|363:164,1,80,2|2,0:2|3:2,0:0:0:0:
253,116,9965,2,0,L|286:286,1,160,2|0,3:2|0:0,0:0:0:0:
364,214,10954,1,0,3:2:0:0:
375,310,11284,2,0,L|365:355,1,40,2|2,0:2|0:2,0:0:0:0:
283,273,11613,6,0,L|191:275,1,80,6|2,3:2|0:2,0:0:0:0:
162,274,12108,1,2,0:2:0:0:
50,184,12437,1,2,0:2:0:0:
59,145,12602,2,0,P|63:98|24:77,2,80,2|0|2,3:2|3:2|0:2,0:0:0:0:
205,141,13591,2,0,P|194:104|220:76,1,80,2|2,3:2|0:2,0:0:0:0:
260,80,14086,2,0,L|275:129,1,40,2|6,0:2|3:2,0:0:0:0:
211,7,14580,6,0,L|124:-1,1,80,2|6,0:2|3:2,0:0:0:0:
260,80,15240,2,0,L|386:64,1,120,2|2,3:2|0:2,0:0:0:0:
449,105,15899,2,0,P|468:121|495:81,1,80,2|0,0:2|0:0,0:0:0:0:
315,180,16558,2,0,P|296:196|279:193,1,40,2|2,0:2|0:2,0:0:0:0:
242,189,16888,6,0,L|233:285,1,80,6|2,3:2|0:2,0:0:0:0:
230,308,17383,1,2,0:2:0:0:
353,383,17877,1,2,0:2:0:0:
390,369,18042,2,0,P|415:341|443:257,1,120,2|2,0:2|0:2,0:0:0:0:
315,180,18866,2,0,L|329:267,1,80,6|2,3:2|0:2,0:0:0:0:
367,258,19361,2,0,L|376:215,1,40,2|4,0:2|3:2,0:0:0:0:
101,301,20185,5,0,3:2:0:0:
240,265,20514,1,2,3:2:0:0:
131,224,20844,2,0,L|77:219,1,40,6|0,3:2|0:0,0:0:0:0:
42,201,21174,2,0,L|-12:196,1,40,2|0,0:2|0:0,0:0:0:0:
42,125,21503,2,0,L|81:128,1,40,2|0,3:2|0:0,0:0:0:0:
132,126,21833,2,0,L|171:129,1,40,2|0,3:2|0:0,0:0:0:0:
228,71,22163,6,0,L|348:55,1,120,6|2,3:2|0:2,0:0:0:0:
229,245,23152,2,0,L|349:261,1,120,2|0,3:2|0:0,0:0:0:0:
387,265,23811,1,2,0:2:0:0:
492,206,24141,2,0,L|499:150,1,40,2|0,0:2|0:0,0:0:0:0:
505,126,24470,2,0,L|457:135,1,40,2|0,0:2|0:0,0:0:0:0:
426,139,24800,6,0,L|306:129,1,120,6|2,3:2|0:2,0:0:0:0:
160,170,25789,2,0,L|40:160,1,120,2|0,0:2|0:0,0:0:0:0:
0,157,26448,1,0,0:0:0:0:
0,297,26778,2,0,L|45:279,1,40,2|2,0:2|0:2,0:0:0:0:
74,268,27108,2,0,L|112:309,1,40,0|2,0:0|0:2,0:0:0:0:
133,321,27437,6,0,L|222:321,1,80,6|2,3:2|0:2,0:0:0:0:
253,321,27932,1,2,0:2:0:0:
414,379,28426,1,2,0:2:0:0:
453,373,28591,2,0,L|465:238,1,120,2|2,0:2|0:2,0:0:0:0:
468,213,29251,2,0,L|346:206,1,120,2|2,0:2|0:2,0:0:0:0:
308,206,29910,2,0,L|309:251,1,40,2|4,0:2|3:2,0:0:0:0:
382,21,30734,5,0,3:2:0:0:
500,14,31064,1,0,3:2:0:0:
424,90,31394,2,0,P|377:102|336:86,1,80,0|2,3:2|0:2,0:0:0:0:
309,76,31888,2,0,P|284:60|264:57,1,40,2|2,0:2|3:2,0:0:0:0:
159,83,32383,2,0,P|139:94|115:80,1,40,2|2,0:2|0:2,0:0:0:0:
86,73,32712,6,0,B|53:42|18:66|18:66|28:115,1,120,6|2,3:2|0:2,0:0:0:0:
159,188,33701,2,0,B|191:218|226:194|226:194|216:145,1,120,2|0,0:2|0:0,0:0:0:0:
253,132,34361,2,0,L|306:137,1,40,2|2,0:2|0:2,0:0:0:0:
328,154,34690,2,0,L|381:159,1,40,2|2,3:2|0:2,0:0:0:0:
410,231,35020,2,0,L|357:236,1,40,2|0,0:2|0:0,0:0:0:0:
330,239,35350,6,0,L|342:369,1,120,6|2,3:2|0:2,0:0:0:0:
170,358,36339,2,0,L|182:239,1,120,2|0,0:2|0:0,0:0:0:0:
142,231,36998,1,0,3:2:0:0:
42,346,37328,1,0,3:2:0:0:
8,219,37657,2,0,L|58:224,1,40,2|2,0:2|0:2,0:0:0:0:
142,231,37987,6,0,L|150:146,1,80,6|2,3:2|0:2,0:0:0:0:
152,111,38481,1,2,0:2:0:0:
47,24,38811,2,0,L|92:22,1,40,2|2,0:2|0:2,0:0:0:0:
139,22,39141,2,0,P|175:17|233:84,1,120,2|2,0:2|0:2,0:0:0:0:
256,202,39965,2,0,P|245:233|245:248,1,40,6|2,3:2|0:2,0:0:0:0:
319,359,40459,2,0,L|360:363,1,40,6|0,0:2|3:2,0:0:0:0:
398,367,40789,6,0,P|383:302|410:247,1,120,2|0,0:2|3:2,0:0:0:0:
502,179,41613,2,0,P|517:114|490:59,1,120,4|0,3:2|0:0,0:0:0:0:
461,47,42273,1,0,3:2:0:0:
407,167,42602,1,0,3:2:0:0:
255,141,42932,2,0,L|255:184,1,40,2|0,0:2|0:0,0:0:0:0:
252,258,43262,6,0,B|343:171|145:144|281:46,1,240,6|0,0:2|0:0,0:0:0:0:
333,121,44580,5,4,3:2:0:0:
255,141,44910,1,2,0:2:0:0:
177,163,45240,1,2,0:2:0:0:
95,183,45569,2,0,L|52:173,1,40,2|2,0:2|0:2,0:0:0:0:
8,106,45899,6,0,P|15:58|75:60,1,119.999996337891,6|2,3:2|3:2,0:0:0:0:
7,231,46558,2,0,P|14:279|74:277,1,119.999996337891,8|2,0:2|3:2,0:0:0:0:
95,183,47053,1,10,0:2:0:0:
168,250,47218,2,0,L|232:239,2,59.9999981689454,0|8|0,3:2|0:2|3:2,0:0:0:0:
314,360,47877,2,0,L|443:337,1,119.999996337891,10|2,0:2|3:2,0:0:0:0:
488,329,48372,2,0,L|515:398,1,59.9999981689454,0|2,0:0|3:2,0:0:0:0:
415,225,48866,5,0,3:2:0:0:
512,96,49196,1,10,0:2:0:0:
415,225,49525,2,0,L|347:220,1,59.9999981689454,2|10,3:2|0:2,0:0:0:0:
298,154,49855,1,0,3:2:0:0:
360,96,50020,2,0,B|430:91,1,59.9999981689454,8|0,0:2|3:2,0:0:0:0:
239,58,50514,2,0,L|108:47,1,119.999996337891,10|2,0:2|3:2,0:0:0:0:
38,4,51009,1,2,3:2:0:0:
29,99,51174,6,0,P|12:153|48:219,1,119.999996337891,4|2,3:2|3:2,0:0:0:0:
165,141,51833,1,8,0:2:0:0:
161,280,52163,2,0,P|175:318|179:347,1,59.9999981689454,2|10,3:2|0:2,0:0:0:0:
106,380,52492,1,0,3:2:0:0:
35,340,52657,2,0,P|36:304|46:267,1,59.9999981689454,8|2,0:2|3:2,0:0:0:0:
177,190,53152,2,0,L|307:183,1,119.999996337891,10|2,0:2|3:2,0:0:0:0:
338,258,53646,6,0,P|317:289|299:278,2,59.9999981689454,2|0|0,3:2|3:2|0:0,0:0:0:0:
265,359,54141,2,0,L|326:372,1,59.9999981689454,0|0,3:2|0:0,0:0:0:0:
414,378,54470,2,0,P|420:344|497:275,1,119.999996337891,8|0,0:2|3:2,0:0:0:0:
512,204,54965,1,8,0:2:0:0:
433,179,55130,2,0,L|364:182,2,59.9999981689454,0|8|2,3:2|0:2|3:2,0:0:0:0:
237,75,55789,1,10,0:2:0:0:
329,58,55954,2,0,L|333:29,2,29.9999990844727,8|8|10,0:2|0:2|0:2,0:0:0:0:
298,148,56284,1,8,0:2:0:0:
237,75,56448,6,0,L|107:91,1,119.999996337891,6|0,3:2|3:2,0:0:0:0:
235,220,57108,2,0,L|115:205,1,119.999996337891,8|2,0:2|3:2,0:0:0:0:
46,246,57602,1,8,0:2:0:0:
36,329,57767,2,0,P|65:330|92:316,2,59.9999981689454,0|8|2,3:2|0:2|3:2,0:0:0:0:
3,120,58426,2,0,P|30:97|103:133,1,119.999996337891,10|2,0:2|3:2,0:0:0:0:
42,14,59086,5,2,3:2:0:0:
197,90,59416,1,0,3:2:0:0:
225,12,59580,2,0,L|214:84,1,59.9999981689454,2|8,0:0|0:2,0:0:0:0:
429,13,60075,2,0,L|418:85,1,59.9999981689454,2|8,3:2|0:2,0:0:0:0:
328,72,60405,2,0,L|318:9,2,59.9999981689454,0|8|2,3:2|0:2|3:2,0:0:0:0:
247,183,61064,2,0,P|221:247|229:304,1,119.999996337891,10|10,0:2|0:2,0:0:0:0:
302,355,61558,1,10,0:2:0:0:
214,384,61723,6,0,L|88:376,1,119.999996337891,4|2,3:2|3:2,0:0:0:0:
63,363,62218,2,0,L|0:370,1,59.9999981689454,2|8,0:0|0:2,0:0:0:0:
4,200,62712,2,0,L|71:207,1,59.9999981689454,2|10,3:2|0:2,0:0:0:0:
131,146,63042,1,0,3:2:0:0:
49,107,63207,2,0,P|18:90|-3:103,2,59.9999981689454,8|2|2,0:2|3:2|0:0,0:0:0:0:
131,146,63701,2,0,P|164:164|244:111,1,119.999996337891,8|2,0:2|3:2,0:0:0:0:
297,69,64196,1,10,0:2:0:0:
214,49,64361,5,0,3:2:0:0:
292,225,64690,1,8,0:2:0:0:
408,82,65020,1,8,0:2:0:0:
234,134,65350,2,0,L|216:198,1,59.9999981689454,0|8,3:2|0:2,0:0:0:0:
143,178,65679,2,0,L|125:242,1,59.9999981689454,0|8,3:2|0:2,0:0:0:0:
51,224,66009,2,0,L|33:288,1,59.9999981689454,2|0,3:2|3:2,0:0:0:0:
107,327,66339,2,0,L|125:391,1,59.9999981689454,2|0,3:2|3:2,0:0:0:0:
224,338,66668,2,0,L|207:280,1,59.9999981689454,2|2,3:2|3:2,0:0:0:0:
319,300,66998,6,0,L|448:308,1,119.999996337891,6|2,3:2|3:2,0:0:0:0:
382,135,67657,2,0,L|262:142,1,119.999996337891,8|2,0:2|3:2,0:0:0:0:
195,81,68152,1,10,0:2:0:0:
283,49,68317,2,0,P|317:20|338:33,2,59.9999981689454,0|8|0,3:2|0:2|3:2,0:0:0:0:
132,201,68976,2,0,P|73:198|34:148,1,119.999996337891,10|2,0:2|3:2,0:0:0:0:
32,95,69470,2,0,L|106:104,1,59.9999981689454,0|2,0:0|3:2,0:0:0:0:
265,126,69965,5,2,3:2:0:0:
184,265,70295,1,8,0:2:0:0:
35,154,70624,2,0,L|95:166,1,59.9999981689454,0|10,3:2|0:2,0:0:0:0:
135,174,70954,2,0,L|199:166,2,59.9999981689454,0|8|0,3:2|0:2|3:2,0:0:0:0:
274,298,71613,2,0,L|401:282,1,119.999996337891,10|2,0:2|3:2,0:0:0:0:
455,348,72108,1,2,3:2:0:0:
486,261,72273,6,0,P|502:212|488:130,1,119.999996337891,0|2,3:2|3:2,0:0:0:0:
440,17,72932,1,8,0:2:0:0:
296,122,73262,2,0,P|287:157|302:177,1,59.9999981689454,2|10,3:2|0:2,0:0:0:0:
365,238,73591,1,0,3:2:0:0:
399,153,73756,2,0,L|388:93,1,59.9999981689454,8|2,0:2|3:2,0:0:0:0:
202,66,74251,2,0,L|190:189,1,119.999996337891,10|2,0:2|3:2,0:0:0:0:
109,187,74745,2,0,P|61:159|53:124,2,59.9999981689454,2|0|0,3:2|3:2|0:0,0:0:0:0:
109,187,75240,6,0,L|99:265,1,59.9999981689454,0|0,3:2|0:0,0:0:0:0:
96,331,75569,2,0,P|164:321|235:338,1,119.999996337891,8|0,0:2|3:2,0:0:0:0:
284,382,76064,1,8,0:2:0:0:
370,367,76229,2,0,P|410:352|454:358,2,59.9999981689454,0|8|2,3:2|0:2|3:2,0:0:0:0:
499,277,76888,1,10,0:2:0:0:
499,240,77053,1,10,0:2:0:0:
499,203,77218,1,10,0:2:0:0:
499,166,77383,1,10,0:2:0:0:
420,198,77547,6,0,P|384:213|301:115,1,179.999994506836,6|2,3:2|0:0,0:0:0:0:
312,93,78207,1,8,0:2:0:0:
507,78,78536,1,2,3:2:0:0:
499,166,78701,2,0,L|437:177,2,59.9999981689454,8|0|8,0:2|3:2|0:2,0:0:0:0:
507,78,79196,2,0,L|369:74,1,119.999996337891,2|10,3:2|0:2,0:0:0:0:
183,18,79855,2,0,P|212:33|218:77,1,59.9999981689454,2|0,3:2|3:2,0:0:0:0:
171,117,80185,6,0,P|123:126|120:58,1,119.999996337891,0|0,3:2|3:2,0:0:0:0:
261,167,80844,2,0,L|244:286,1,119.999996337891,8|0,0:2|3:2,0:0:0:0:
241,384,81339,1,8,0:2:0:0:
148,336,81503,2,0,L|76:343,1,59.9999981689454,0|8,3:2|0:2,0:0:0:0:
0,296,81833,1,2,3:2:0:0:
88,243,81998,2,0,L|127:251,2,29.9999990844727,8|8|10,0:2|0:2|0:2,0:0:0:0:
0,194,82328,1,0,3:0:0:0:
92,166,82492,2,0,L|190:160,1,89.9999972534181,2|0,3:2|0:0,0:0:0:0:
210,158,82822,6,0,B|237:221|314:216|361:139|283:63,1,239.999992675781,12|12,0:2|0:2,0:0:0:0:
276,69,83811,1,14,0:2:0:0:
264,70,84141,1,12,0:2:0:0:
252,71,84470,1,12,0:2:0:0:
215,75,84800,6,0,L|155:81,2,39.9999987792969,8|8|8,0:2|0:2|0:2,0:0:0:0:
150,80,85130,2,0,L|90:86,2,39.9999987792969,8|8|8,0:2|0:2|0:2,0:0:0:0:
84,87,85459,6,0,B|45:94|-55:38|8:-20|138:-4|87:78|-9:80|-3:147|48:213,1,320,4|2,3:2|0:2,0:0:0:0:
183,201,87139,1,2,0:2:0:0:
216,201,87307,2,0,B|235:201|251:209|251:209|268:200|292:200,1,80,2|2,0:2|0:2,0:0:0:0:
413,215,87980,6,0,B|457:190|443:125|384:142,1,119.999996337891,2|0,0:2|0:0,0:0:0:0:
