osu file format v14

[General]
AudioFilename: audio.ogg
AudioLeadIn: 0
PreviewTime: 44911
Countdown: 0
SampleSet: Soft
StackLeniency: 0.7
Mode: 3
LetterboxInBreaks: 0
SpecialStyle: 0
WidescreenStoryboard: 1

[Editor]
DistanceSpacing: 1
BeatDivisor: 4
GridSize: 32
TimelineZoom: 1.3

[Metadata]
Title:Atashi ga Tonari ni Iru Uchi ni (TV Size)
TitleUnicode:あたしが隣にいるうちに (TV Size)
Artist:Fujikawa Chiai
ArtistUnicode:藤川千愛
Creator:Kibitz
Version:Normal
Source:盾の勇者の成り上がり
Tags:Yuiazu- tate no yuusha no nariagari the rising of the shield hero tateyuusha season 1 tv-size ending theme ed anime japanese pop 岩谷尚文 iwatani naofumi ラフタリア raphtalia laika ライカ j-pop jpop 藤永龍太郎 fujinaga ryuutarou
BeatmapID:4194949
BeatmapSetID:2015350

[Difficulty]
HPDrainRate:7.5
CircleSize:4
OverallDifficulty:7.5
ApproachRate:5
SliderMultiplier:1.4
SliderTickRate:1

[Events]
//Background and Video events
0,0,"RaphtaliaMyWaifu.jpg",0,0
//Break Periods
//Storyboard Layer 0 (Background)
//Storyboard Layer 1 (Fail)
//Storyboard Layer 2 (Pass)
//Storyboard Layer 3 (Foreground)
//Storyboard Layer 4 (Overlay)
//Storyboard Sound Samples
Sample,1065,0,"B4_s.wav",50
Sample,1065,0,"E5_s.wav",50
Sample,2383,0,"E5_s.wav",50
Sample,3043,0,"E5_s.wav",50
Sample,3702,0,"B4_s.wav",50
Sample,3702,0,"E5_s.wav",50
Sample,3702,0,"G#4_s.wav",50
Sample,5021,0,"E5_s.wav",50
Sample,5680,0,"E5_s.wav",50
Sample,6339,0,"A4_s.wav",50
Sample,6339,0,"C#5_s.wav",50
Sample,8317,0,"C#5_s.wav",50
Sample,8317,0,"E5_s.wav",50
Sample,8977,0,"B4_s.wav",50
Sample,8977,0,"E5_s.wav",50
Sample,9636,0,"E5_s.wav",50
Sample,11614,0,"A4_s.wav",50
Sample,11614,0,"E5_s.wav",50
Sample,12933,0,"E5_s.wav",50
Sample,13592,0,"E5_s.wav",50
Sample,14251,0,"G#4.wav",50
Sample,14911,0,"G#4.wav",50
Sample,15570,0,"A4_s.wav",50
Sample,17548,0,"A4.wav",50
Sample,18207,0,"G#4_s.wav",50
Sample,18207,0,"B4_s.wav",50
Sample,18867,0,"G#4.wav",50
Sample,19526,0,"E4.wav",50
Sample,19526,0,"A4.wav",50
Sample,20515,0,"A4_s.wav",50
Sample,20845,0,"G#3_sl.wav",50
Sample,20845,0,"G#4_s.wav",50
Sample,21834,0,"E5_s.wav",50
Sample,23152,0,"E5.wav",50
Sample,24141,0,"A4_s.wav",50
Sample,24141,0,"E5_s.wav",50
Sample,25790,0,"E5.wav",50
Sample,26779,0,"E5_s.wav",50
Sample,28097,0,"G#5_s.wav",50
Sample,28757,0,"F4.wav",50
Sample,29416,0,"G#5_s.wav",50
Sample,30075,0,"F#4.wav",50
Sample,30075,0,"C#5.wav",50
Sample,30075,0,"A5.wav",50
Sample,32054,0,"E5_s.wav",50
Sample,33702,0,"D5.wav",50
Sample,34691,0,"A4_s.wav",50
Sample,34691,0,"D5_s.wav",50
Sample,36339,0,"E5.wav",50
Sample,39306,0,"D#4_s.wav",50
Sample,39966,0,"A4_s.wav",50
Sample,40625,0,"E4.wav",50
Sample,41614,0,"E5.wav",50
Sample,42603,0,"E5_s.wav",50
Sample,44581,0,"F5_s.wav",60

[TimingPoints]
1065,659.340659340659,4,2,1,25,1,0
22163,-100,4,2,1,30,0,0
45900,-100,4,2,1,50,0,1
85460,-100,4,2,1,40,0,0

[HitObjects]
64,192,1065,128,0,1559:0:0:0:50:A3_l.wav
448,192,1065,1,0,0:0:0:50:A4_s.wav
320,192,1559,128,0,2054:0:0:0:0:
192,192,2054,128,0,3043:0:0:0:50:A4.wav
448,192,2383,1,0,0:0:0:50:B4_s.wav
64,192,3043,1,0,0:0:0:50:B4_s.wav
320,192,3372,128,0,3702:0:0:0:50:A4_s.wav
448,192,3702,128,0,4196:0:0:0:50:G#3_l.wav
64,192,4196,128,0,4691:0:0:0:0:
320,192,4691,128,0,5680:0:0:0:50:G#4.wav
448,192,5021,1,0,0:0:0:50:B4_s.wav
192,192,5680,1,0,0:0:0:50:B4_s.wav
64,192,6010,128,0,6339:0:0:0:50:G#4_s.wav
192,192,6339,1,0,0:0:0:50:F#3_l.wav
448,192,6339,128,0,6834:0:0:0:50:F#4_s.wav
320,192,6834,128,0,7328:0:0:0:0:
192,192,7328,128,0,7988:0:0:0:50:F#4.wav
448,192,7658,1,0,0:0:0:0:
320,192,7988,128,0,8317:0:0:0:50:F#4.wav
192,192,8317,128,0,8647:0:0:0:50:A4_s.wav
64,192,8647,128,0,9306:0:0:0:50:F#4_s.wav
320,192,8977,1,0,0:0:0:50:E3_l.wav
448,192,8977,1,0,0:0:0:50:E4_l.wav
448,192,9306,128,0,9636:0:0:0:50:G#4_s.wav
320,192,9636,128,0,9966:0:0:0:50:B4_s.wav
192,192,9966,128,0,10625:0:0:0:50:G#4.wav
320,192,10295,1,0,0:0:0:0:
64,192,10625,1,0,0:0:0:50:G#4_s.wav
320,192,10955,1,0,0:0:0:50:B4_s.wav
448,192,10955,1,0,0:0:0:50:E5_s.wav
64,192,11284,1,0,0:0:0:50:G#4_s.wav
192,192,11449,1,0,0:0:0:0:
320,192,11614,128,0,12108:0:0:0:50:D3_l.wav
448,192,11614,1,0,0:0:0:50:D4_l.wav
192,192,12108,128,0,12603:0:0:0:0:
64,192,12603,128,0,13262:0:0:0:50:E4_s.wav
448,192,12933,1,0,0:0:0:50:A4_s.wav
320,192,13262,128,0,13592:0:0:0:50:E4_s.wav
448,192,13592,128,0,13922:0:0:0:50:A4_s.wav
192,192,13922,128,0,14251:0:0:0:50:E4_s.wav
64,192,14251,128,0,14911:0:0:0:50:C#4.wav
320,192,14251,1,0,0:0:0:50:E3.wav
448,192,14581,1,0,0:0:0:0:
192,192,14911,128,0,15570:0:0:0:50:F3.wav
320,192,14911,1,0,0:0:0:50:C#4.wav
64,192,15240,1,0,0:0:0:0:
320,192,15570,128,0,16229:0:0:0:50:F#3_s.wav
448,192,15570,1,0,0:0:0:50:C#4_s.wav
192,192,15900,1,0,0:0:0:50:F#3_s.wav
448,192,16229,1,0,0:0:0:50:C#4_s.wav
192,192,16559,128,0,16889:0:0:0:50:F#4_s.wav
64,192,16889,128,0,17383:0:0:0:50:B2_sl.wav
448,192,16889,1,0,0:0:0:50:B3_s.wav
320,192,17383,128,0,17878:0:0:0:0:
192,192,17548,1,0,0:0:0:50:F#4.wav
64,192,17878,128,0,18207:0:0:0:0:
192,192,18207,1,0,0:0:0:50:E3_sl.wav
448,192,18207,128,0,18537:0:0:0:50:E4_s.wav
320,192,18537,128,0,18867:0:0:0:50:E4.wav
192,192,18867,128,0,19196:0:0:0:50:B3.wav
64,192,19196,128,0,19526:0:0:0:50:E4_s.wav
320,192,19526,1,0,0:0:0:50:A2_sl.wav
448,192,19526,128,0,20185:0:0:0:50:A3.wav
192,192,20185,1,0,0:0:0:50:A3.wav
64,192,20515,128,0,20845:0:0:0:50:E4_s.wav
192,192,20845,128,0,21174:0:0:0:50:G#2_sl.wav
448,192,21174,128,0,21504:0:0:0:50:E4_s.wav
320,192,21504,128,0,21834:0:0:0:50:B4_s.wav
192,192,21834,128,0,22163:0:0:0:50:G#4_s.wav
64,192,22163,128,0,22658:0:0:0:50:D3.wav
448,192,22163,1,0,0:0:0:50:D4.wav
320,192,22658,128,0,23152:0:0:0:0:
192,192,23152,128,0,23482:0:0:0:50:F#4.wav
448,192,23152,1,0,0:0:0:50:A4.wav
64,192,23482,1,0,0:0:0:0:
448,192,23812,128,0,24141:0:0:0:50:D4_s.wav
192,192,24141,128,0,24471:0:0:0:50:F#4_s.wav
320,192,24471,128,0,24801:0:0:0:50:D4_s.wav
64,192,24801,128,0,25295:0:0:0:50:E3.wav
448,192,24801,1,0,0:0:0:50:E4.wav
192,192,25295,128,0,25790:0:0:0:0:
320,192,25790,1,0,0:0:0:50:G#4.wav
448,192,25790,128,0,26119:0:0:0:50:B4.wav
64,192,26119,1,0,0:0:0:0:
320,192,26449,1,0,0:0:0:50:E4_s.wav
64,192,26779,1,0,0:0:0:50:D5_s.wav
192,192,26944,1,0,0:0:0:0:
320,192,27108,1,0,0:0:0:50:A4_s.wav
448,192,27273,128,0,27768:0:0:0:0:
64,192,27438,1,0,0:0:0:50:C#3_s.wav
192,192,27438,1,0,0:0:0:50:C#4_s.wav
320,192,27768,1,0,0:0:0:50:C#5_s.wav
192,192,27933,128,0,28427:0:0:0:0:
448,192,28097,1,0,0:0:0:50:E5_s.wav
64,192,28427,1,0,0:0:0:50:C#5_s.wav
320,192,28592,128,0,29086:0:0:0:0:
192,192,28757,1,0,0:0:0:50:F3_s.wav
448,192,29086,1,0,0:0:0:50:C#5_s.wav
64,192,29251,128,0,29746:0:0:0:0:
320,192,29416,1,0,0:0:0:50:F5_s.wav
192,192,29746,1,0,0:0:0:50:C#5_s.wav
320,192,29911,128,0,30735:0:0:0:0:
64,192,30075,1,0,0:0:0:50:F#3_l.wav
192,192,30735,128,0,31394:0:0:0:50:F#4.wav
64,192,31394,128,0,31724:0:0:0:50:F#4.wav
448,192,31724,1,0,0:0:0:0:
192,192,31889,1,0,0:0:0:0:
448,192,32054,128,0,32383:0:0:0:50:C#5_s.wav
64,192,32383,1,0,0:0:0:50:F#4_s.wav
320,192,32548,1,0,0:0:0:0:
64,192,32713,128,0,33207:0:0:0:50:B2.wav
192,192,32713,1,0,0:0:0:50:B3.wav
192,192,33207,128,0,33702:0:0:0:0:
64,192,33702,1,0,0:0:0:50:F#4.wav
320,192,33702,128,0,34032:0:0:0:50:A4.wav
448,192,34032,1,0,0:0:0:0:
64,192,34361,1,0,0:0:0:50:B3_s.wav
192,192,34526,1,0,0:0:0:0:
320,192,34691,128,0,35021:0:0:0:50:F#4_s.wav
192,192,35021,128,0,35350:0:0:0:50:B3_s.wav
64,192,35350,1,0,0:0:0:50:C#3.wav
448,192,35350,128,0,35845:0:0:0:50:C#4.wav
320,192,35845,128,0,36339:0:0:0:0:
64,192,36339,128,0,36999:0:0:0:50:G#4.wav
192,192,36339,1,0,0:0:0:50:B4.wav
448,192,36999,1,0,0:0:0:50:C#4_s.wav
192,192,37328,1,0,0:0:0:50:B4_s.wav
320,192,37658,1,0,0:0:0:50:E5_s.wav
64,192,37823,1,0,0:0:0:0:
192,192,37988,1,0,0:0:0:50:D3_s.wav
448,192,37988,128,0,38482:0:0:0:50:D4_s.wav
64,192,38482,128,0,38977:0:0:0:0:
448,192,38977,1,0,0:0:0:50:D4_s.wav
320,192,39141,128,0,39636:0:0:0:0:
192,192,39306,1,0,0:0:0:50:D#3_s.wav
64,192,39636,128,0,39966:0:0:0:50:D#4_s.wav
192,192,39966,1,0,0:0:0:50:F#4_s.wav
448,192,40130,128,0,40460:0:0:0:0:
192,192,40460,128,0,40790:0:0:0:0:
320,192,40625,1,0,0:0:0:50:E3.wav
64,192,40790,128,0,42273:0:0:0:0:
320,192,41614,1,0,0:0:0:50:A4.wav
448,192,41614,1,0,0:0:0:50:B4.wav
192,192,42273,1,0,0:0:0:50:E4_s.wav
320,192,42603,1,0,0:0:0:50:A4_s.wav
448,192,42603,1,0,0:0:0:50:B4_s.wav
64,192,42933,128,0,43262:0:0:0:50:E4_s.wav
320,192,43262,1,0,0:0:0:50:C#3_sl.wav
448,192,43262,128,0,44581:0:0:0:50:C#4_sl.wav
64,192,43922,1,0,0:0:0:50:C#5.wav
192,192,44581,128,0,45900:0:0:0:50:C#3_sl.wav
320,192,44581,1,0,0:0:0:50:C#4_sl.wav
64,192,45900,1,2,0:0:0:0:
448,192,45900,1,4,0:0:0:0:
448,192,46229,1,2,0:0:0:0:
64,192,46559,1,8,0:0:0:0:
192,192,46559,1,0,0:0:0:0:
320,192,46889,1,2,0:0:0:0:
192,192,47054,1,8,0:0:0:0:
448,192,47218,1,2,0:0:0:0:
320,192,47383,1,8,0:0:0:0:
192,192,47548,1,2,0:0:0:0:
64,192,47878,1,8,0:0:0:0:
448,192,47878,1,0,0:0:0:0:
448,192,48207,128,2,48537:0:0:0:0:
64,192,48537,1,2,0:0:0:0:
320,192,48537,1,0,0:0:0:0:
64,192,48867,1,2,0:0:0:0:
320,192,49196,1,8,0:0:0:0:
448,192,49196,1,0,0:0:0:0:
192,192,49526,1,2,0:0:0:0:
320,192,49691,1,8,0:0:0:0:
64,192,49856,1,2,0:0:0:0:
192,192,50021,1,8,0:0:0:0:
320,192,50185,1,2,0:0:0:0:
64,192,50515,1,8,0:0:0:0:
448,192,50515,1,0,0:0:0:0:
64,192,50845,128,8,51174:0:0:0:0:
192,192,51174,1,2,0:0:0:0:
448,192,51174,1,4,0:0:0:0:
192,192,51504,1,2,0:0:0:0:
320,192,51834,1,8,0:0:0:0:
448,192,51834,1,0,0:0:0:0:
64,192,52163,1,2,0:0:0:0:
192,192,52328,1,8,0:0:0:0:
448,192,52493,1,2,0:0:0:0:
320,192,52658,1,8,0:0:0:0:
192,192,52823,1,2,0:0:0:0:
64,192,53152,1,8,0:0:0:0:
448,192,53152,1,0,0:0:0:0:
320,192,53482,1,2,0:0:0:0:
192,192,53812,1,2,0:0:0:0:
320,192,53812,128,0,54141:0:0:0:0:
448,192,54141,1,2,0:0:0:0:
64,192,54471,1,8,0:0:0:0:
192,192,54471,1,0,0:0:0:0:
448,192,54801,1,2,0:0:0:0:
320,192,54966,1,8,0:0:0:0:
64,192,55130,1,2,0:0:0:0:
192,192,55295,1,8,0:0:0:0:
320,192,55460,1,2,0:0:0:0:
64,192,55790,1,8,0:0:0:0:
192,192,55790,128,0,56119:0:0:0:0:
320,192,56119,128,8,56449:0:0:0:0:
448,192,56119,1,0,0:0:0:0:
64,192,56449,1,2,0:0:0:0:
192,192,56449,1,4,0:0:0:0:
64,192,56779,1,2,0:0:0:0:
192,192,57108,1,8,0:0:0:0:
448,192,57108,1,0,0:0:0:0:
320,192,57438,1,2,0:0:0:0:
192,192,57603,1,8,0:0:0:0:
448,192,57768,1,2,0:0:0:0:
64,192,57933,1,8,0:0:0:0:
320,192,58097,128,2,58427:0:0:0:0:
192,192,58427,128,8,58757:0:0:0:0:
448,192,58427,1,0,0:0:0:0:
64,192,58757,128,2,59086:0:0:0:0:
192,192,59086,1,2,0:0:0:0:
448,192,59086,1,0,0:0:0:0:
448,192,59416,1,2,0:0:0:0:
64,192,59746,1,8,0:0:0:0:
192,192,59746,1,0,0:0:0:0:
320,192,60075,1,2,0:0:0:0:
192,192,60240,1,8,0:0:0:0:
448,192,60405,1,2,0:0:0:0:
64,192,60570,1,8,0:0:0:0:
192,192,60735,128,2,61064:0:0:0:0:
64,192,61064,1,8,0:0:0:0:
320,192,61064,128,0,61394:0:0:0:0:
448,192,61394,128,8,61724:0:0:0:0:
192,192,61724,1,2,0:0:0:0:
320,192,61724,1,4,0:0:0:0:
320,192,62054,1,2,0:0:0:0:
64,192,62383,1,8,0:0:0:0:
448,192,62383,1,0,0:0:0:0:
192,192,62713,1,2,0:0:0:0:
320,192,62878,1,8,0:0:0:0:
64,192,63043,1,2,0:0:0:0:
192,192,63207,1,8,0:0:0:0:
320,192,63372,1,2,0:0:0:0:
192,192,63702,1,8,0:0:0:0:
448,192,63702,1,0,0:0:0:0:
320,192,64032,128,2,64361:0:0:0:0:
64,192,64361,1,2,0:0:0:0:
448,192,64361,128,0,64691:0:0:0:0:
64,192,64691,1,8,0:0:0:0:
192,192,64691,1,0,0:0:0:50:Splash.wav
320,192,65021,1,8,0:0:0:0:
448,192,65021,1,0,0:0:0:50:Splash.wav
64,192,65350,1,2,0:0:0:0:
192,192,65350,1,0,0:0:0:0:
448,192,65515,1,8,0:0:0:0:
320,192,65680,1,2,0:0:0:0:
64,192,65845,1,8,0:0:0:0:
192,192,66010,128,8,66339:0:0:0:0:
320,192,66339,128,0,66669:0:0:0:30:Tom1.wav
64,192,66669,1,0,0:0:0:35:Tom2.wav
192,192,66834,1,0,0:0:0:0:
320,192,66999,1,2,0:0:0:0:
448,192,66999,1,4,0:0:0:0:
64,192,67328,1,2,0:0:0:0:
320,192,67658,1,8,0:0:0:0:
448,192,67658,1,0,0:0:0:0:
192,192,67988,1,2,0:0:0:0:
320,192,68152,1,8,0:0:0:0:
64,192,68317,1,2,0:0:0:0:
192,192,68482,1,8,0:0:0:0:
320,192,68647,1,2,0:0:0:0:
64,192,68977,1,8,0:0:0:0:
448,192,68977,1,0,0:0:0:0:
64,192,69306,128,2,69636:0:0:0:0:
192,192,69636,1,2,0:0:0:0:
448,192,69636,1,0,0:0:0:0:
448,192,69966,1,2,0:0:0:0:
64,192,70295,1,8,0:0:0:0:
192,192,70295,1,0,0:0:0:0:
320,192,70625,1,2,0:0:0:0:
192,192,70790,1,8,0:0:0:0:
448,192,70955,1,2,0:0:0:0:
320,192,71119,1,8,0:0:0:0:
192,192,71284,1,2,0:0:0:0:
64,192,71614,1,8,0:0:0:0:
448,192,71614,1,0,0:0:0:0:
448,192,71944,128,8,72273:0:0:0:0:
64,192,72273,1,2,0:0:0:0:
320,192,72273,1,4,0:0:0:0:
320,192,72603,1,2,0:0:0:0:
64,192,72933,1,8,0:0:0:0:
192,192,72933,1,0,0:0:0:0:
448,192,73262,1,2,0:0:0:0:
320,192,73427,1,8,0:0:0:0:
64,192,73592,1,2,0:0:0:0:
192,192,73757,1,8,0:0:0:0:
320,192,73922,128,2,74251:0:0:0:0:
64,192,74251,1,8,0:0:0:0:
448,192,74251,128,0,74581:0:0:0:0:
192,192,74581,128,2,74911:0:0:0:0:
64,192,74911,1,2,0:0:0:0:
320,192,74911,1,0,0:0:0:0:
64,192,75240,1,2,0:0:0:0:
320,192,75570,1,8,0:0:0:0:
448,192,75570,1,0,0:0:0:0:
64,192,75900,1,2,0:0:0:0:
192,192,76064,1,8,0:0:0:0:
448,192,76229,1,2,0:0:0:0:
320,192,76394,1,8,0:0:0:0:
64,192,76559,128,2,76889:0:0:0:0:
192,192,76559,1,0,0:0:0:0:
448,192,76889,1,8,0:0:0:0:
192,192,77054,1,8,0:0:0:0:
320,192,77218,1,8,0:0:0:0:
64,192,77383,1,8,0:0:0:0:
320,192,77548,1,2,0:0:0:0:
448,192,77548,1,4,0:0:0:0:
448,192,77878,1,2,0:0:0:0:
64,192,78207,1,8,0:0:0:0:
320,192,78207,1,0,0:0:0:0:
192,192,78537,1,2,0:0:0:0:
320,192,78702,1,8,0:0:0:0:
64,192,78867,1,2,0:0:0:0:
448,192,79032,1,8,0:0:0:0:
192,192,79196,128,2,79526:0:0:0:0:
64,192,79526,1,8,0:0:0:0:
320,192,79526,128,0,79856:0:0:0:0:
448,192,79856,128,2,80185:0:0:0:0:
64,192,80185,1,2,0:0:0:0:
320,192,80185,1,0,0:0:0:0:
64,192,80515,1,2,0:0:0:0:
320,192,80845,1,8,0:0:0:0:
448,192,80845,1,0,0:0:0:0:
192,192,81174,1,2,0:0:0:0:
320,192,81339,1,8,0:0:0:0:
64,192,81504,1,2,0:0:0:0:
448,192,81669,1,8,0:0:0:0:
192,192,81834,128,2,82163:0:0:0:0:
64,192,82163,1,8,0:0:0:0:
320,192,82163,128,2,82493:0:0:0:0:
448,192,82493,128,0,82823:0:0:0:40:Tom2.wav
64,192,82823,128,8,83482:0:0:0:0:
192,192,82823,1,4,0:0:0:0:
320,192,83482,1,8,0:0:0:0:
448,192,83482,1,0,0:0:0:25:Tom3.wav
320,192,83812,1,8,0:0:0:0:
448,192,83812,1,0,0:0:0:30:Tom3.wav
64,192,84141,1,8,0:0:0:0:
192,192,84141,1,0,0:0:0:35:Tom3.wav
64,192,84471,1,8,0:0:0:0:
192,192,84471,1,0,0:0:0:40:Tom3.wav
448,192,84801,1,8,0:0:0:0:
320,192,84911,1,8,0:0:0:0:
64,192,85021,1,8,0:0:0:0:
192,192,85130,128,0,85460:0:0:0:30:Tom1.wav
320,192,85460,1,2,0:0:0:0:
448,192,85460,128,4,88097:0:0:0:0:
