osu file format v14

[General]
AudioFilename: audio.mp3
AudioLeadIn: 0
PreviewTime: 49423
Countdown: 0
SampleSet: None
StackLeniency: 0.7
Mode: 0
LetterboxInBreaks: 0
WidescreenStoryboard: 0

[Editor]
DistanceSpacing: 0.2
BeatDivisor: 4
GridSize: 4
TimelineZoom: 0.5999999

[Metadata]
Title:Best FriendS ft. GoldenWolf
TitleUnicode:Best FriendS ft. GoldenWolf
Artist:Fujijo Seitokai Shikkou-bu
ArtistUnicode:藤女生徒会執行部
Creator:Linada
Version:1 2
Source:LOVE LAB
Tags:goldenwolf woof gw tvsize 恋愛ラブラボ ending 千葉"naotyu-"直樹 numakura manami akasaki chinatsu minase inori sakura ayane taichi you 恋愛ラボ kurahashi riko maki natsuo tanahashi suzune enomoto yuiko mizushima sayori
BeatmapID:1552902
BeatmapSetID:735717

[Difficulty]
HPDrainRate:6
CircleSize:3.8
OverallDifficulty:9
ApproachRate:9.2
SliderMultiplier:1.6
SliderTickRate:1

[Events]
//Background and Video events
0,0,"BG.jpg",0,0
//Break Periods
//Storyboard Layer 0 (Background)
//Storyboard Layer 1 (Fail)
//Storyboard Layer 2 (Pass)
//Storyboard Layer 3 (Foreground)
//Storyboard Sound Samples

[TimingPoints]
-733,368.098159509202,4,3,1,70,1,0
10309,-83.3333333333333,4,3,1,70,0,0
11046,-71.4285714285714,4,3,1,70,0,0
11966,-133.333333333333,4,3,1,70,0,0
12334,-100,4,3,1,5,0,0
12518,-111.111111111111,4,3,1,60,0,0
22825,-111.111111111111,4,3,1,70,0,0
24297,-111.111111111111,4,3,1,65,0,0
36076,-133.333333333333,4,3,1,50,0,0
44359,-133.333333333333,4,3,1,60,0,0
44911,-133.333333333333,4,3,1,50,0,0
45463,-200,4,3,1,50,0,0
45831,-200,4,3,1,60,0,0
46567,-200,4,3,1,70,0,0
48040,-200,4,3,1,70,0,0
50800,-100,4,3,1,75,0,1
71230,-100,4,3,1,75,0,0
71414,-100,4,3,1,60,0,1
71782,-100,4,3,1,65,0,1
72150,-100,4,3,1,70,0,1
72518,-100,4,3,1,75,0,1
72886,-100,4,3,1,65,0,1
73254,-100,4,3,1,70,0,1
73622,-100,4,3,1,75,0,1
73990,-100,4,3,1,80,0,1
74359,-100,4,3,1,85,0,1
74911,-100,4,3,1,90,0,1
76015,-100,4,3,1,60,0,0
77303,-100,4,3,1,70,0,0
83377,-100,4,3,1,75,0,0
87610,-100,4,3,1,5,0,0

[Colours]
Combo1 : 201,148,148
Combo2 : 255,81,81
Combo3 : 89,172,255
Combo4 : 106,255,106
Combo5 : 255,215,91

[HitObjects]
165,179,3,6,0,L|171:218,1,40,8|0,0:0|0:0,0:0:0:0:
94,292,187,2,0,L|100:252,1,40
229,105,371,5,8,0:0:0:0:
237,144,463,1,0,0:0:0:0:
245,183,555,1,0,0:0:0:0:
253,222,647,1,0,0:0:0:0:
262,261,739,5,6,0:0:0:0:
165,179,923,1,0,0:0:0:0:
329,211,1107,1,10,0:0:0:0:
101,253,1291,1,0,0:0:0:0:
220,65,1475,6,0,L|236:143,1,80,10|0,0:0|0:0,0:0:0:0:
262,261,1843,1,10,0:0:0:0:
150,177,2027,1,0,0:0:0:0:
276,274,2211,6,0,L|354:257,1,80,10|0,0:0|0:0,0:0:0:0:
512,212,2579,1,10,0:0:0:0:
236,143,2763,1,0,0:0:0:0:
354,257,2947,1,10,0:0:0:0:
394,98,3132,5,0,0:0:0:0:
346,279,3316,1,10,0:0:0:0:
402,76,3501,1,0,0:0:0:0:
338,300,3684,6,0,P|298:301|261:285,1,80,10|0,0:0|0:0,0:0:0:0:
160,157,4052,2,0,P|199:158|236:142,1,80,10|0,0:0|0:0,0:0:0:0:
184,76,4420,1,10,0:0:0:0:
136,238,4604,1,0,0:0:0:0:
27,46,4788,2,0,L|106:39,1,80,10|0,0:0|0:0,0:0:0:0:
184,76,5064,1,0,0:0:0:0:
184,76,5156,5,10,0:0:0:0:
136,238,5340,1,0,0:0:0:0:
106,39,5524,1,10,0:0:0:0:
153,327,5708,1,8,0:0:0:0:
153,327,5800,1,0,0:0:0:0:
153,327,5892,5,10,0:0:0:0:
318,220,6076,1,0,0:0:0:0:
120,150,6260,1,10,0:0:0:0:
128,194,6352,1,0,0:0:0:0:
136,238,6444,1,0,0:0:0:0:
144,282,6536,1,0,0:0:0:0:
153,327,6628,5,10,0:0:0:0:
62,271,6813,1,0,0:0:0:0:
318,220,6997,5,14,0:2:0:0:
60,378,7181,1,0,0:0:0:0:
223,184,7365,5,10,0:0:0:0:
153,327,7549,1,0,0:0:0:0:
120,150,7733,5,10,0:0:0:0:
318,220,7917,1,0,0:0:0:0:
62,271,8101,5,10,0:0:0:0:
200,77,8285,1,0,0:0:0:0:
246,291,8469,5,10,0:0:0:0:
120,150,8653,1,0,0:0:0:0:
318,220,8837,5,10,0:0:0:0:
62,271,9021,1,0,0:0:0:0:
343,317,9205,5,14,0:2:0:0:
341,324,9297,1,0,0:0:0:0:
339,331,9389,1,0,0:0:0:0:
337,338,9481,1,0,0:0:0:0:
336,345,9573,5,0,0:0:0:0:
318,220,9757,1,0,0:0:0:0:
300,95,9941,2,0,L|386:104,1,80,14|0,0:2|0:0,0:0:0:0:
171,170,10309,5,0,0:0:0:0:
32,150,10493,1,0,0:0:0:0:
311,191,10678,2,0,L|300:95,1,95.9999970703126,12|0,0:2|0:0,0:0:0:0:
148,331,11046,5,0,0:0:0:0:
171,170,11230,1,0,0:0:0:0:
194,9,11414,2,0,L|249:13,1,55.9999982910157,12|8,0:2|0:0,0:0:0:0:
356,91,11598,2,0,L|300:95,1,55.9999982910157,8|8,0:0|0:0,0:0:0:0:
171,170,11782,5,12,0:2:0:0:
369,17,11966,2,0,P|419:45|433:102,1,120.000004577637,12|0,0:2|0:0,0:0:0:0:
212,78,12518,6,0,L|356:91,1,143.999995605469,6|10,0:0|0:0,0:0:0:0:
355,90,13070,1,0,0:0:0:0:
175,147,13254,2,0,P|135:89|156:23,1,143.999995605469,2|10,0:0|0:0,0:0:0:0:
212,78,13806,1,0,0:0:0:0:
73,185,13990,6,0,L|1:177,1,71.9999978027344,2|0,0:0|0:0,0:0:0:0:
36,289,14359,2,0,L|107:281,1,71.9999978027344,10|0,0:0|0:0,0:0:0:0:
239,213,14727,2,0,L|226:357,1,143.999995605469,2|10,0:0|0:0,0:0:0:0:
226,356,15279,1,0,0:0:0:0:
414,224,15463,6,0,P|404:152|401:80,1,143.999995605469,2|10,0:0|0:0,0:0:0:0:
424,0,16015,1,0,0:0:0:0:
406,238,16199,1,2,0:0:0:0:
398,252,16567,1,10,0:0:0:0:
512,172,16751,1,0,0:0:0:0:
354,319,16935,6,0,P|387:331|422:327,1,71.9999978027344,2|0,0:0|0:0,0:0:0:0:
308,204,17303,2,0,P|272:200|239:212,1,71.9999978027344,10|0,0:0|0:0,0:0:0:0:
130,328,17671,1,2,0:0:0:0:
284,276,17855,1,0,0:0:0:0:
135,134,18040,2,0,L|127:205,1,71.9999978027344,10|0,0:0|0:0,0:0:0:0:
137,339,18408,5,2,0:0:0:0:
144,350,18776,1,10,0:0:0:0:
284,276,18960,1,0,0:0:0:0:
128,206,19144,2,0,L|143:349,1,143.999995605469,2|10,0:0|0:0,0:0:0:0:
143,349,19696,1,0,0:0:0:0:
60,169,19880,6,0,P|116:129|186:153,1,143.999995605469,2|10,0:0|0:0,0:0:0:0:
128,206,20432,1,0,0:0:0:0:
216,77,20616,2,0,L|209:148,1,71.9999978027344,2|0,0:0|0:0,0:0:0:0:
153,12,20984,1,10,0:0:0:0:
144,0,21352,6,0,P|215:7|287:11,1,143.999995605469,2|10,0:0|0:0,0:0:0:0:
373,0,21905,1,0,0:0:0:0:
328,153,22089,2,0,L|321:81,1,71.9999978027344,2|0,0:0|0:0,0:0:0:0:
265,218,22457,1,10,0:0:0:0:
409,144,22641,1,0,0:0:0:0:
236,135,22825,5,8,0:0:0:0:
481,212,23009,1,10,0:0:0:0:
490,228,23561,5,8,0:0:0:0:
227,118,23745,1,10,0:0:0:0:
388,0,23929,5,0,0:0:0:0:
417,33,24021,1,0,0:0:0:0:
426,76,24113,1,0,0:0:0:0:
413,119,24205,1,0,0:0:0:0:
379,148,24297,6,0,L|235:133,1,143.999995605469,6|2,0:0|0:0,0:0:0:0:
173,76,24849,1,0,0:0:0:0:
223,259,25033,2,0,P|259:200|236:134,1,143.999995605469,2|2,0:0|0:0,0:0:0:0:
236,134,25586,1,0,0:0:0:0:
104,258,25770,5,2,0:0:0:0:
184,192,25954,1,0,0:0:0:0:
0,196,26138,5,10,0:0:0:0:
104,277,26322,1,0,0:0:0:0:
202,181,26506,2,0,P|236:174|286:178,1,71.9999978027344,2|0,0:0|0:0,0:0:0:0:
105,294,26874,1,10,0:0:0:0:
150,121,27058,1,0,0:0:0:0:
248,293,27242,6,0,P|176:290|105:294,1,143.999995605469,2|10,0:0|0:0,0:0:0:0:
23,264,27794,1,0,0:0:0:0:
291,352,27978,2,0,P|323:292|288:232,1,143.999995605469,2|10,0:0|0:0,0:0:0:0:
287,231,28530,1,0,0:0:0:0:
105,294,28714,5,2,0:0:0:0:
291,352,28898,1,0,0:0:0:0:
204,188,29082,2,0,L|191:258,1,71.9999978027344,10|0,0:0|0:0,0:0:0:0:
193,345,29451,1,2,0:0:0:0:
173,111,29635,5,4,0:2:0:0:
298,364,29819,1,10,0:0:0:0:
304,383,30187,5,2,0:0:0:0:
340,246,30371,2,0,L|352:316,1,71.9999978027344,0|10,0:0|0:0,0:0:0:0:
390,159,30739,1,0,0:0:0:0:
390,159,30923,1,2,0:0:0:0:
232,164,31107,6,0,L|302:176,1,71.9999978027344,0|10,0:0|0:0,0:0:0:0:
158,207,31475,1,0,0:0:0:0:
224,20,31659,6,0,P|230:92|232:164,1,143.999995605469,2|10,0:0|0:0,0:0:0:0:
163,216,32211,1,0,0:0:0:0:
332,100,32395,2,0,P|296:96|260:95,1,71.9999978027344,2|0,0:0|0:0,0:0:0:0:
168,225,32763,1,10,0:0:0:0:
302,176,32947,1,0,0:0:0:0:
124,165,33132,6,0,P|91:225|124:286,1,143.999995605469,2|10,0:0|0:0,0:0:0:0:
124,286,33684,1,0,0:0:0:0:
302,176,33868,5,2,0:0:0:0:
168,225,34052,1,0,0:0:0:0:
395,259,34236,5,10,0:0:0:0:
211,130,34420,1,8,0:0:0:0:
214,140,34512,1,0,0:0:0:0:
217,150,34604,5,10,0:0:0:0:
387,91,34788,1,0,0:0:0:0:
151,78,34972,5,10,0:0:0:0:
449,169,35156,1,0,0:0:0:0:
124,165,35340,5,10,0:0:0:0:
402,80,35524,1,0,0:0:0:0:
267,233,35708,6,0,P|266:161|259:89,1,143.999995605469,10|6,0:0|0:0,0:0:0:0:
122,331,36444,5,2,0:2:0:0:
122,331,36628,1,0,0:0:0:0:
122,331,36813,2,0,B|178:321|178:321|239:335,1,120.000004577637,2|2,0:0|0:2,0:0:0:0:
245,344,37549,5,2,0:0:0:0:
192,177,37733,2,0,P|186:206|185:236,1,60.0000022888184,0|2,0:0|0:2,0:0:0:0:
251,354,38101,1,0,0:0:0:0:
378,235,38285,2,0,P|318:229|259:218,1,120.000004577637,2|2,0:0|0:2,0:0:0:0:
259,218,38837,1,0,0:0:0:0:
444,53,39021,6,0,L|432:172,1,120.000004577637,2|2,0:0|0:2,0:0:0:0:
432,172,39573,1,0,0:0:0:0:
290,81,39757,2,0,L|349:73,1,60.0000022888184,2|0,0:0|0:0,0:0:0:0:
192,177,40125,2,0,L|251:184,1,60.0000022888184,2|0,0:2|0:0,0:0:0:0:
374,268,40493,5,2,0:0:0:0:
430,117,40677,2,0,P|435:146|436:176,1,60.0000022888184,0|2,0:0|0:2,0:0:0:0:
368,278,41045,1,0,0:0:0:0:
192,177,41230,5,2,0:0:0:0:
349,73,41414,1,0,0:0:0:0:
200,295,41598,2,0,P|202:235|192:177,1,120.000004577637,10|4,0:2|0:2,0:0:0:0:
323,382,42334,5,2,0:0:0:0:
323,382,42518,1,0,0:0:0:0:
419,272,42702,2,0,L|415:331,1,60.0000022888184,2|0,0:0|0:0,0:0:0:0:
298,233,43070,1,2,0:0:0:0:
298,233,43254,1,0,0:0:0:0:
489,129,43438,5,2,0:0:0:0:
395,188,43622,1,0,0:0:0:0:
390,77,43806,1,2,0:0:0:0:
494,240,43990,5,0,0:0:0:0:
297,137,44174,1,2,0:0:0:0:
337,342,44359,5,8,0:0:0:0:
390,77,44543,1,10,0:0:0:0:
390,77,44635,1,0,0:0:0:0:
390,77,44727,1,8,0:0:0:0:
298,233,44911,5,2,0:0:0:0:
489,129,45095,1,0,0:0:0:0:
199,86,45279,5,10,0:0:0:0:
395,188,45463,2,0,L|434:183,1,40,0|2,0:0|0:0,0:0:0:0:
292,26,45831,5,0,0:0:0:0:
385,294,46015,1,10,0:0:0:0:
489,128,46199,2,0,P|487:109|483:89,1,40,0|2,0:0|0:0,0:0:0:0:
214,185,46567,5,0,0:0:0:0:
385,75,46751,1,10,0:0:0:0:
199,86,46935,1,0,0:0:0:0:
395,188,47119,1,0,0:0:0:0:
121,149,47303,5,8,0:0:0:0:
385,75,47487,1,8,0:0:0:0:
105,49,47671,1,4,0:0:0:0:
105,49,48040,5,0,0:0:0:0:
41,174,48224,1,10,0:0:0:0:
202,60,48408,5,0,0:0:0:0:
160,250,48592,1,10,0:0:0:0:
299,47,48776,5,0,0:0:0:0:
318,280,48960,1,10,0:0:0:0:
401,24,49144,6,0,L|408:59,1,20
471,271,49328,1,10,0:0:0:0:
512,0,49512,6,0,L|501:79,1,80,8|0,0:0|0:0,0:0:0:0:
462,254,50064,5,10,0:0:0:0:
397,124,50248,1,8,0:0:0:0:
303,235,50432,5,8,0:0:0:0:
343,239,50524,1,8,0:0:0:0:
383,244,50616,1,8,0:0:0:0:
423,249,50708,1,8,0:0:0:0:
462,254,50800,5,14,0:0:0:0:
307,311,50984,1,0,0:0:0:0:
486,335,51168,5,10,0:0:0:0:
288,226,51352,1,0,0:0:0:0:
508,179,51536,5,10,0:0:0:0:
229,287,51720,1,0,0:0:0:0:
406,104,51905,5,10,0:0:0:0:
395,350,52089,1,0,0:0:0:0:
401,357,52181,1,0,0:0:0:0:
407,364,52273,5,10,0:0:0:0:
508,179,52457,1,0,0:0:0:0:
288,226,52641,5,10,0:0:0:0:
462,254,52825,1,0,0:0:0:0:
229,287,53009,5,10,0:0:0:0:
508,179,53193,1,0,0:0:0:0:
242,64,53377,5,10,0:0:0:0:
307,311,53561,1,0,0:0:0:0:
303,319,53653,1,0,0:0:0:0:
299,327,53745,5,10,0:0:0:0:
63,245,53929,1,0,0:0:0:0:
288,226,54113,5,10,0:0:0:0:
122,306,54297,1,0,0:0:0:0:
307,311,54481,5,10,0:0:0:0:
146,225,54665,1,0,0:0:0:0:
406,104,54849,5,10,0:0:0:0:
229,287,55033,1,0,0:0:0:0:
233,295,55125,1,0,0:0:0:0:
236,303,55217,5,10,0:0:0:0:
242,64,55401,1,0,0:0:0:0:
146,225,55586,5,10,0:0:0:0:
347,165,55770,1,0,0:0:0:0:
88,164,55954,5,10,0:0:0:0:
288,226,56138,1,0,0:0:0:0:
63,245,56322,5,2,0:0:0:0:
347,165,56506,1,8,0:0:0:0:
355,164,56598,1,8,0:0:0:0:
363,163,56690,6,0,L|442:170,1,80,14|0,0:0|0:0,0:0:0:0:
242,64,57058,5,10,0:0:0:0:
229,287,57242,1,0,0:0:0:0:
370,246,57426,5,10,0:0:0:0:
122,306,57610,1,0,0:0:0:0:
393,327,57794,5,10,0:0:0:0:
146,225,57978,1,0,0:0:0:0:
138,224,58070,1,0,0:0:0:0:
130,223,58162,5,10,0:0:0:0:
452,267,58346,1,0,0:0:0:0:
229,287,58530,5,10,0:0:0:0:
370,246,58714,1,0,0:0:0:0:
130,223,58898,6,0,L|50:217,1,80,10|0,0:0|0:0,0:0:0:0:
229,287,59266,5,10,0:0:0:0:
406,104,59451,1,0,0:0:0:0:
414,103,59543,1,0,0:0:0:0:
424,101,59635,5,10,0:0:0:0:
393,327,59819,1,0,0:0:0:0:
324,84,60003,5,10,0:0:0:0:
370,246,60187,1,0,0:0:0:0:
501,37,60371,5,10,0:0:0:0:
447,182,60555,1,0,0:0:0:0:
301,3,60739,5,10,0:0:0:0:
370,246,60923,1,0,0:0:0:0:
374,254,61015,1,0,0:0:0:0:
377,262,61107,5,10,0:0:0:0:
324,84,61291,2,0,L|313:122,1,40
381,271,61475,5,10,0:0:0:0:
202,218,61659,2,0,P|221:212|241:207,1,40,8|0,0:0|0:0,0:0:0:0:
456,291,61843,5,8,0:0:0:0:
430,332,61935,1,8,0:0:0:0:
384,351,62027,1,8,0:0:0:0:
337,338,62119,1,8,0:0:0:0:
306,300,62211,1,8,0:0:0:0:
299,281,62579,6,0,L|312:121,1,160,14|10,0:0|0:0,0:0:0:0:
321,26,63132,1,0,0:0:0:0:
202,217,63316,5,10,0:0:0:0:
342,195,63500,1,0,0:0:0:0:
134,158,63684,5,2,0:0:0:0:
410,254,63868,1,0,0:0:0:0:
417,253,63960,1,0,0:0:0:0:
424,252,64052,5,10,0:0:0:0:
219,128,64236,1,0,0:0:0:0:
428,166,64420,5,10,0:0:0:0:
185,306,64604,1,0,0:0:0:0:
410,254,64788,5,10,0:0:0:0:
219,128,64972,1,0,0:0:0:0:
446,78,65156,5,10,0:0:0:0:
202,217,65340,1,0,0:0:0:0:
195,216,65432,1,0,0:0:0:0:
188,215,65524,6,0,L|108:210,1,80,10|0,0:0|0:0,0:0:0:0:
219,128,65892,5,10,0:0:0:0:
185,306,66076,1,0,0:0:0:0:
168,39,66260,5,10,0:0:0:0:
202,217,66444,1,0,0:0:0:0:
389,70,66628,5,10,0:0:0:0:
134,157,66813,1,0,0:0:0:0:
127,156,66905,1,0,0:0:0:0:
120,155,66997,5,10,0:0:0:0:
274,323,67181,1,0,0:0:0:0:
219,128,67365,5,10,0:0:0:0:
185,306,67549,1,0,0:0:0:0:
304,99,67733,5,10,0:0:0:0:
363,340,67917,1,0,0:0:0:0:
389,70,68101,5,10,0:0:0:0:
274,323,68285,1,8,0:0:0:0:
272,330,68377,1,8,0:0:0:0:
270,337,68469,6,0,L|349:347,1,80,10|0,0:0|0:0,0:0:0:0:
304,99,68837,5,10,0:0:0:0:
185,306,69021,1,0,0:0:0:0:
219,128,69205,5,10,0:0:0:0:
363,340,69389,1,0,0:0:0:0:
304,99,69573,5,10,0:0:0:0:
185,306,69757,1,0,0:0:0:0:
184,313,69849,1,0,0:0:0:0:
183,320,69941,5,10,0:0:0:0:
237,40,70125,1,0,0:0:0:0:
29,235,70309,5,10,0:0:0:0:
312,200,70493,1,0,0:0:0:0:
63,62,70678,5,10,0:0:0:0:
304,99,70862,1,0,0:0:0:0:
29,235,71046,5,2,0:0:0:0:
312,200,71230,1,0,0:0:0:0:
319,199,71322,1,0,0:0:0:0:
326,198,71414,5,8,0:0:0:0:
176,160,71598,1,8,0:0:0:0:
353,275,71782,5,8,0:0:0:0:
120,246,71966,1,8,0:0:0:0:
408,210,72150,5,8,0:0:0:0:
132,335,72334,1,8,0:0:0:0:
437,290,72518,5,8,0:0:0:0:
166,155,72702,1,8,0:0:0:0:
155,151,72794,1,8,0:0:0:0:
144,147,72886,5,0,0:0:0:0:
132,335,73070,1,8,0:0:0:0:
225,102,73254,5,8,0:0:0:0:
222,356,73438,1,8,0:0:0:0:
303,58,73622,5,8,0:0:0:0:
311,374,73806,1,8,0:0:0:0:
393,20,73990,5,8,0:0:0:0:
396,384,74174,1,8,0:0:0:0:
138,52,74359,5,6,0:0:0:0:
222,356,74543,1,0,0:0:0:0:
303,146,74727,1,0,0:0:0:0:
311,374,74911,5,10,0:0:0:0:
225,102,75095,1,0,0:2:0:0:
132,335,75279,1,0,0:2:0:0:
228,16,75463,5,10,0:0:0:0:
311,374,75647,1,4,0:0:0:0:
311,374,76015,6,0,L|356:308,1,80
428,284,76291,2,0,P|406:250|370:236,1,80
298,261,76567,2,0,P|261:246|240:213,1,80
310,188,76843,2,0,L|355:122,1,80
419,68,77119,1,8,0:0:0:0:
419,68,77211,1,8,0:0:0:0:
419,68,77303,6,0,P|367:39|310:52,1,120,6|0,0:2|0:0,0:0:0:0:
294,65,77671,1,10,0:0:0:0:
370,236,77855,1,8,0:0:0:0:
236,293,78040,6,0,L|240:213,1,80,2|0,0:0|0:0,0:0:0:0:
311,374,78408,1,10,0:0:0:0:
316,384,78776,6,0,L|149:371,1,160,2|10,0:0|0:0,0:0:0:0:
375,305,79328,1,8,0:0:0:0:
240,213,79512,6,0,L|236:293,1,80,2|0,0:0|0:0,0:0:0:0:
138,94,79880,5,10,0:0:0:0:
140,133,79972,1,8,0:0:0:0:
143,173,80064,1,8,0:0:0:0:
146,213,80156,1,8,0:0:0:0:
148,253,80248,5,14,0:0:0:0:
320,198,80432,1,0,0:0:0:0:
143,173,80616,5,10,0:0:0:0:
331,281,80800,1,0,0:0:0:0:
116,332,80984,5,10,0:0:0:0:
320,198,81168,1,0,0:0:0:0:
64,152,81352,5,10,0:0:0:0:
331,281,81536,1,4,0:2:0:0:
344,292,81905,5,0,0:2:0:0:
445,269,82089,1,0,0:2:0:0:
492,176,82273,1,0,0:2:0:0:
320,198,82457,5,0,0:2:0:0:
219,175,82641,1,0,0:2:0:0:
172,82,82825,1,0,0:2:0:0:
347,0,83009,5,4,0:0:0:0:
340,49,83101,1,0,0:0:0:0:
333,98,83193,1,0,0:0:0:0:
326,148,83285,1,0,0:0:0:0:
320,197,83377,5,10,0:0:0:0:
512,91,83561,1,8,0:0:0:0:
238,17,83745,5,10,0:0:0:0:
238,17,83837,1,0,0:0:0:0:
238,17,83929,1,8,0:0:0:0:
308,291,84113,1,10,0:0:0:0:
308,291,84205,1,0,0:0:0:0:
308,291,84297,1,8,0:0:0:0:
439,15,84481,1,2,0:0:0:0:
439,15,84849,5,0,0:0:0:0:
468,54,84941,1,0,0:0:0:0:
472,103,85033,1,0,0:0:0:0:
449,147,85125,1,0,0:0:0:0:
407,173,85217,1,4,0:2:0:0:
256,192,85309,12,0,87610,0:0:0:0:
