osu file format v14

[General]
AudioFilename: mmmppp333.mp3
AudioLeadIn: 2000
PreviewTime: 55061
Countdown: 0
SampleSet: Soft
StackLeniency: 0.4
Mode: 0
LetterboxInBreaks: 0
WidescreenStoryboard: 0

[Editor]
DistanceSpacing: 1.5
BeatDivisor: 4
GridSize: 4
TimelineZoom: 2.599999

[Metadata]
Title:Best FriendS
TitleUnicode:Best FriendS
Artist:Fujijo Seitokai Shikkou-bu
ArtistUnicode:藤女生徒会執行部
Creator:sahuang
Version:Everlasting MemorieS
Source:LOVE LAB
Tags:kunka n_a_s_y_a nasya Kalibe my angel azusa 恋愛ラブラボ ending kaburagi kotetsu
BeatmapID:1577478
BeatmapSetID:748836

[Difficulty]
HPDrainRate:6
CircleSize:3.8
OverallDifficulty:8
ApproachRate:9
SliderMultiplier:1.7
SliderTickRate:1

[Events]
//Background and Video events
0,0,"bg.jpg",0,0
//Break Periods
2,170016,180995
2,217132,224798
//Storyboard Layer 0 (Background)
//Storyboard Layer 1 (Fail)
//Storyboard Layer 2 (Pass)
//Storyboard Layer 3 (Foreground)
//Storyboard Sound Samples

[TimingPoints]
491,368.098159509202,4,2,0,50,1,0
491,-125,4,2,0,50,0,0
5644,-125,4,2,1,50,0,0
6380,-100,4,2,1,60,0,0
15583,-76.9230769230769,4,2,1,60,0,0
17607,-133.333333333333,4,2,1,60,0,0
18067,-125,4,2,1,5,0,0
18159,-100,4,2,1,55,0,0
28466,-100,4,2,1,60,0,0
29938,-100,4,2,1,55,0,0
35276,-76.9230769230769,4,2,1,55,0,0
35828,-100,4,2,1,55,0,0
41717,-133.333333333333,4,2,1,40,0,0
42086,-133.333333333333,4,2,1,50,0,0
44294,-90.9090909090909,4,2,1,50,0,0
44662,-133.333333333333,4,2,1,50,0,0
47239,-83.3333333333333,4,2,1,50,0,0
47607,-133.333333333333,4,2,1,50,0,0
50184,-111.111111111111,4,2,1,60,0,0
51840,-100,4,2,1,60,0,0
53313,-83.3333333333333,4,2,1,60,0,0
56441,-100,4,2,1,75,0,1
57454,-100,4,2,1,5,0,1
57546,-66.6666666666667,4,2,1,75,0,1
57914,-100,4,2,1,75,0,1
58926,-100,4,2,1,5,0,1
59018,-66.6666666666667,4,2,1,75,0,1
59386,-100,4,2,1,75,0,1
67484,-125,4,2,1,75,0,1
67852,-66.6666666666667,4,2,1,75,0,1
68037,-100,4,2,1,75,0,0
68589,-100,4,2,1,85,0,1
68957,-100,4,2,1,75,0,1
76135,-83.3333333333333,4,2,1,75,0,1
76687,-100,4,2,1,75,0,1
77055,-100,4,2,1,40,0,1
77607,-100,4,2,1,50,0,1
78159,-100,4,2,1,60,0,1
78527,-100,4,2,1,65,0,1
79079,-100,4,2,1,70,0,1
79632,-100,4,2,1,75,0,1
80000,-100,4,2,1,80,0,1
80552,-100,4,2,1,85,0,1
81288,-100,4,2,1,90,0,1
81656,-111.111111111111,4,2,1,70,0,1
82944,-100,4,2,0,60,0,0
85337,-100,4,2,1,60,0,0
85889,-100,4,2,1,65,0,0
87546,-117.647058823529,4,2,1,55,0,0
90122,-133.333333333333,4,2,1,55,0,0
90675,-100,4,2,1,60,0,0
99509,-76.9230769230769,4,2,1,60,0,0
101349,-66.6666666666667,4,2,1,60,0,0
101533,-133.333333333333,4,2,1,60,0,0
101994,-133.333333333333,4,2,1,5,0,0
102086,-100,4,2,1,55,0,0
112392,-66.6666666666667,4,2,1,60,0,0
113865,-100,4,2,1,55,0,0
119202,-76.9230769230769,4,2,1,55,0,0
119754,-100,4,2,1,55,0,0
125644,-133.333333333333,4,2,1,40,0,0
126012,-133.333333333333,4,2,1,50,0,0
128221,-83.3333333333333,4,2,1,50,0,0
128589,-133.333333333333,4,2,1,50,0,0
131073,-83.3333333333333,4,2,1,50,0,0
131533,-133.333333333333,4,2,1,50,0,0
133742,-111.111111111111,4,2,1,60,0,0
135767,-100,4,2,1,60,0,0
137147,-83.3333333333333,4,2,1,60,0,0
140368,-100,4,2,1,75,0,1
141380,-100,4,2,1,5,0,1
141472,-66.6666666666667,4,2,1,75,0,1
141840,-100,4,2,1,75,0,1
142852,-100,4,2,1,5,0,1
142944,-66.6666666666667,4,2,1,75,0,1
143313,-100,4,2,1,75,0,1
151411,-125,4,2,1,75,0,1
151687,-125,4,2,1,5,0,1
151779,-66.6666666666667,4,2,1,75,0,1
151963,-100,4,2,1,75,0,0
152515,-100,4,2,1,85,0,1
152883,-100,4,2,1,75,0,1
160981,-100,4,2,1,40,0,1
161533,-100,4,2,1,50,0,1
162086,-100,4,2,1,60,0,1
162454,-100,4,2,1,65,0,1
163006,-100,4,2,1,70,0,1
163558,-100,4,2,1,75,0,1
163926,-100,4,2,1,80,0,1
164478,-100,4,2,1,85,0,1
165214,-100,4,2,1,90,0,1
165583,-111.111111111111,4,2,1,70,0,1
166871,-100,4,2,1,70,0,0
169816,-111.111111111111,4,2,1,40,0,0
181595,-125,4,2,0,40,0,0
183067,-100,4,2,0,50,0,0
187484,-125,4,2,1,50,0,0
188957,-100,4,2,1,50,0,0
190429,-83.3333333333333,4,2,1,50,0,0
193374,-142.857142857143,4,2,1,30,0,0
193742,-142.857142857143,4,2,1,50,0,0
199264,-142.857142857143,4,2,1,30,0,0
199632,-142.857142857143,4,2,1,50,0,0
204233,-111.111111111111,4,2,1,40,0,0
204601,-83.3333333333334,4,2,1,40,0,0
204969,-125,4,2,1,5,0,0
205153,-125,4,2,1,50,0,0
210306,-100,4,2,1,60,0,0
213803,-83.3333333333333,4,2,1,60,0,0
216012,-111.111111111111,4,2,1,40,0,0
216932,-100,4,2,1,30,0,0
225398,-125,4,2,1,65,0,0
225767,-100,4,2,1,60,0,0
229448,-125,4,2,1,60,0,0
230184,-100,4,2,1,75,0,1
231196,-100,4,2,1,5,0,1
231288,-66.6666666666667,4,2,1,75,0,1
231656,-100,4,2,1,75,0,1
232668,-100,4,2,1,5,0,1
232760,-66.6666666666667,4,2,1,75,0,1
233129,-100,4,2,1,75,0,1
241227,-125,4,2,1,75,0,1
241595,-66.6666666666667,4,2,1,75,0,1
241779,-66.6666666666667,4,2,1,75,0,0
241963,-100,4,2,1,75,0,0
242331,-100,4,2,1,85,0,1
242699,-100,4,2,1,75,0,1
250797,-100,4,2,1,40,0,1
251349,-100,4,2,1,50,0,1
251902,-100,4,2,1,60,0,1
252270,-100,4,2,1,65,0,1
252822,-100,4,2,1,70,0,1
253374,-100,4,2,1,75,0,1
253742,-100,4,2,1,80,0,1
254294,-100,4,2,1,85,0,1
255030,-100,4,2,1,90,0,1
255398,-111.111111111111,4,2,1,70,0,1
256687,-100,4,2,0,60,0,0
259079,-100,4,2,1,60,0,0
259632,-100,4,2,1,65,0,0
261288,-133.333333333333,4,2,1,65,0,0
263313,-100,4,2,1,65,0,0
263865,-111.111111111111,4,2,1,65,0,0
264601,-100,4,2,1,70,0,0
265521,-100,4,2,1,60,0,0
266257,-100,4,2,1,50,0,0
266994,-100,4,2,1,40,0,0
267730,-100,4,2,1,30,0,0
268466,-100,4,2,1,15,0,0
269570,-100,4,2,1,5,0,0

[Colours]
Combo1 : 0,164,82
Combo2 : 0,128,255
Combo3 : 255,128,64
Combo4 : 232,0,0
Combo5 : 173,90,90

[HitObjects]
95,130,491,6,0,P|81:195|110:255,1,136,2|8,0:0|0:0,0:0:0:0:
213,295,1043,1,8,0:0:0:0:
301,220,1227,2,0,P|247:181|181:182,1,136,2|10,0:0|0:0,0:0:0:0:
110,255,1779,1,2,0:0:0:0:
30,190,1963,6,0,L|41:105,2,68,2|2|8,0:0|0:0|0:0,0:0:0:0:
80,289,2515,2,0,L|224:277,1,136,10|0,0:0|0:0,0:0:0:0:
348,210,3067,1,10,0:0:0:0:
311,321,3251,1,2,0:0:0:0:
252,165,3435,6,0,P|296:116|362:104,1,136,2|8,0:0|0:0,0:0:0:0:
455,183,3987,1,8,0:0:0:0:
357,277,4171,2,0,L|346:200,1,68,2|0,0:0|0:0,0:0:0:0:
195,82,4540,2,0,L|204:149,1,68,8|0,0:0|0:0,0:0:0:0:
180,255,4908,5,2,0:0:0:0:
91,201,5092,1,2,0:0:0:0:
89,97,5276,1,8,0:0:0:0:
267,205,5460,1,8,0:0:0:0:
93,305,5644,1,8,0:0:0:0:
0,161,5828,1,8,0:0:0:0:
0,161,5920,1,0,0:0:0:0:
0,161,6012,1,8,0:0:0:0:
220,122,6196,1,8,0:0:0:0:
220,122,6288,1,8,0:0:0:0:
220,122,6380,6,0,B|297:80|306:151|390:105,1,170,4|10,0:0|0:0,0:0:0:0:
469,39,6932,1,0,0:0:0:0:
487,147,7116,2,0,L|481:263,1,85,2|0,0:0|0:0,0:0:0:0:
407,312,7484,1,8,0:0:0:0:
326,204,7668,1,2,0:0:0:0:
262,357,7852,6,0,P|240:308|253:259,1,85,0|2,0:0|0:0,0:0:0:0:
326,204,8221,1,10,0:0:0:0:
439,305,8405,2,0,L|428:135,1,170,10|2,0:0|0:0,0:0:0:0:
345,62,8957,1,8,0:0:0:0:
448,22,9141,1,2,0:0:0:0:
345,62,9325,6,0,L|238:74,1,85,0|0,0:0|0:0,0:0:0:0:
162,122,9693,1,12,0:0:0:0:
76,52,9877,2,0,P|118:104|84:209,1,170,0|2,0:0|0:0,0:0:0:0:
15,301,10429,2,0,L|1:194,1,85,8|2,0:0|0:0,0:0:0:0:
119,292,10797,6,0,P|157:323|282:308,1,170,2|10,0:0|0:0,0:0:0:0:
379,234,11349,1,8,0:0:0:0:
235,195,11533,1,2,0:0:0:0:
350,336,11717,1,8,0:0:0:0:
418,155,11902,1,10,0:0:0:0:
226,220,12086,1,8,0:0:0:0:
226,220,12178,1,8,0:0:0:0:
226,220,12270,6,0,L|114:210,1,85,14|0,0:0|0:0,0:0:0:0:
4,55,12638,1,12,0:0:0:0:
2,159,12822,1,0,0:0:0:0:
177,115,13006,2,0,L|92:107,1,85,2|0,0:0|0:0,0:0:0:0:
69,244,13374,1,10,0:0:0:0:
232,175,13558,6,0,L|220:351,1,170,2|2,0:0|0:0,0:0:0:0:
416,278,14110,1,8,0:0:0:0:
330,341,14294,1,8,0:0:0:0:
232,175,14478,2,0,P|264:202|286:238,1,85,2|2,0:0|0:0,0:0:0:0:
228,352,14846,1,10,0:0:0:0:
228,352,14938,1,2,0:0:0:0:
228,352,15030,1,2,0:0:0:0:
132,195,15214,5,2,0:0:0:0:
132,195,15398,1,2,0:0:0:0:
340,155,15583,6,0,L|231:175,1,110.499994941712,10|0,0:0|0:0,0:0:0:0:
74,265,15951,5,2,0:0:0:0:
74,265,16135,1,2,0:0:0:0:
282,305,16320,6,0,L|173:284,1,110.499994941712,10|0,0:0|0:0,0:0:0:0:
230,139,16687,5,2,0:0:0:0:
230,139,16871,1,2,0:0:0:0:
22,179,17056,6,0,L|130:158,1,110.499994941712,10|10,0:0|0:0,0:0:0:0:
130,157,17331,1,10,0:0:0:0:
130,157,17423,1,10,0:0:0:0:
305,190,17607,6,0,P|297:120|230:139,1,159.375006079674,10|0,0:0|0:0,0:0:0:0:
219,166,18159,6,0,B|199:214|199:214|235:354,1,170,4|8,0:0|0:0,0:0:0:0:
341,364,18711,1,0,0:0:0:0:
475,267,18895,2,0,P|435:252|394:257,1,85,2|0,0:0|0:0,0:0:0:0:
341,364,19264,1,8,0:0:0:0:
291,238,19448,1,0,0:0:0:0:
143,333,19632,6,0,L|244:327,1,85,2|0,0:0|0:0,0:0:0:0:
93,227,20000,2,0,L|8:232,1,85,8|0,0:0|0:0,0:0:0:0:
187,133,20368,2,0,L|288:127,1,85,2|0,0:0|0:0,0:0:0:0:
134,66,20736,1,8,0:0:0:0:
188,214,20920,1,0,0:0:0:0:
272,128,21104,6,0,P|326:113|418:190,2,170,2|8|2,0:0|0:0|0:0,0:0:0:0:
322,212,22024,1,0,0:0:0:0:
413,174,22208,2,0,L|418:70,1,85,8|0,0:0|0:0,0:0:0:0:
282,18,22576,5,2,0:0:0:0:
272,128,22760,1,0,0:0:0:0:
181,64,22944,1,8,0:0:0:0:
282,18,23129,1,0,0:0:0:0:
272,128,23313,2,0,P|214:171|116:158,1,170,2|8,0:0|0:0,0:0:0:0:
27,86,23865,1,0,0:0:0:0:
71,272,24049,5,2,0:0:0:0:
71,272,24417,1,8,0:0:0:0:
186,316,24601,1,0,0:0:0:0:
269,172,24785,1,2,0:0:0:0:
154,216,24969,1,0,0:0:0:0:
301,360,25153,2,0,P|298:309|295:256,1,85,8|0,0:0|0:0,0:0:0:0:
181,146,25521,6,0,L|186:331,1,170,2|8,0:0|0:0,0:0:0:0:
67,220,26073,1,2,0:0:0:0:
67,220,26257,2,0,L|58:119,1,85,0|0,0:0|0:0,0:0:0:0:
177,24,26625,2,0,L|168:125,1,85,8|0,0:0|0:0,0:0:0:0:
230,314,26994,6,0,B|271:286|271:286|297:237|260:157,1,170,2|8,0:0|0:0,0:0:0:0:
169,108,27546,1,2,0:0:0:0:
58,215,27730,2,0,P|96:237|142:237,1,85,0|0,0:0|0:0,0:0:0:0:
265,169,28098,1,8,0:0:0:0:
169,108,28282,1,0,0:0:0:0:
234,291,28466,5,10,0:0:0:0:
268,54,28650,1,10,0:0:0:0:
268,54,29202,5,10,0:0:0:0:
234,291,29386,1,10,0:0:0:0:
169,108,29570,1,0,0:0:0:0:
265,169,29754,1,8,0:0:0:0:
265,169,29846,1,8,0:0:0:0:
265,169,29938,6,0,B|314:177|346:139|346:139|371:121|444:141,1,170,4|8,0:0|0:0,0:0:0:0:
501,214,30490,1,0,0:0:0:0:
406,310,30675,2,0,L|394:209,1,85,2|0,0:0|0:0,0:0:0:0:
375,57,31043,1,8,0:0:0:0:
461,130,31227,1,0,0:0:0:0:
375,57,31411,6,0,L|262:45,1,85,2|0,0:0|0:0,0:0:0:0:
194,103,31779,1,8,0:0:0:0:
286,164,31963,1,0,0:0:0:0:
195,224,32147,2,0,L|111:234,1,85,2|0,0:0|0:0,0:0:0:0:
286,164,32515,1,8,0:0:0:0:
194,103,32699,1,0,0:0:0:0:
111,234,32883,6,0,P|104:288|130:330,1,85,2|0,0:0|0:0,0:0:0:0:
239,371,33251,2,0,P|289:350|312:306,1,85,8|0,0:0|0:0,0:0:0:0:
294,192,33619,2,0,P|250:158|201:160,1,85,2|0,0:0|0:0,0:0:0:0:
111,234,33987,2,0,L|13:221,1,85,8|0,0:0|0:0,0:0:0:0:
153,317,34356,5,2,0:0:0:0:
136,149,34540,1,0,0:0:0:0:
246,295,34724,1,8,0:0:0:0:
253,189,34908,1,0,0:0:0:0:
153,317,35092,1,2,0:0:0:0:
253,189,35276,1,4,0:0:0:0:
365,312,35460,2,0,P|376:259|354:209,1,110.499994941712,8|0,0:0|0:0,0:0:0:0:
253,189,35828,5,2,0:0:0:0:
362,123,36012,2,0,P|348:85|301:40,2,85,0|8|2,0:0|0:0|0:0,0:0:0:0:
253,189,36564,1,0,0:0:0:0:
202,71,36748,2,0,P|162:64|99:82,2,85,2|8|2,0:0|0:0|0:0,0:0:0:0:
253,189,37300,5,0,0:0:0:0:
76,183,37484,2,0,P|49:214|34:277,1,85,2|8,0:0|0:0,0:0:0:0:
215,322,37852,2,0,P|206:252|117:268,1,170,2|2,0:0|0:0,0:0:0:0:
130,356,38405,1,8,0:0:0:0:
152,147,38589,1,2,0:0:0:0:
289,229,38773,6,0,L|409:226,1,85,2|0,0:0|0:0,0:0:0:0:
236,144,39141,2,0,L|151:146,1,85,10|0,0:0|0:0,0:0:0:0:
359,55,39509,2,0,L|354:148,1,85,2|0,0:0|0:0,0:0:0:0:
285,313,39877,2,0,L|289:228,1,85,10|0,0:0|0:0,0:0:0:0:
132,125,40245,6,0,B|193:93|260:115|260:115|221:160,1,170,2|8,0:0|0:0,0:0:0:0:
141,234,40797,1,0,0:0:0:0:
44,135,40981,5,8,0:0:0:0:
80,294,41165,1,0,0:0:0:0:
235,143,41349,1,8,0:0:0:0:
344,310,41717,6,0,L|264:304,1,63.7500024318696,4|0,0:0|0:0,0:0:0:0:
354,220,42086,2,0,L|417:224,1,63.7500024318696,2|0,0:0|0:0,0:0:0:0:
471,320,42454,2,0,L|324:308,1,127.500004863739,2|2,0:0|0:0,0:0:0:0:
104,165,43190,6,0,P|88:137|82:106,1,63.7500024318696,2|0,0:0|0:0,0:0:0:0:
183,14,43558,1,2,0:0:0:0:
261,62,43742,1,0,0:0:0:0:
181,105,43926,1,2,0:0:0:0:
261,62,44294,6,0,L|368:63,1,93.5000028533936,10|0,0:0|0:0,0:0:0:0:
440,136,44662,6,0,L|434:216,1,63.7500024318696,2|0,0:0|0:0,0:0:0:0:
350,126,45031,2,0,L|354:62,1,63.7500024318696,2|0,0:0|0:0,0:0:0:0:
450,10,45399,2,0,L|438:156,1,127.500004863739,2|2,0:0|0:0,0:0:0:0:
270,295,46135,6,0,P|242:310|211:316,1,63.7500024318696,2|0,0:0|0:0,0:0:0:0:
118,217,46503,1,2,0:0:0:0:
166,139,46687,1,0,0:0:0:0:
209,219,46871,1,2,0:0:0:0:
166,139,47239,6,0,B|156:85|156:85|176:38,1,101.999996887207,10|0,0:0|0:0,0:0:0:0:
276,98,47607,6,0,P|314:141|403:145,1,127.500004863739,2|2,0:0|0:0,0:0:0:0:
470,104,48159,1,0,0:0:0:0:
366,0,48343,2,0,P|360:44|362:84,1,63.7500024318696,2|0,0:0|0:0,0:0:0:0:
457,267,48711,2,0,P|463:223|461:183,1,63.7500024318696,2|0,0:0|0:0,0:0:0:0:
315,212,49079,6,0,P|345:226|379:231,2,63.7500024318696,2|0|2,0:0|0:0|0:0,0:0:0:0:
316,315,49632,1,0,0:0:0:0:
279,125,49816,2,0,P|250:112|219:107,1,63.7500024318696,10|0,0:0|0:0,0:0:0:0:
188,226,50184,1,8,0:0:0:0:
188,226,50276,1,0,0:0:0:0:
188,226,50368,1,0,0:0:0:0:
373,136,50552,5,0,0:0:0:0:
316,315,50736,2,0,L|302:223,1,76.4999976654053,0|8,0:0|0:0,0:0:0:0:
219,107,51104,2,0,P|164:166|192:229,1,152.999995330811,0|0,0:0|0:0,0:0:0:0:
316,315,51656,1,8,0:0:0:0:
373,136,51840,6,0,L|367:248,1,85,0|0,0:0|0:0,0:0:0:0:
280,131,52208,1,0,0:0:0:0:
450,90,52392,1,8,0:0:0:0:
264,44,52576,1,0,0:0:0:0:
368,220,52760,1,0,0:0:0:0:
361,44,52944,1,8,0:0:0:0:
267,210,53129,1,8,0:0:0:0:
138,111,53313,6,0,B|165:64|219:54|219:54|267:74|281:138,1,203.999993774414,12|8,0:0|0:0,0:0:0:0:
186,263,53865,1,8,0:0:0:0:
117,190,54049,1,8,0:0:0:0:
140,339,54233,1,8,0:0:0:0:
226,189,54417,1,8,0:0:0:0:
84,265,54601,1,8,0:0:0:0:
246,339,54785,1,10,0:0:0:0:
246,339,54877,1,10,0:0:0:0:
246,339,54969,2,0,L|313:322,1,50.9999984436036,10|0,0:0|0:0,0:0:0:0:
424,274,55153,6,0,B|456:223|434:177|434:177|458:128|424:81,1,203.999993774414,10|0,0:0|0:0,0:0:0:0:
268,29,55705,1,8,0:0:0:0:
345,138,55889,1,8,0:0:0:0:
164,142,56073,1,8,0:0:0:0:
277,270,56257,1,8,0:0:0:0:
277,270,56349,1,8,0:0:0:0:
277,270,56441,6,0,P|335:232|330:115,1,170,4|8,0:0|0:0,0:0:0:0:
268,29,56994,1,10,0:0:0:0:
164,142,57178,2,0,P|109:130|62:65,1,127.5,2|0,0:0|0:0,0:0:0:0:
70,45,57546,6,0,L|197:54,1,127.500004863739,10|2,0:0|0:0,0:0:0:0:
344,137,57914,6,0,L|326:336,1,170,2|8,0:0|0:0,0:0:0:0:
194,359,58466,1,10,0:0:0:0:
84,299,58650,2,0,P|124:251|184:232,1,127.5,2|0,0:0|0:0,0:0:0:0:
207,248,59018,6,0,L|338:231,1,127.500004863739,10|0,0:0|0:0,0:0:0:0:
446,167,59386,6,0,P|468:131|468:79,1,85,2|0,0:0|0:0,0:0:0:0:
349,8,59754,1,10,0:0:0:0:
390,106,59938,1,8,0:0:0:0:
213,120,60122,2,0,P|249:98|301:98,1,85,2|0,0:0|0:0,0:0:0:0:
363,258,60490,1,8,0:0:0:0:
278,193,60674,1,2,0:0:0:0:
390,106,60859,5,0,0:0:0:0:
363,258,61043,1,2,0:0:0:0:
290,95,61227,1,8,0:0:0:0:
435,207,61411,1,10,0:0:0:0:
277,281,61595,2,0,L|175:282,1,85,2|0,0:0|0:0,0:0:0:0:
122,172,61963,1,10,0:0:0:0:
38,278,62147,1,0,0:0:0:0:
38,278,62239,1,0,0:0:0:0:
38,278,62331,6,0,L|18:96,1,170,2|8,0:0|0:0,0:0:0:0:
117,28,62883,1,10,0:0:0:0:
218,104,63067,2,0,L|318:94,1,85,2|0,0:0|0:0,0:0:0:0:
400,167,63435,1,8,0:0:0:0:
274,225,63619,1,2,0:0:0:0:
400,167,63803,6,0,L|418:67,1,85,2|0,0:0|0:0,0:0:0:0:
302,95,64171,1,8,0:0:0:0:
360,259,64356,2,0,P|428:263|494:183,1,170,10|0,0:0|0:0,0:0:0:0:
274,225,64908,1,10,0:0:0:0:
400,167,65092,1,0,0:0:0:0:
304,10,65276,6,0,L|301:110,1,85,2|0,0:0|0:0,0:0:0:0:
400,167,65644,1,8,0:0:0:0:
274,225,65828,2,0,P|212:253|167:244,1,85,10|0,0:0|0:0,0:0:0:0:
41,121,66196,2,0,P|103:149|148:140,1,85,10|0,0:0|0:0,0:0:0:0:
334,292,66564,6,0,P|260:334|174:341,1,170,4|0,0:0|0:0,0:0:0:0:
124,176,67116,1,8,0:0:0:0:
29,282,67300,1,0,0:0:0:0:
29,282,67392,1,0,0:0:0:0:
29,282,67484,6,0,L|100:266,1,68,10|0,0:0|0:0,0:0:0:0:
231,141,67852,1,10,0:0:0:0:
127,42,68037,1,8,0:0:0:0:
127,42,68129,1,8,0:0:0:0:
127,42,68221,6,0,L|299:35,1,170,2|12,0:0|0:0,0:0:0:0:
454,108,68773,1,0,0:0:0:0:
383,255,68957,2,0,P|380:210|355:159,1,85,0|0,0:0|0:0,0:0:0:0:
172,207,69325,2,0,P|175:252|200:303,1,85,8|0,0:0|0:0,0:0:0:0:
343,140,69693,6,0,L|246:136,1,85,2|0,0:0|0:0,0:0:0:0:
77,202,70061,1,8,0:0:0:0:
190,288,70245,1,8,0:0:0:0:
261,51,70429,6,0,L|257:148,1,85,2|0,0:0|0:0,0:0:0:0:
323,317,70797,1,8,0:0:0:0:
409,204,70981,1,0,0:0:0:0:
265,229,71165,6,0,P|189:198|165:120,2,170,2|8|2,0:0|0:0|0:0,0:0:0:0:
337,114,72086,1,0,0:0:0:0:
337,114,72270,2,0,P|279:136|227:128,1,85,8|0,0:0|0:0,0:0:0:0:
237,36,72638,5,2,0:0:0:0:
265,229,72822,1,0,0:0:0:0:
237,36,73006,1,8,0:0:0:0:
59,160,73190,2,0,L|248:139,1,170,10|0,0:0|0:0,0:0:0:0:
365,255,73742,1,10,0:0:0:0:
275,354,73926,1,8,0:0:0:0:
275,354,74018,1,8,0:0:0:0:
275,354,74110,6,0,L|257:236,1,85,4|0,0:0|0:0,0:0:0:0:
239,115,74478,1,8,0:0:0:0:
387,173,74662,1,10,0:0:0:0:
263,270,74846,2,0,P|174:256|111:175,1,170,2|8,0:0|0:0,0:0:0:0:
117,73,75398,1,2,0:0:0:0:
239,115,75583,5,2,0:0:0:0:
120,200,75767,1,0,0:0:0:0:
117,73,75951,1,8,0:0:0:0:
239,115,76135,2,0,P|241:174|240:321,1,203.999993774414,10|0,0:0|0:0,0:0:0:0:
374,316,76687,2,0,P|375:274|371:202,1,85,8|0,0:0|0:0,0:0:0:0:
329,133,77055,5,10,0:0:0:0:
228,186,77239,1,8,0:0:0:0:
295,41,77423,1,8,0:0:0:0:
305,214,77607,1,10,0:0:0:0:
205,92,77791,1,8,0:0:0:0:
358,113,77975,1,8,0:0:0:0:
232,263,78159,1,10,0:0:0:0:
97,144,78343,1,8,0:0:0:0:
97,144,78435,1,8,0:0:0:0:
97,144,78527,5,10,0:0:0:0:
277,148,78711,1,8,0:0:0:0:
136,296,78895,1,8,0:0:0:0:
168,78,79079,1,10,0:0:0:0:
296,239,79264,1,8,0:0:0:0:
65,243,79448,1,8,0:0:0:0:
250,163,79632,1,10,0:0:0:0:
68,97,79816,1,8,0:0:0:0:
173,292,80000,5,10,0:0:0:0:
281,32,80184,1,8,0:0:0:0:
399,200,80368,1,8,0:0:0:0:
156,80,80552,5,10,0:0:0:0:
318,283,80736,1,8,0:0:0:0:
281,32,80920,1,10,0:0:0:0:
164,216,81104,1,8,0:0:0:0:
439,151,81288,1,12,0:0:0:0:
439,151,81656,6,0,B|388:138|388:138|364:154|319:149,1,114.749996498108,4|2,0:0|0:0,0:0:0:0:
164,216,82208,2,0,B|128:220|104:204|104:204|53:217,2,114.749996498108,4|2|2,0:0|0:0|0:0,0:0:0:0:
296,262,82944,6,0,L|502:249,1,170,4|8,0:0|0:0,0:0:0:0:
368,168,83497,1,8,0:0:0:0:
345,345,83681,2,0,L|453:338,1,85,0|0,0:0|0:0,0:0:0:0:
368,168,84049,1,8,0:0:0:0:
465,251,84233,1,0,0:0:0:0:
489,126,84417,6,0,L|476:36,1,85,0|0,0:0|0:0,0:0:0:0:
368,168,84785,1,8,0:0:0:0:
465,251,84969,1,8,0:0:0:0:
271,85,85337,1,2,0:0:0:0:
248,211,85521,1,10,0:0:0:0:
245,221,85613,1,10,0:0:0:0:
243,231,85705,1,10,0:0:0:0:
241,242,85797,1,10,0:0:0:0:
238,252,85889,6,0,P|209:268|143:265,1,85,4|0,0:0|0:0,0:0:0:0:
65,210,86257,1,8,0:0:0:0:
163,94,86441,2,0,L|176:182,1,85,12|0,0:0|0:0,0:0:0:0:
311,291,86810,1,0,0:0:0:0:
285,147,86994,1,8,0:0:0:0:
411,243,87178,1,12,0:0:0:0:
411,243,87546,5,2,0:0:0:0:
411,243,87730,2,0,P|451:234|498:228,1,72.2500013780594,2|2,0:0|0:0,0:0:0:0:
367,347,88098,2,0,P|326:338|280:332,2,72.2500013780594,2|2|2,0:0|0:0|0:0,0:0:0:0:
481,229,88650,1,10,0:0:0:0:
329,92,89018,5,2,0:0:0:0:
329,92,89202,1,2,0:0:0:0:
166,292,89570,6,0,L|160:206,1,72.2500013780594,2|0,0:0|0:0,0:0:0:0:
258,161,89938,1,2,0:0:0:0:
258,161,90030,1,0,0:0:0:0:
258,161,90122,6,0,P|314:191|390:173,1,127.500004863739,2|0,0:0|0:0,0:0:0:0:
319,7,90675,6,0,L|329:95,1,85,8|0,0:0|0:0,0:0:0:0:
295,319,91043,2,0,L|285:231,1,85,2|0,0:0|0:0,0:0:0:0:
184,150,91411,1,10,0:0:0:0:
103,258,91595,1,0,0:0:0:0:
39,105,91779,6,0,P|17:154|30:203,1,85,2|0,0:0|0:0,0:0:0:0:
103,258,92148,1,10,0:0:0:0:
259,195,92331,2,0,P|190:148|108:159,1,170,10|2,0:0|0:0,0:0:0:0:
103,258,92883,1,8,0:0:0:0:
20,183,93067,1,2,0:0:0:0:
103,258,93251,6,0,L|210:246,1,85,0|0,0:0|0:0,0:0:0:0:
286,198,93619,1,12,0:0:0:0:
372,268,93803,2,0,P|330:216|364:111,1,170,0|2,0:0|0:0,0:0:0:0:
450,86,94356,1,8,0:0:0:0:
426,187,94540,1,2,0:0:0:0:
351,121,94724,6,0,L|247:129,1,85,2|0,0:0|0:0,0:0:0:0:
145,214,95092,1,10,0:0:0:0:
73,115,95276,1,8,0:0:0:0:
73,115,95368,1,0,0:0:0:0:
73,115,95460,2,0,L|162:109,1,85,8|2,0:0|0:0,0:0:0:0:
281,215,95828,1,10,0:0:0:0:
196,358,96012,1,10,0:0:0:0:
196,358,96104,1,10,0:0:0:0:
195,358,96196,6,0,P|154:355|118:332,1,85
183,130,96564,1,12,0:0:0:0:
101,244,96748,1,0,0:0:0:0:
274,254,96932,2,0,L|177:247,1,85,2|2,0:0|0:0,0:0:0:0:
95,150,97300,1,8,0:0:0:0:
165,42,97484,6,0,P|242:69|265:147,1,170,2|2,0:0|0:0,0:0:0:0:
347,317,98037,1,8,0:0:0:0:
253,309,98221,1,8,0:0:0:0:
360,154,98405,5,2,0:0:0:0:
400,240,98589,1,0,0:0:0:0:
211,225,98773,1,10,0:0:0:0:
211,225,98865,1,2,0:0:0:0:
211,225,98957,1,2,0:0:0:0:
400,240,99141,5,2,0:0:0:0:
400,240,99325,1,2,0:0:0:0:
273,97,99509,6,0,P|307:139|359:153,1,110.499994941712,10|0,0:0|0:0,0:0:0:0:
403,245,99877,5,2,0:0:0:0:
403,245,100061,1,2,0:0:0:0:
246,358,100245,6,0,P|299:349|338:311,1,110.499994941712,10|0,0:0|0:0,0:0:0:0:
239,205,100613,5,2,0:0:0:0:
239,205,100797,1,2,0:0:0:0:
90,81,100981,6,0,P|143:89|182:127,1,110.499994941712,10|10,0:0|0:0,0:0:0:0:
182,127,101257,1,10,0:0:0:0:
182,127,101349,1,10,0:0:0:0:
133,254,101533,6,0,P|67:228|102:167,1,159.375006079674,10|0,0:0|0:0,0:0:0:0:
130,175,102086,6,0,L|317:172,1,170,4|8,0:0|0:0,0:0:0:0:
409,125,102638,1,0,0:0:0:0:
457,286,102822,2,0,P|417:273|390:242,1,85,2|0,0:0|0:0,0:0:0:0:
318,55,103190,1,8,0:0:0:0:
409,125,103374,1,0,0:0:0:0:
299,172,103558,6,0,L|214:173,1,85,2|0,0:0|0:0,0:0:0:0:
208,337,103926,2,0,L|249:262,1,85,8|0,0:0|0:0,0:0:0:0:
110,174,104294,2,0,L|153:246,1,85,2|0,0:0|0:0,0:0:0:0:
299,172,104662,1,8,0:0:0:0:
249,262,104846,1,0,0:0:0:0:
110,174,105030,6,0,P|95:120|172:28,2,170,2|8|2,0:0|0:0|0:0,0:0:0:0:
194,124,105950,1,0,0:0:0:0:
283,228,106134,2,0,L|179:223,1,85,8|0,0:0|0:0,0:0:0:0:
76,355,106502,5,2,0:0:0:0:
86,245,106686,1,0,0:0:0:0:
177,309,106870,1,8,0:0:0:0:
76,355,107055,1,0,0:0:0:0:
86,245,107239,2,0,P|144:202|242:215,1,170,2|8,0:0|0:0,0:0:0:0:
331,287,107791,1,0,0:0:0:0:
296,78,107975,5,2,0:0:0:0:
296,78,108343,1,8,0:0:0:0:
364,181,108527,1,0,0:0:0:0:
396,31,108711,1,2,0:0:0:0:
364,181,108895,1,0,0:0:0:0:
217,129,109079,2,0,L|207:44,1,85,8|0,0:0|0:0,0:0:0:0:
299,237,109447,6,0,L|114:242,1,170,2|8,0:0|0:0,0:0:0:0:
217,129,109999,1,2,0:0:0:0:
217,129,110183,2,0,L|320:125,1,85,0|0,0:0|0:0,0:0:0:0:
467,218,110552,2,0,L|382:221,1,85,8|0,0:0|0:0,0:0:0:0:
192,322,110920,6,0,B|246:352|246:352|291:353|358:302,1,170,2|8,0:0|0:0,0:0:0:0:
303,207,111472,1,2,0:0:0:0:
131,166,111656,2,0,L|143:253,1,85,0|0,0:0|0:0,0:0:0:0:
303,207,112024,1,8,0:0:0:0:
205,119,112208,1,0,0:0:0:0:
220,289,112392,5,10,0:0:0:0:
291,82,112576,1,10,0:0:0:0:
291,82,113129,5,10,0:0:0:0:
220,289,113313,1,10,0:0:0:0:
205,119,113497,1,0,0:0:0:0:
311,207,113681,1,8,0:0:0:0:
311,207,113773,1,8,0:0:0:0:
311,207,113865,6,0,B|332:255|325:322|325:322|260:303,1,170,4|8,0:0|0:0,0:0:0:0:
172,248,114417,1,0,0:0:0:0:
102,341,114601,2,0,L|187:351,1,85,2|0,0:0|0:0,0:0:0:0:
311,207,114969,1,8,0:0:0:0:
172,248,115153,1,0,0:0:0:0:
330,326,115337,6,0,P|370:311|400:281,1,85,2|0,0:0|0:0,0:0:0:0:
311,207,115705,2,0,L|296:123,1,85,8|0,0:0|0:0,0:0:0:0:
103,203,116073,2,0,P|132:233|171:247,1,85,2|0,0:0|0:0,0:0:0:0:
380,184,116442,1,8,0:0:0:0:
296,123,116626,1,0,0:0:0:0:
280,239,116810,6,0,L|276:324,1,85,2|0,0:0|0:0,0:0:0:0:
175,148,117178,2,0,L|180:64,1,85,8|0,0:0|0:0,0:0:0:0:
88,249,117546,2,0,L|84:334,1,85,2|0,0:0|0:0,0:0:0:0:
94,145,117914,1,8,0:0:0:0:
180,228,118098,1,0,0:0:0:0:
261,139,118282,6,0,P|300:125|343:122,1,85,2|0,0:0|0:0,0:0:0:0:
440,190,118650,1,8,0:0:0:0:
290,249,118834,1,0,0:0:0:0:
389,286,119018,1,2,0:0:0:0:
343,122,119202,1,2,0:0:0:0:
195,237,119386,2,0,L|212:350,1,110.499994941712,8|0,0:0|0:0,0:0:0:0:
195,237,119754,5,2,0:0:0:0:
72,268,119938,2,0,P|55:231|56:166,2,85,0|8|2,0:0|0:0|0:0,0:0:0:0:
195,237,120490,1,0,0:0:0:0:
148,118,120674,2,0,P|171:84|228:52,2,85,2|8|2,0:0|0:0|0:0,0:0:0:0:
195,237,121226,5,0,0:0:0:0:
316,108,121410,2,0,P|357:110|412:144,1,85,2|8,0:0|0:0,0:0:0:0:
316,304,121779,2,0,P|272:248|347:196,1,170,2|2,0:0|0:0,0:0:0:0:
400,268,122331,1,8,0:0:0:0:
244,129,122515,1,2,0:0:0:0:
155,224,122699,6,0,L|250:215,1,85,2|0,0:0|0:0,0:0:0:0:
400,268,123067,2,0,L|315:276,1,85,10|0,0:0|0:0,0:0:0:0:
244,129,123435,2,0,L|339:120,1,85,2|0,0:0|0:0,0:0:0:0:
241,306,123803,2,0,L|156:314,1,85,10|0,0:0|0:0,0:0:0:0:
25,240,124171,6,0,L|204:225,1,170,2|8,0:0|0:0,0:0:0:0:
243,128,124724,1,0,0:0:0:0:
404,202,124908,5,8,0:0:0:0:
271,220,125092,1,0,0:0:0:0:
355,85,125276,1,8,0:0:0:0:
416,264,125644,6,0,L|401:186,1,63.7500024318696,4|0,0:0|0:0,0:0:0:0:
355,85,126012,2,0,L|340:163,1,63.7500024318696,2|0,0:0|0:0,0:0:0:0:
271,220,126380,2,0,P|251:264|299:352,1,127.500004863739,2|2,0:0|0:0,0:0:0:0:
275,335,127116,6,0,L|193:328,1,63.7500024318696,2|0,0:0|0:0,0:0:0:0:
125,371,127484,1,2,0:0:0:0:
131,275,127668,1,0,0:0:0:0:
211,329,127852,1,2,0:0:0:0:
131,275,128221,6,0,L|118:149,1,101.999996887207,10|0,0:0|0:0,0:0:0:0:
178,63,128589,6,0,L|256:78,1,63.7500024318696,2|0,0:0|0:0,0:0:0:0:
361,138,128957,2,0,L|283:153,1,63.7500024318696,2|0,0:0|0:0,0:0:0:0:
248,232,129325,2,0,P|236:296|260:381,1,127.500004863739,2|2,0:0|0:0,0:0:0:0:
247,356,130061,6,0,L|329:349,1,63.7500024318696,2|0,0:0|0:0,0:0:0:0:
399,316,130429,1,2,0:0:0:0:
324,255,130613,1,0,0:0:0:0:
310,350,130797,1,2,0:0:0:0:
399,316,131165,6,0,P|420:271|403:205,1,101.999996887207,10|0,0:0|0:0,0:0:0:0:
330,61,131533,6,0,P|287:99|283:188,1,127.500004863739,2|2,0:0|0:0,0:0:0:0:
324,255,132085,1,0,0:0:0:0:
428,151,132269,2,0,P|384:145|344:147,1,63.7500024318696,2|0,0:0|0:0,0:0:0:0:
181,249,132638,2,0,P|225:255|265:253,1,63.7500024318696,2|0,0:0|0:0,0:0:0:0:
364,145,133006,6,0,P|408:139|448:141,2,63.7500024318696,2|0|10,0:0|0:0|0:0,0:0:0:0:
324,255,133558,1,0,0:0:0:0:
257,148,133742,1,10,0:0:0:0:
409,224,133926,1,0,0:0:0:0:
234,334,134110,1,8,0:0:0:0:
234,334,134202,1,0,0:0:0:0:
234,334,134294,1,0,0:0:0:0:
132,270,134478,6,0,L|120:179,1,76.4999976654053,0|0,0:0|0:0,0:0:0:0:
234,334,134846,1,8,0:0:0:0:
310,255,135030,2,0,L|321:89,1,152.999995330811
237,30,135582,1,8,0:0:0:0:
232,137,135767,6,0,P|289:187|384:172,1,170,0|0,0:0|0:0,0:0:0:0:
412,68,136318,1,8,0:0:0:0:
461,205,136502,1,0,0:0:0:0:
321,103,136686,1,0,0:0:0:0:
480,116,136870,1,8,0:0:0:0:
389,247,137055,1,8,0:0:0:0:
321,103,137239,6,0,B|272:79|170:102|170:102|217:140,1,203.999993774414,4|8,0:0|0:0,0:0:0:0:
285,213,137791,1,8,0:0:0:0:
381,190,137975,1,8,0:0:0:0:
188,235,138159,1,8,0:0:0:0:
319,121,138343,1,8,0:0:0:0:
278,318,138527,1,8,0:0:0:0:
116,209,138711,1,10,0:0:0:0:
116,209,138803,1,10,0:0:0:0:
116,209,138895,2,0,L|39:221,1,50.9999984436036,10|0,0:0|0:0,0:0:0:0:
7,320,139079,6,0,L|218:290,1,203.999993774414,10|0,0:0|0:0,0:0:0:0:
330,343,139631,1,8,0:0:0:0:
380,229,139815,1,8,0:0:0:0:
216,160,139999,1,8,0:0:0:0:
199,353,140183,1,8,0:0:0:0:
199,353,140275,1,8,0:0:0:0:
199,353,140368,6,0,P|258:306|268:210,1,170,4|8,0:0|0:0,0:0:0:0:
180,136,140920,1,10,0:0:0:0:
299,86,141104,2,0,L|430:76,1,127.5,2|0,0:0|0:0,0:0:0:0:
470,72,141472,6,0,B|484:154|484:154|436:205,1,127.500004863739,10|2,0:0|0:0,0:0:0:0:
343,289,141840,6,0,B|289:278|289:278|231:298|231:298|178:289,1,170,2|8,0:0|0:0,0:0:0:0:
59,247,142392,1,10,0:0:0:0:
137,135,142576,2,0,P|192:147|230:212,1,127.5,2|0,0:0|0:0,0:0:0:0:
258,237,142944,6,0,L|280:100,1,127.500004863739,10|0,0:0|0:0,0:0:0:0:
187,28,143313,6,0,P|151:6|99:6,1,85,2|0,0:0|0:0,0:0:0:0:
28,125,143681,1,10,0:0:0:0:
126,84,143865,1,8,0:0:0:0:
140,261,144049,2,0,P|118:225|118:173,1,85,2|0,0:0|0:0,0:0:0:0:
278,111,144417,1,8,0:0:0:0:
213,196,144601,1,2,0:0:0:0:
126,84,144786,5,0,0:0:0:0:
278,111,144970,1,2,0:0:0:0:
115,184,145154,1,8,0:0:0:0:
217,55,145338,1,10,0:0:0:0:
308,206,145522,2,0,L|294:299,1,85,2|0,0:0|0:0,0:0:0:0:
213,196,145890,1,10,0:0:0:0:
398,256,146073,1,0,0:0:0:0:
398,256,146165,1,0,0:0:0:0:
398,256,146257,6,0,P|464:202|457:112,1,170,2|8,0:0|0:0,0:0:0:0:
376,21,146810,1,10,0:0:0:0:
300,122,146994,2,0,L|310:222,1,85,2|0,0:0|0:0,0:0:0:0:
227,287,147362,1,8,0:0:0:0:
340,316,147546,1,0,0:0:0:0:
227,287,147730,6,0,L|127:304,1,85,2|0,0:0|0:0,0:0:0:0:
53,265,148098,1,8,0:0:0:0:
40,357,148282,2,0,L|24:165,1,170,10|0,0:0|0:0,0:0:0:0:
68,79,148834,1,10,0:0:0:0:
135,175,149018,1,0,0:0:0:0:
267,101,149202,6,0,P|323:110|405:25,1,170,2|8,0:0|0:0,0:0:0:0:
242,19,149754,2,0,P|207:41|186:78,1,85,10|0,0:0|0:0,0:0:0:0:
294,204,150122,2,0,P|329:182|350:145,1,85,10|8,0:0|0:0,0:0:0:0:
135,175,150490,6,0,B|109:223|109:223|140:356,1,170,4|0,0:0|0:0,0:0:0:0:
218,225,151043,1,8,0:0:0:0:
296,340,151227,1,0,0:0:0:0:
296,340,151319,1,0,0:0:0:0:
296,340,151411,6,0,L|307:271,1,68,10|0,0:0|0:0,0:0:0:0:
455,302,151779,1,10,0:0:0:0:
455,172,151963,1,8,0:0:0:0:
455,172,152055,1,8,0:0:0:0:
455,172,152147,6,0,P|420:137|378:214,1,170,0|12,0:0|0:0,0:0:0:0:
489,84,152699,1,0,0:0:0:0:
344,21,152883,2,0,P|299:24|248:49,1,85,2|0,0:0|0:0,0:0:0:0:
296,232,153251,2,0,P|341:229|392:204,1,85,8|0,0:0|0:0,0:0:0:0:
208,121,153619,6,0,L|204:218,1,85,2|0,0:0|0:0,0:0:0:0:
255,322,153987,1,8,0:0:0:0:
115,277,154171,1,8,0:0:0:0:
255,322,154356,6,0,L|352:318,1,85,2|0,0:0|0:0,0:0:0:0:
456,369,154724,1,8,0:0:0:0:
411,229,154908,1,0,0:0:0:0:
339,318,155092,6,0,P|300:241|322:162,2,170,2|8|2,0:0|0:0|0:0,0:0:0:0:
411,229,156012,1,0,0:0:0:0:
411,229,156196,2,0,P|458:215|500:174,1,85,8|0,0:0|0:0,0:0:0:0:
379,79,156564,5,2,0:0:0:0:
310,214,156748,1,0,0:0:0:0:
379,79,156932,1,8,0:0:0:0:
205,18,157116,2,0,L|227:198,1,170,10|0,0:0|0:0,0:0:0:0:
242,314,157668,1,10,0:0:0:0:
82,255,157852,1,8,0:0:0:0:
82,255,157944,1,8,0:0:0:0:
82,255,158036,6,0,L|200:237,1,85,4|0,0:0|0:0,0:0:0:0:
255,133,158404,1,8,0:0:0:0:
318,268,158589,1,10,0:0:0:0:
255,133,158773,2,0,L|271:39,1,85,2|0,0:0|0:0,0:0:0:0:
425,154,159141,1,8,0:0:0:0:
318,268,159325,1,2,0:0:0:0:
255,133,159509,6,0,L|155:121,1,85,2|0,0:0|0:0,0:0:0:0:
45,166,159877,1,8,0:0:0:0:
149,292,160061,2,0,L|333:265,1,170,10|0,0:0|0:0,0:0:0:0:
433,191,160613,2,0,P|460:149|461:113,1,85,8|0,0:0|0:0,0:0:0:0:
314,61,160981,5,10,0:0:0:0:
348,176,161165,1,8,0:0:0:0:
399,33,161349,1,8,0:0:0:0:
234,83,161533,1,10,0:0:0:0:
374,194,161717,1,8,0:0:0:0:
222,224,161902,1,8,0:0:0:0:
317,96,162086,1,10,0:0:0:0:
315,300,162270,1,8,0:0:0:0:
315,300,162362,1,8,0:0:0:0:
315,300,162454,5,10,0:0:0:0:
121,217,162638,1,8,0:0:0:0:
300,194,162822,1,8,0:0:0:0:
149,314,163006,1,10,0:0:0:0:
252,101,163190,1,8,0:0:0:0:
235,271,163374,1,8,0:0:0:0:
108,105,163558,1,10,0:0:0:0:
333,123,163742,1,8,0:0:0:0:
118,215,163926,5,10,0:0:0:0:
317,21,164110,1,8,0:0:0:0:
346,285,164294,1,8,0:0:0:0:
147,49,164478,5,10,0:0:0:0:
407,162,164662,1,8,0:0:0:0:
160,305,164846,1,10,0:0:0:0:
278,103,165030,1,8,0:0:0:0:
287,366,165214,1,12,0:0:0:0:
287,366,165583,6,0,B|305:325|289:278|289:278|245:281,1,114.749996498108,4|2,0:0|0:0,0:0:0:0:
278,103,166135,2,0,B|260:144|276:191|276:191|320:188,2,114.749996498108,4|2|2,0:0|0:0|0:0,0:0:0:0:
344,43,166871,6,0,P|302:74|190:38,1,170,4|8,0:0|0:0,0:0:0:0:
81,14,167423,2,0,L|96:104,1,85,8|0,0:0|0:0,0:0:0:0:
88,199,167791,1,0,0:0:0:0:
166,263,167975,2,0,P|204:254|258:270,1,85,8|8,0:0|0:0,0:0:0:0:
283,279,168251,1,8,0:0:0:0:
283,279,168343,6,0,L|269:163,1,85,12|0,0:0|0:0,0:0:0:0:
251,70,168711,1,8,0:0:0:0:
170,134,168895,1,0,0:0:0:0:
336,123,169079,1,8,0:0:0:0:
170,134,169264,1,0,3:0:0:0:
170,134,169356,1,0,3:0:0:0:
170,134,169448,2,0,L|104:121,3,42.5,0|0|0|0,3:0|0:0|3:0|0:0,0:0:0:0:
94,101,169816,5,4,0:0:0:0:
120,152,181595,6,0,P|125:230|173:264,1,136,4|8,0:0|0:0,0:0:0:0:
254,265,182147,2,0,L|412:252,1,136,8|0,0:0|0:0,0:0:0:0:
446,189,182699,2,0,P|464:161|468:128,1,68,8|0,0:0|0:0,0:0:0:0:
365,124,183067,6,0,L|272:117,1,85
177,55,183435,2,0,L|92:48,1,85,8|8,0:0|0:0,0:0:0:0:
1,172,183803,2,0,L|86:179,1,85
204,291,184171,1,8,0:0:0:0:
204,291,184540,6,0,P|247:314|297:314,1,85,2|0,0:0|0:0,0:0:0:0:
394,256,184908,1,10,0:0:0:0:
286,188,185092,1,8,0:0:0:0:
282,316,185276,2,0,P|307:359|353:374,1,85,2|0,0:0|0:0,0:0:0:0:
440,330,185644,1,8,0:0:0:0:
440,330,185828,6,0,L|420:130,1,170,2|0,0:0|0:0,0:0:0:0:
297,81,186380,1,10,0:0:0:0:
405,57,186564,1,8,0:0:0:0:
336,183,186748,2,0,L|239:172,1,85,2|0,0:0|0:0,0:0:0:0:
178,57,187116,2,0,L|192:98,3,42.5,10|0|0|0,0:0|0:0|0:0|0:0,0:0:0:0:
171,134,187484,6,0,L|158:224,1,68,14|0,0:0|0:0,0:0:0:0:
252,270,187852,1,0,0:0:0:0:
84,340,188037,2,0,L|168:306,1,68,10|0,0:0|0:0,0:0:0:0:
252,270,188405,1,0,0:0:0:0:
161,201,188589,1,10,0:0:0:0:
274,104,188773,1,0,0:0:0:0:
274,104,188865,1,0,0:0:0:0:
274,104,188957,6,0,P|316:108|362:136,1,85,0|10,0:0|0:0,0:0:0:0:
423,234,189325,1,0,0:0:0:0:
318,306,189509,1,0,0:0:0:0:
318,306,189601,1,0,0:0:0:0:
318,306,189693,2,0,P|276:302|230:274,1,85,10|0,0:0|0:0,0:0:0:0:
297,204,190061,1,10,0:0:0:0:
423,234,190245,1,0,0:0:0:0:
423,234,190337,1,0,0:0:0:0:
423,234,190429,6,0,L|415:341,1,101.999996887207,10|0,0:0|0:0,0:0:0:0:
353,128,190797,1,0,0:0:0:0:
262,204,190981,2,0,L|252:313,1,101.999996887207,10|0,0:0|0:0,0:0:0:0:
176,120,191349,1,0,0:0:0:0:
120,298,191533,1,10,0:0:0:0:
62,130,191717,1,10,0:0:0:0:
62,130,191810,1,10,0:0:0:0:
62,130,191902,5,10,0:0:0:0:
262,204,192086,1,10,0:0:0:0:
256,192,192178,12,4,193374,0:0:0:0:
101,202,193742,6,0,P|62:191|29:105,2,118.999996368408,2|2|2,0:0|0:0|0:0,0:0:0:0:
101,202,194846,2,0,L|167:188,1,59.4999981842042,2|0,0:0|0:0,0:0:0:0:
214,259,195214,2,0,L|264:213,1,59.4999981842042,2|0,0:0|0:0,0:0:0:0:
340,251,195583,2,0,L|360:186,1,59.4999981842042,2|0,0:0|0:0,0:0:0:0:
445,181,195951,2,0,L|431:115,1,59.4999981842042,10|0,0:0|0:0,0:0:0:0:
289,18,196319,6,0,L|301:163,2,118.999996368408,2|2|2,0:0|0:0|0:0,0:0:0:0:
289,18,197423,2,0,P|258:36|217:42,1,59.4999981842042,2|0,0:0|0:0,0:0:0:0:
136,16,197791,2,0,L|118:159,1,118.999996368408,2|2,0:0|0:0,0:0:0:0:
57,210,198343,1,0,0:0:0:0:
57,210,198527,2,0,L|62:281,1,59.4999981842042,2|0,0:0|0:0,0:0:0:0:
165,260,198895,2,0,L|228:291,1,59.4999981842042,10|0,0:0|0:0,0:0:0:0:
232,180,199264,1,4,0:0:0:0:
232,180,199632,6,0,P|270:155|291:79,2,118.999996368408,2|2|2,0:0|0:0|0:0,0:0:0:0:
232,180,200736,2,0,L|308:173,1,59.4999981842042,2|0,0:0|0:0,0:0:0:0:
291,269,201104,2,0,L|367:262,1,59.4999981842042,2|0,0:0|0:0,0:0:0:0:
387,138,201472,2,0,L|463:131,1,59.4999981842042,2|0,0:0|0:0,0:0:0:0:
446,227,201840,2,0,L|522:220,1,59.4999981842042,10|0,0:0|0:0,0:0:0:0:
450,341,202208,6,0,L|307:355,1,118.999996368408,2|2,0:0|0:0,0:0:0:0:
234,315,202760,1,0,0:0:0:0:
234,315,202944,2,0,P|188:280|178:262,1,59.4999981842042,2|0,0:0|0:0,0:0:0:0:
181,185,203313,1,2,0:0:0:0:
266,226,203497,1,0,0:0:0:0:
260,132,203681,5,10,0:0:0:0:
272,320,203865,1,8,0:0:0:0:
260,132,204049,1,8,0:0:0:0:
103,236,204233,6,0,P|51:214|17:142,1,114.749996498108,12|0,0:0|0:0,0:0:0:0:
22,124,204601,6,0,B|33:67|71:42|71:42|124:46|157:94,1,203.999993774414,12|0,0:0|0:0,0:0:0:0:
211,218,205153,1,4,0:0:0:0:
211,218,205521,6,0,L|202:299,1,68,2|0,0:0|0:0,0:0:0:0:
318,177,205889,2,0,L|309:258,1,68,2|0,0:0|0:0,0:0:0:0:
425,136,206257,2,0,L|416:217,1,68,2|0,0:0|0:0,0:0:0:0:
360,330,206625,5,2,0:0:0:0:
310,244,206994,1,2,0:0:0:0:
210,244,207362,1,2,0:0:0:0:
160,330,207730,1,10,0:0:0:0:
210,244,208098,6,0,L|189:85,1,136,2|2,0:0|0:0,0:0:0:0:
362,26,208834,2,0,L|380:160,1,136,2|2,0:0|0:0,0:0:0:0:
228,378,209570,2,0,L|210:244,1,136,2|2,0:0|0:0,0:0:0:0:
168,72,210306,6,0,L|265:60,1,85,2|0,0:0|0:0,0:0:0:0:
359,135,210675,1,8,0:0:0:0:
359,135,210767,1,8,0:0:0:0:
359,135,210859,1,8,0:0:0:0:
293,233,211043,1,0,0:0:0:0:
253,62,211227,5,0,0:0:0:0:
359,135,211411,1,8,0:0:0:0:
204,171,211595,2,0,L|92:177,1,85
169,264,211963,5,0,0:0:0:0:
44,180,212147,1,8,0:0:0:0:
164,78,212331,2,0,P|259:88|300:149,1,170
264,267,212883,2,0,L|366:256,1,85,8|0,0:0|0:0,0:0:0:0:
488,226,213251,1,0,0:0:0:0:
475,104,213435,1,8,0:0:0:0:
385,167,213619,1,8,0:0:0:0:
371,33,213803,6,0,B|310:11|310:11|174:41,1,203.999993774414,12|8,0:0|0:0,0:0:0:0:
71,116,214356,1,8,0:0:0:0:
176,180,214540,1,8,0:0:0:0:
70,242,214724,1,8,0:0:0:0:
85,99,214908,1,8,0:0:0:0:
196,193,215092,1,8,0:0:0:0:
62,235,215276,1,10,0:0:0:0:
62,235,215368,1,10,0:0:0:0:
62,235,215460,5,10,0:0:0:0:
251,287,215644,1,10,0:0:0:0:
251,287,216012,1,8,0:0:0:0:
251,287,216104,1,8,0:0:0:0:
251,287,216196,6,0,L|336:277,1,76.4999976654053,8|8,0:0|0:0,0:0:0:0:
422,312,216564,1,8,0:0:0:0:
478,229,216748,2,0,L|464:183,2,38.2499988327027,8|0|12,0:0|0:0|0:0,0:0:0:0:
303,151,225398,6,0,P|266:154|217:131,1,68,8|0,0:0|0:0,0:0:0:0:
364,68,225767,6,0,P|398:114|375:226,1,170,12|8,0:0|0:0,0:0:0:0:
249,269,226319,1,8,0:0:0:0:
303,151,226503,1,8,0:0:0:0:
249,269,226687,1,8,0:0:0:0:
206,79,226871,1,8,0:0:0:0:
134,170,227055,6,0,P|197:162|317:149,1,170,12|8,0:0|0:0,0:0:0:0:
460,189,227607,1,8,0:0:0:0:
322,263,227791,1,8,0:0:0:0:
397,112,227975,1,8,0:0:0:0:
421,262,228159,1,8,0:0:0:0:
397,112,228343,1,8,0:0:0:0:
322,263,228527,5,10,0:0:0:0:
322,263,228619,1,10,0:0:0:0:
322,263,228711,1,10,0:0:0:0:
306,45,228895,1,10,0:0:0:0:
313,52,229264,1,8,0:0:0:0:
313,52,229356,1,8,0:0:0:0:
313,52,229448,6,0,L|238:61,1,68,8|8,0:0|0:0,0:0:0:0:
116,102,229816,1,8,0:0:0:0:
114,121,229908,1,8,0:0:0:0:
118,140,230000,1,8,0:0:0:0:
126,158,230092,1,8,0:0:0:0:
137,173,230184,6,0,P|171:210|287:217,1,170,4|8,0:0|0:0,0:0:0:0:
385,149,230736,1,10,0:0:0:0:
479,259,230920,2,0,P|416:260|345:260,1,127.5,2|0,0:0|0:0,0:0:0:0:
345,291,231288,6,0,P|302:336|222:334,1,127.500004863739,10|2,0:0|0:0,0:0:0:0:
116,281,231656,6,0,L|127:106,1,170,2|8,0:0|0:0,0:0:0:0:
213,14,232208,1,10,0:0:0:0:
279,110,232392,2,0,P|220:135|157:121,1,127.5,2|0,0:0|0:0,0:0:0:0:
126,111,232760,6,0,L|142:242,1,127.500004863739,10|0,0:0|0:0,0:0:0:0:
320,329,233129,6,0,P|357:308|383:263,1,85,2|0,0:0|0:0,0:0:0:0:
315,142,233497,1,10,0:0:0:0:
301,248,233681,1,8,0:0:0:0:
141,171,233865,2,0,P|183:169|228:195,1,85,2|0,0:0|0:0,0:0:0:0:
201,366,234233,1,8,0:0:0:0:
160,267,234417,1,2,0:0:0:0:
301,248,234602,5,0,0:0:0:0:
201,366,234786,1,2,0:0:0:0:
220,187,234970,1,8,0:0:0:0:
300,343,235154,1,10,0:0:0:0:
102,344,235338,2,0,P|73:303|69:254,1,85,2|2,0:0|0:0,0:0:0:0:
139,128,235705,1,10,0:0:0:0:
267,251,235889,1,0,0:0:0:0:
267,251,235981,1,0,0:0:0:0:
267,251,236073,6,0,L|448:226,1,170,2|8,0:0|0:0,0:0:0:0:
512,106,236626,1,10,0:0:0:0:
365,67,236810,2,0,L|373:151,1,85,2|0,0:0|0:0,0:0:0:0:
400,324,237178,1,8,0:0:0:0:
267,251,237362,1,2,0:0:0:0:
400,324,237546,6,0,L|500:307,1,85,2|0,0:0|0:0,0:0:0:0:
373,151,237914,1,8,0:0:0:0:
267,251,238098,2,0,B|216:268|216:268|77:243,1,170,10|0,0:0|0:0,0:0:0:0:
35,159,238650,1,10,0:0:0:0:
58,323,238834,1,0,0:0:0:0:
267,251,239018,6,0,P|276:195|191:113,1,170,2|8,0:0|0:0,0:0:0:0:
185,276,239570,2,0,P|207:311|244:332,1,85,10|0,0:0|0:0,0:0:0:0:
370,224,239938,2,0,P|348:189|311:168,1,85,10|0,0:0|0:0,0:0:0:0:
244,332,240306,2,0,B|312:357|364:344|364:344|397:306,1,170,12|2,0:0|0:0,0:0:0:0:
290,246,240859,1,8,0:0:0:0:
451,187,241043,1,2,0:0:0:0:
451,187,241135,1,2,0:0:0:0:
451,187,241227,6,0,L|457:112,1,68,10|0,0:0|0:0,0:0:0:0:
309,106,241595,1,10,0:0:0:0:
214,24,241779,1,8,0:0:0:0:
214,24,241871,1,8,0:0:0:0:
214,24,241963,6,0,B|209:106|193:138|193:138|124:115,1,170,10|12,0:0|0:0,0:0:0:0:
37,225,242515,1,0,0:0:0:0:
118,324,242699,2,0,L|220:314,1,85,2|0,0:0|0:0,0:0:0:0:
244,216,243067,2,0,L|159:224,1,85,8|0,0:0|0:0,0:0:0:0:
330,254,243435,6,0,L|334:157,1,85,2|0,0:0|0:0,0:0:0:0:
283,53,243803,1,8,0:0:0:0:
407,105,243987,1,8,0:0:0:0:
283,53,244172,6,0,L|186:57,1,85,2|0,0:0|0:0,0:0:0:0:
91,15,244540,1,8,0:0:0:0:
127,146,244724,1,0,0:0:0:0:
198,56,244908,6,0,P|277:36|358:96,2,170,2|8|2,0:0|0:0|0:0,0:0:0:0:
266,142,245828,1,0,0:0:0:0:
266,142,246012,2,0,L|256:243,1,85,8|2,0:0|0:0,0:0:0:0:
247,330,246380,5,0,0:0:0:0:
342,286,246564,1,2,0:0:0:0:
257,226,246748,1,8,0:0:0:0:
159,336,246932,2,0,L|152:145,1,170,8|2,0:0|0:0,0:0:0:0:
206,69,247484,1,10,0:0:0:0:
343,158,247668,1,8,0:0:0:0:
343,158,247760,1,8,0:0:0:0:
343,158,247852,6,0,L|225:176,1,85,4|0,0:0|0:0,0:0:0:0:
294,58,248220,1,8,0:0:0:0:
420,148,248405,1,10,0:0:0:0:
333,257,248589,6,0,L|215:275,1,85,2|0,0:0|0:0,0:0:0:0:
121,185,248957,1,8,0:0:0:0:
206,69,249141,1,2,0:0:0:0:
253,185,249325,6,0,L|249:278,1,85,2|0,0:0|0:0,0:0:0:0:
244,371,249693,1,8,0:0:0:0:
162,282,249877,2,0,L|351:295,1,170,10|0,0:0|0:0,0:0:0:0:
453,189,250429,2,0,L|362:201,1,85,8|0,0:0|0:0,0:0:0:0:
284,103,250797,5,10,0:0:0:0:
303,21,250981,1,8,0:0:0:0:
205,128,251165,1,8,0:0:0:0:
346,161,251349,1,10,0:0:0:0:
224,46,251533,1,8,0:0:0:0:
185,209,251717,1,8,0:0:0:0:
144,69,251902,1,10,0:0:0:0:
264,184,252086,1,8,0:0:0:0:
264,184,252178,1,8,0:0:0:0:
264,184,252270,5,10,0:0:0:0:
102,231,252454,1,8,0:0:0:0:
285,101,252638,1,8,0:0:0:0:
244,267,252822,1,10,0:0:0:0:
369,207,253006,1,8,0:0:0:0:
131,143,253190,1,8,0:0:0:0:
161,317,253374,1,10,0:0:0:0:
218,69,253558,1,8,0:0:0:0:
331,293,253742,5,10,0:0:0:0:
50,185,253926,1,8,0:0:0:0:
341,111,254110,1,8,0:0:0:0:
240,331,254294,5,10,0:0:0:0:
124,74,254478,1,8,0:0:0:0:
373,202,254662,1,10,0:0:0:0:
154,361,254846,1,8,0:0:0:0:
215,103,255030,1,12,0:0:0:0:
154,361,255398,6,0,P|197:309|202:246,1,114.749996498108,4|2,0:0|0:0,0:0:0:0:
215,103,255951,2,0,P|163:146|100:151,2,114.749996498108,4|2|2,0:0|0:0|0:0,0:0:0:0:
230,15,256687,6,0,L|245:212,1,170,4|8,0:0|0:0,0:0:0:0:
302,283,257239,1,8,0:0:0:0:
302,283,257423,2,0,L|386:277,1,85,0|0,0:0|0:0,0:0:0:0:
242,184,257791,2,0,L|158:190,1,85,8|0,0:0|0:0,0:0:0:0:
71,271,258159,5,0,0:0:0:0:
44,157,258343,1,0,0:0:0:0:
157,190,258527,1,8,0:0:0:0:
173,341,258711,1,8,0:0:0:0:
173,341,259079,5,2,0:0:0:0:
277,261,259264,1,10,0:0:0:0:
277,261,259356,1,10,0:0:0:0:
277,261,259448,1,10,0:0:0:0:
157,190,259632,6,0,L|139:92,1,85,4|0,0:0|0:0,0:0:0:0:
212,16,260000,1,8,0:0:0:0:
331,132,260184,2,0,L|222:126,1,85,12|0,0:0|0:0,0:0:0:0:
141,106,260552,5,0,0:0:0:0:
291,42,260736,1,8,0:0:0:0:
295,215,260920,2,0,L|186:209,1,85,12|0,0:0|0:0,0:0:0:0:
97,264,261288,6,0,L|112:344,2,63.7500024318696,2|2|2,0:0|0:0|0:0,0:0:0:0:
210,210,261840,2,0,L|219:132,1,63.7500024318696,2|2,0:0|0:0,0:0:0:0:
167,50,262208,1,2,0:0:0:0:
317,121,262392,1,10,0:0:0:0:
317,121,262760,5,2,0:0:0:0:
317,121,262944,1,2,0:0:0:0:
305,301,263313,6,0,P|279:262|276:213,1,85,2|10,0:0|0:0,0:0:0:0:
296,205,263589,1,10,0:0:0:0:
296,205,263681,1,10,0:0:0:0:
192,248,263865,6,0,B|154:233|154:233|116:271|53:278|53:278|28:230|54:169|54:169|22:141,1,305.999990661621,10|4,0:0|0:0,0:0:0:0:
256,192,264693,12,0,269570,0:0:0:0:
