osu file format v14

[General]
AudioFilename: mmmppp333.mp3
AudioLeadIn: 2000
PreviewTime: 55061
Countdown: 0
SampleSet: Soft
StackLeniency: 0.4
Mode: 0
LetterboxInBreaks: 0
WidescreenStoryboard: 0

[Editor]
DistanceSpacing: 1.1
BeatDivisor: 2
GridSize: 4
TimelineZoom: 1.899999

[Metadata]
Title:Best FriendS
TitleUnicode:Best FriendS
Artist:Fujijo Seitokai Shikkou-bu
ArtistUnicode:藤女生徒会執行部
Creator:sahuang
Version:Easy
Source:LOVE LAB
Tags:kunka n_a_s_y_a nasya Kalibe my angel azusa 恋愛ラブラボ ending kaburagi kotetsu
BeatmapID:1577865
BeatmapSetID:748836

[Difficulty]
HPDrainRate:2
CircleSize:2.5
OverallDifficulty:2
ApproachRate:2
SliderMultiplier:0.799999999999999
SliderTickRate:1

[Events]
//Background and Video events
0,0,"bg.jpg",0,0
//Break Periods
2,170016,180035
2,217132,224207
//Storyboard Layer 0 (Background)
//Storyboard Layer 1 (Fail)
//Storyboard Layer 2 (Pass)
//Storyboard Layer 3 (Foreground)
//Storyboard Sound Samples

[TimingPoints]
491,368.098159509202,4,2,0,50,1,0
491,-100,4,2,0,50,0,0
5644,-100,4,2,1,50,0,0
6380,-100,4,2,1,60,0,0
15583,-100,4,2,1,60,0,0
17607,-100,4,2,1,60,0,0
18067,-100,4,2,1,5,0,0
18159,-100,4,2,1,55,0,0
28466,-100,4,2,1,60,0,0
29938,-100,4,2,1,55,0,0
35276,-100,4,2,1,55,0,0
35828,-100,4,2,1,55,0,0
41717,-100,4,2,1,40,0,0
42086,-100,4,2,1,50,0,0
50184,-100,4,2,1,60,0,0
51840,-100,4,2,1,60,0,0
53313,-100,4,2,1,60,0,0
56441,-100,4,2,1,75,0,1
57546,-100,4,2,1,75,0,1
57914,-100,4,2,1,75,0,1
59018,-100,4,2,1,75,0,1
59386,-100,4,2,1,75,0,1
67484,-100,4,2,1,75,0,1
67852,-100,4,2,1,75,0,1
68037,-100,4,2,1,75,0,0
68589,-100,4,2,1,85,0,1
68957,-100,4,2,1,75,0,1
76135,-100,4,2,1,75,0,1
76687,-100,4,2,1,75,0,1
77055,-100,4,2,1,40,0,1
77607,-100,4,2,1,50,0,1
78159,-100,4,2,1,60,0,1
78527,-100,4,2,1,65,0,1
79079,-100,4,2,1,70,0,1
79632,-100,4,2,1,75,0,1
80000,-100,4,2,1,80,0,1
80552,-100,4,2,1,85,0,1
81288,-100,4,2,1,90,0,1
81656,-100,4,2,1,70,0,1
82944,-100,4,2,0,60,0,0
85337,-100,4,2,1,60,0,0
85889,-100,4,2,1,65,0,0
87546,-100,4,2,1,55,0,0
90122,-100,4,2,1,55,0,0
90675,-100,4,2,1,60,0,0
99509,-100,4,2,1,60,0,0
101349,-100,4,2,1,60,0,0
101533,-100,4,2,1,60,0,0
102086,-100,4,2,1,55,0,0
112392,-100,4,2,1,60,0,0
113865,-100,4,2,1,55,0,0
119202,-100,4,2,1,55,0,0
119754,-100,4,2,1,55,0,0
125644,-100,4,2,1,40,0,0
126012,-100,4,2,1,50,0,0
133742,-100,4,2,1,60,0,0
135767,-100,4,2,1,60,0,0
137147,-100,4,2,1,60,0,0
140368,-100,4,2,1,75,0,1
141472,-100,4,2,1,75,0,1
141840,-100,4,2,1,75,0,1
142944,-100,4,2,1,75,0,1
143313,-100,4,2,1,75,0,1
151411,-100,4,2,1,75,0,1
151779,-100,4,2,1,75,0,1
151963,-100,4,2,1,75,0,0
152515,-100,4,2,1,85,0,1
152883,-100,4,2,1,75,0,1
160981,-100,4,2,1,40,0,1
161533,-100,4,2,1,50,0,1
162086,-100,4,2,1,60,0,1
162454,-100,4,2,1,65,0,1
163006,-100,4,2,1,70,0,1
163558,-100,4,2,1,75,0,1
163926,-100,4,2,1,80,0,1
164478,-100,4,2,1,85,0,1
165214,-100,4,2,1,90,0,1
165583,-100,4,2,1,70,0,1
166871,-100,4,2,1,70,0,0
169816,-100,4,2,1,40,0,0
181595,-100,4,2,0,40,0,0
183067,-100,4,2,0,50,0,0
187484,-100,4,2,1,50,0,0
188957,-100,4,2,1,50,0,0
190429,-100,4,2,1,50,0,0
193374,-100,4,2,1,30,0,0
193742,-100,4,2,1,50,0,0
199264,-100,4,2,1,30,0,0
199632,-100,4,2,1,50,0,0
204233,-100,4,2,1,40,0,0
204601,-100,4,2,1,40,0,0
204969,-100,4,2,1,5,0,0
205153,-100,4,2,1,50,0,0
210306,-100,4,2,1,60,0,0
213803,-100,4,2,1,60,0,0
216012,-100,4,2,1,40,0,0
216748,-100,4,2,1,40,0,0
216932,-100,4,2,1,30,0,0
225398,-100,4,2,1,65,0,0
225767,-100,4,2,1,60,0,0
229448,-100,4,2,1,60,0,0
230184,-100,4,2,1,75,0,1
231288,-100,4,2,1,75,0,1
231656,-100,4,2,1,75,0,1
232760,-100,4,2,1,75,0,1
233129,-100,4,2,1,75,0,1
241227,-100,4,2,1,75,0,1
241595,-100,4,2,1,75,0,1
241779,-100,4,2,1,75,0,0
241963,-100,4,2,1,75,0,0
242331,-100,4,2,1,85,0,1
242699,-100,4,2,1,75,0,1
250797,-100,4,2,1,40,0,1
251349,-100,4,2,1,50,0,1
251902,-100,4,2,1,60,0,1
252270,-100,4,2,1,65,0,1
252822,-100,4,2,1,70,0,1
253374,-100,4,2,1,75,0,1
253742,-100,4,2,1,80,0,1
254294,-100,4,2,1,85,0,1
255030,-100,4,2,1,90,0,1
255398,-100,4,2,1,70,0,1
256687,-100,4,2,0,60,0,0
259079,-100,4,2,1,60,0,0
259632,-100,4,2,1,65,0,0
261288,-100,4,2,1,65,0,0
263313,-100,4,2,1,65,0,0
263865,-100,4,2,1,65,0,0
264601,-100,4,2,1,70,0,0
265521,-100,4,2,1,60,0,0
266257,-100,4,2,1,50,0,0
266994,-100,4,2,1,40,0,0
267730,-100,4,2,1,30,0,0
268466,-100,4,2,1,15,0,0
269570,-100,4,2,1,5,0,0

[Colours]
Combo1 : 0,164,82
Combo2 : 0,128,255
Combo3 : 255,128,64
Combo4 : 232,0,0
Combo5 : 173,90,90

[HitObjects]
34,130,491,6,0,L|124:115,1,79.9999999999999,2|8,0:0|0:0,0:0:0:0:
193,82,1227,2,0,L|283:97,1,79.9999999999999,2|10,0:0|0:0,0:0:0:0:
315,171,1963,2,0,P|296:231|284:305,2,120,2|10|10,0:0|0:0|0:0,0:0:0:0:
361,96,3435,6,0,L|450:90,1,79.9999999999999,2|8,0:0|0:0,0:0:0:0:
501,154,4171,2,0,L|507:243,1,79.9999999999999,2|8,0:0|0:0,0:0:0:0:
454,305,4908,2,0,B|386:351|368:278|302:329,1,160,2|8,0:0|0:0,0:0:0:0:
223,365,6012,1,8,0:0:0:0:
153,310,6380,6,0,L|60:322,2,79.9999999999999,4|10|2,0:0|0:0|0:0,0:0:0:0:
185,228,7484,1,8,0:0:0:0:
268,198,7852,2,0,L|241:47,2,120,0|10|8,0:0|0:0|0:0,0:0:0:0:
342,245,9325,6,0,L|433:229,1,79.9999999999999,0|12,0:0|0:0,0:0:0:0:
426,143,10061,2,0,L|347:156,1,79.9999999999999,0|8,0:0|0:0,0:0:0:0:
268,198,10797,2,0,P|184:204|127:123,1,160,2|2,0:0|0:0,0:0:0:0:
113,68,11902,1,10,0:0:0:0:
186,20,12270,6,0,L|284:31,1,79.9999999999999,14|12,0:0|0:0,0:0:0:0:
347,59,13006,2,0,L|351:203,2,120,2|2|8,0:0|0:0|0:0,0:0:0:0:
433,43,14478,2,0,L|436:133,1,79.9999999999999,2|10,0:0|0:0,0:0:0:0:
455,208,15214,6,0,L|506:216,2,40,2|2|10,0:0|0:0|0:0,0:0:0:0:
432,293,15951,2,0,L|450:341,2,40,2|2|10,0:0|0:0|0:0,0:0:0:0:
346,315,16687,2,0,L|313:355,2,40,2|2|10,0:0|0:0|0:0,0:0:0:0:
302,238,17423,2,0,L|330:178,1,40,10|10,0:0|0:0,0:0:0:0:
402,97,18159,6,0,P|336:55|245:66,1,160,4|2,0:0|0:0,0:0:0:0:
200,127,19264,1,8,0:0:0:0:
112,136,19632,2,0,L|27:125,2,79.9999999999999,2|8|2,0:0|0:0|0:0,0:0:0:0:
163,207,20736,1,8,0:0:0:0:
221,272,21104,6,0,L|300:282,1,79.9999999999999,2|8,0:0|0:0,0:0:0:0:
386,264,21840,2,0,P|432:238|454:200,1,79.9999999999999,2|8,0:0|0:0,0:0:0:0:
460,129,22576,2,0,P|434:98|398:81,2,79.9999999999999,2|8|2,0:0|0:0|0:0,0:0:0:0:
290,178,24049,6,0,L|110:159,1,160,2|2,0:0|0:0,0:0:0:0:
58,211,25153,1,8,0:0:0:0:
98,288,25521,2,0,L|257:304,1,160,2|0,0:0|0:0,0:0:0:0:
344,316,26625,1,8,0:0:0:0:
425,282,26994,6,0,P|473:232|440:132,1,160,2|0,0:0|0:0,0:0:0:0:
380,106,28098,1,8,0:0:0:0:
303,149,28466,2,0,L|232:156,1,40,10|10,0:0|0:0,0:0:0:0:
159,235,29202,2,0,L|88:242,2,40,10|10|0,0:0|0:0|0:0,0:0:0:0:
238,272,29938,6,0,P|278:317|388:320,1,160,4|2,0:0|0:0,0:0:0:0:
442,271,31043,1,8,0:0:0:0:
455,184,31411,2,0,L|466:99,2,79.9999999999999,2|8|2,0:0|0:0|0:0,0:0:0:0:
372,215,32515,1,8,0:0:0:0:
322,142,32883,6,0,L|332:63,1,79.9999999999999,2|8,0:0|0:0,0:0:0:0:
244,66,33619,2,0,L|234:145,1,79.9999999999999,2|8,0:0|0:0,0:0:0:0:
166,202,34356,2,0,P|127:186|71:186,2,79.9999999999999,2|8|2,0:0|0:0|0:0,0:0:0:0:
277,337,35828,6,0,L|428:322,2,120,2|2|8,0:0|0:0|0:0,0:0:0:0:
189,336,37300,2,0,P|122:311|90:217,1,160,0|0,0:0|0:0,0:0:0:0:
109,148,38404,1,8,0:0:0:0:
168,82,38773,6,0,L|259:90,1,79.9999999999999,2|10,0:0|0:0,0:0:0:0:
320,39,39509,2,0,P|398:32|467:92,1,160,2|2,0:0|0:0,0:0:0:0:
476,167,40613,1,8,0:0:0:0:
410,226,40981,2,0,L|409:326,1,79.9999999999999,8|8,0:0|0:0,0:0:0:0:
341,362,41717,5,4,0:0:0:0:
176,297,42454,1,2,0:0:0:0:
241,132,43190,2,0,P|227:85|134:16,1,160,2|2,0:0|0:0,0:0:0:0:
79,181,44662,5,2,0:0:0:0:
239,252,45398,1,2,0:0:0:0:
310,90,46135,2,0,P|387:97|451:148,1,160,2|2,0:0|0:0,0:0:0:0:
390,313,47607,6,0,L|222:302,1,160,2|2,0:0|0:0,0:0:0:0:
152,261,48711,1,2,0:0:0:0:
75,217,49079,2,0,P|53:160|147:116,1,160,2|10,0:0|0:0,0:0:0:0:
177,176,50184,1,8,0:0:0:0:
152,261,50552,6,0,L|304:250,2,120,0|0|8,0:0|0:0|0:0,0:0:0:0:
182,343,52024,2,0,L|286:336,1,79.9999999999999,0|8,0:0|0:0,0:0:0:0:
349,327,52760,2,0,P|411:301|424:219,1,120,0|12,0:0|0:0,0:0:0:0:
256,192,53497,12,10,54969,0:0:0:0:
350,278,56441,6,0,B|273:290|273:290|173:255,1,160,4|2,0:0|0:0,0:0:0:0:
124,210,57546,1,10,0:0:0:0:
134,122,57914,2,0,P|168:73|273:49,1,160,2|2,0:0|0:0,0:0:0:0:
344,72,59018,1,10,0:0:0:0:
408,131,59386,6,0,L|400:221,1,79.9999999999999,2|10,0:0|0:0,0:0:0:0:
331,265,60122,2,0,L|339:355,1,79.9999999999999,2|8,0:0|0:0,0:0:0:0:
252,364,60859,2,0,P|199:321|92:339,1,160,0|2,0:0|0:0,0:0:0:0:
28,357,61963,1,10,0:0:0:0:
40,269,62331,6,0,L|60:109,1,160,2|2,0:0|0:0,0:0:0:0:
112,39,63435,1,8,0:0:0:0:
199,35,63803,2,0,L|336:46,2,120,2|10|10,0:0|0:0|0:0,0:0:0:0:
158,113,65276,6,0,P|175:162|175:253,1,120,2|10,0:0|0:0,0:0:0:0:
133,305,66196,1,10,0:0:0:0:
203,358,66564,2,0,L|341:338,1,120,4|8,0:0|0:0,0:0:0:0:
406,315,67484,1,10,0:0:0:0:
436,232,67852,1,10,0:0:0:0:
399,151,68221,6,0,L|410:45,2,79.9999999999999,2|12|0,0:0|0:0|0:0,0:0:0:0:
323,195,69325,1,8,0:0:0:0:
249,145,69693,2,0,P|210:134|170:134,1,79.9999999999999,2|8,0:0|0:0,0:0:0:0:
166,222,70429,2,0,P|204:232|244:232,1,79.9999999999999,2|8,0:0|0:0,0:0:0:0:
323,195,71165,6,0,L|438:198,2,79.9999999999999,2|8|2,0:0|0:0|0:0,0:0:0:0:
249,145,72270,1,8,0:0:0:0:
177,93,72638,2,0,P|120:74|36:102,2,120,2|10|10,0:0|0:0|0:0,0:0:0:0:
171,180,74110,6,0,B|165:281,1,79.9999999999999,4|8,0:0|0:0,0:0:0:0:
186,345,74846,2,0,P|224:333|264:330,1,79.9999999999999,2|8,0:0|0:0,0:0:0:0:
348,355,75583,2,0,P|399:341|436:285,2,120,2|10|8,0:0|0:0|0:0,0:0:0:0:
352,268,77055,6,0,L|361:114,1,120,10|10,0:0|0:0,0:0:0:0:
334,63,77975,1,8,0:0:0:0:
213,115,78527,2,0,L|204:269,1,120,10|10,0:0|0:0,0:0:0:0:
231,320,79447,1,8,0:0:0:0:
256,192,80000,12,12,81288,0:0:0:0:
224,252,82944,6,0,P|178:272|72:205,2,160,4|0|0,0:0|0:0|0:0,0:0:0:0:
283,186,84785,2,0,L|270:113,1,40,8|8,0:0|0:0,0:0:0:0:
236,20,85521,1,10,0:0:0:0:
150,38,85889,6,0,L|167:182,1,120,4|12,0:0|0:0,0:0:0:0:
135,240,86810,2,0,L|124:312,2,40,0|8|12,0:0|0:0|0:0,0:0:0:0:
222,228,87546,2,0,B|311:256|388:217|388:217|344:154,1,240,2|10,0:0|0:0,0:0:0:0:
290,94,89018,2,0,L|232:99,1,40,2|2,0:0|0:0,0:0:0:0:
170,60,89570,1,2,0:0:0:0:
58,130,90122,6,0,B|16:181|16:181|55:318,1,200,2|2,0:0|0:0,0:0:0:0:
132,347,91411,1,10,0:0:0:0:
213,314,91779,2,0,L|351:325,2,120,2|10|8,0:0|0:0|0:0,0:0:0:0:
158,244,93251,6,0,L|174:153,1,79.9999999999999,0|12,0:0|0:0,0:0:0:0:
220,91,93987,2,0,P|257:86|303:91,1,79.9999999999999,0|8,0:0|0:0,0:0:0:0:
378,127,94723,2,0,B|398:183|380:233|380:233|413:296,1,160,2|8,0:0|0:0,0:0:0:0:
456,349,95828,1,10,0:0:0:0:
368,360,96196,6,0,L|264:346,1,79.9999999999999,0|12,0:0|0:0,0:0:0:0:
210,310,96932,2,0,L|80:330,2,120,2|2|8,0:0|0:0|0:0,0:0:0:0:
216,222,98404,2,0,L|118:237,1,79.9999999999999,2|10,0:0|0:0,0:0:0:0:
81,165,99140,6,0,L|30:157,2,40,2|2|10,0:0|0:0|0:0,0:0:0:0:
104,80,99877,2,0,L|86:32,2,40,2|2|10,0:0|0:0|0:0,0:0:0:0:
190,58,100613,2,0,L|223:18,2,40,2|2|10,0:0|0:0|0:0,0:0:0:0:
239,130,101349,2,0,L|302:115,1,40,10|10,0:0|0:0,0:0:0:0:
371,27,102085,6,0,P|413:93|402:184,1,160,4|2,0:0|0:0,0:0:0:0:
334,220,103190,1,8,0:0:0:0:
287,295,103558,2,0,L|298:380,2,79.9999999999999,2|8|2,0:0|0:0|0:0,0:0:0:0:
214,245,104662,1,8,0:0:0:0:
145,189,105030,6,0,L|135:110,1,79.9999999999999,2|8,0:0|0:0,0:0:0:0:
188,39,105767,2,0,L|277:49,1,79.9999999999999,2|8,0:0|0:0,0:0:0:0:
354,57,106502,2,0,P|385:83|402:119,2,79.9999999999999,2|8|2,0:0|0:0|0:0,0:0:0:0:
226,178,107975,6,0,L|245:358,1,160,2|2,0:0|0:0,0:0:0:0:
324,369,109079,1,8,0:0:0:0:
389,310,109448,2,0,L|372:150,1,160,2|0,0:0|0:0,0:0:0:0:
318,81,110551,1,8,0:0:0:0:
241,37,110920,6,0,P|183:90|102:90,1,160,2|0,0:0|0:0,0:0:0:0:
30,43,112024,1,8,0:0:0:0:
29,130,112392,2,0,P|26:154|22:201,1,40,10|10,0:0|0:0,0:0:0:0:
104,274,113128,2,0,P|98:302|97:345,2,40,10|10|0,0:0|0:0|0:0,0:0:0:0:
175,222,113865,6,0,B|227:244|227:244|354:219,1,160,4|2,0:0|0:0,0:0:0:0:
401,175,114969,1,8,0:0:0:0:
321,136,115337,2,0,L|242:151,2,79.9999999999999,2|8|2,0:0|0:0|0:0,0:0:0:0:
394,88,116441,1,8,0:0:0:0:
315,47,116810,6,0,L|236:62,1,79.9999999999999,2|8,0:0|0:0,0:0:0:0:
157,100,117546,2,0,P|122:117|60:121,1,79.9999999999999,2|8,0:0|0:0,0:0:0:0:
80,210,118282,2,0,P|119:215|155:232,2,79.9999999999999,2|8|2,0:0|0:0|0:0,0:0:0:0:
207,331,119754,6,0,L|355:318,2,120,2|2|8,0:0|0:0|0:0,0:0:0:0:
143,269,121227,2,0,P|148:190|224:146,1,160,0|0,0:0|0:0,0:0:0:0:
297,143,122330,1,8,0:0:0:0:
360,204,122699,6,0,L|367:283,1,79.9999999999999,2|10,0:0|0:0,0:0:0:0:
451,260,123435,2,0,L|443:180,1,79.9999999999999,2|10,0:0|0:0,0:0:0:0:
438,92,124171,2,0,B|414:44|414:44|360:23|278:46,1,160,2|8,0:0|0:0,0:0:0:0:
229,76,125276,1,8,0:0:0:0:
205,160,125643,5,4,0:0:0:0:
74,278,126380,1,2,0:0:0:0:
239,337,127116,2,0,L|421:304,1,160,2|2,0:0|0:0,0:0:0:0:
465,146,128589,5,2,0:0:0:0:
334,28,129324,1,2,0:0:0:0:
301,201,130061,2,0,L|116:183,1,160,2|2,0:0|0:0,0:0:0:0:
239,331,131533,6,0,L|398:346,1,160,2|2,0:0|0:0,0:0:0:0:
469,295,132637,1,2,0:0:0:0:
464,206,133006,2,0,P|466:143|498:78,2,120,2|0|8,0:0|0:0|0:0,0:0:0:0:
376,211,134478,6,0,P|373:148|342:83,2,120,0|0|8,0:0|0:0|0:0,0:0:0:0:
302,259,135950,2,0,L|198:252,1,79.9999999999999,0|8,0:0|0:0,0:0:0:0:
134,241,136687,2,0,L|145:393,1,120,0|4,0:0|0:0,0:0:0:0:
256,192,137423,12,10,138895,0:0:0:0:
120,111,140368,6,0,B|172:99|172:99|198:116|222:96|222:96|273:107,1,160,4|2,0:0|0:0,0:0:0:0:
353,142,141472,1,10,0:0:0:0:
399,216,141840,2,0,B|417:251|411:296|411:296|375:321|336:313,1,160,2|2,0:0|0:0,0:0:0:0:
258,352,142944,1,10,0:0:0:0:
184,302,143313,6,0,L|183:205,1,79.9999999999999,2|10,0:0|0:0,0:0:0:0:
114,167,144049,2,0,L|113:70,1,79.9999999999999,2|8,0:0|0:0,0:0:0:0:
179,29,144785,2,0,B|248:43|297:17|297:17|336:48,1,160,0|2,0:0|0:0,0:0:0:0:
391,101,145889,1,10,0:0:0:0:
343,175,146257,6,0,L|363:335,1,160,2|2,0:0|0:0,0:0:0:0:
282,369,147361,1,8,0:0:0:0:
206,323,147730,2,0,P|156:302|87:309,2,120,2|10|10,0:0|0:0|0:0,0:0:0:0:
282,369,149202,6,0,L|434:354,1,120,2|10,0:0|0:0,0:0:0:0:
463,295,150122,1,10,0:0:0:0:
463,207,150490,2,0,L|444:69,1,120,4|8,0:0|0:0,0:0:0:0:
376,34,151410,1,10,0:0:0:0:
288,44,151778,1,10,0:0:0:0:
246,121,152147,6,0,L|257:227,2,79.9999999999999,0|12|2,0:0|0:0|0:0,0:0:0:0:
177,66,153251,1,8,0:0:0:0:
110,123,153619,2,0,L|121:229,1,79.9999999999999,2|8,0:0|0:0,0:0:0:0:
134,289,154356,2,0,P|178:328|209:330,1,79.9999999999999,2|8,0:0|0:0,0:0:0:0:
284,326,155092,6,0,P|321:314|347:284,2,79.9999999999999,2|8|2,0:0|0:0|0:0,0:0:0:0:
274,238,156196,1,8,0:0:0:0:
348,190,156564,2,0,L|488:198,2,120,2|10|10,0:0|0:0|0:0,0:0:0:0:
283,129,158037,6,0,L|194:123,1,79.9999999999999,4|8,0:0|0:0,0:0:0:0:
184,209,158773,2,0,L|263:214,1,79.9999999999999,2|8,0:0|0:0,0:0:0:0:
325,277,159509,2,0,P|311:328|255:365,2,120,2|10|8,0:0|0:0|0:0,0:0:0:0:
237,275,160981,6,0,L|228:121,1,120,10|10,0:0|0:0,0:0:0:0:
187,77,161901,1,8,0:0:0:0:
313,114,162454,2,0,L|467:123,1,120,10|10,0:0|0:0,0:0:0:0:
504,70,163374,1,8,0:0:0:0:
256,192,163926,12,12,165214,0:0:0:0:
235,126,166871,6,0,P|186:81|108:74,2,120,4|8|8,0:0|0:0|0:0,0:0:0:0:
266,208,168343,1,12,0:0:0:0:
341,253,168711,2,0,L|436:238,2,79.9999999999999,8|8|0,0:0|0:0|3:0,0:0:0:0:
262,294,169816,5,4,0:0:0:0:
164,120,181595,6,0,L|16:106,2,120,4|8|8,0:0|0:0|0:0,0:0:0:0:
239,164,183067,5,0,0:0:0:0:
242,251,183435,1,8,0:0:0:0:
245,338,183803,2,0,P|215:341|190:347,2,40,0|0|8,0:0|0:0|0:0,0:0:0:0:
331,321,184540,6,0,P|391:302|422:290,1,79.9999999999999,2|10,0:0|0:0,0:0:0:0:
459,225,185276,2,0,P|440:165|428:134,1,79.9999999999999,2|8,0:0|0:0,0:0:0:0:
358,104,186012,2,0,P|280:139|190:99,1,160,0|2,0:0|0:0,0:0:0:0:
124,127,187116,1,10,0:0:0:0:
68,195,187484,6,0,L|80:338,2,120,14|10|10,0:0|0:0|0:0,0:0:0:0:
155,207,188957,2,0,L|167:350,2,120,0|0|10,0:0|0:0|0:0,0:0:0:0:
242,216,190429,2,0,L|254:359,2,120,10|10|10,0:0|0:0|0:0,0:0:0:0:
299,149,191902,2,0,P|325:152|351:166,1,40,10|10,0:0|0:0,0:0:0:0:
379,308,193374,6,0,L|274:317,1,79.9999999999999,4|2,0:0|0:0,0:0:0:0:
225,362,194110,2,0,L|164:275,1,79.9999999999999,2|2,0:0|0:0,0:0:0:0:
92,279,194846,2,0,L|136:183,1,79.9999999999999,2|2,0:0|0:0,0:0:0:0:
122,118,195582,2,0,L|227:109,1,79.9999999999999,2|10,0:0|0:0,0:0:0:0:
276,62,196319,6,0,P|333:45|445:179,1,240,2|2,0:0|0:0,0:0:0:0:
405,236,197791,2,0,L|422:378,2,120,2|0|10,0:0|0:0|0:0,0:0:0:0:
330,189,199264,6,0,P|308:219|260:252,1,79.9999999999999,4|2,0:0|0:0,0:0:0:0:
186,244,200000,2,0,P|154:219|130:187,1,79.9999999999999,2|2,0:0|0:0,0:0:0:0:
124,100,200736,2,0,P|146:70|194:37,1,79.9999999999999,2|2,0:0|0:0,0:0:0:0:
268,45,201472,2,0,P|299:69|323:101,1,79.9999999999999,2|10,0:0|0:0,0:0:0:0:
330,189,202208,6,0,B|313:282|362:352|362:352|437:309,1,240,2|2,0:0|0:0,0:0:0:0:
487,258,203681,2,0,L|472:105,1,120,10|12,0:0|0:0,0:0:0:0:
432,61,204601,2,0,P|376:39|318:50,1,120,12|4,0:0|0:0,0:0:0:0:
245,98,205521,6,0,L|144:75,2,79.9999999999999,2|2|2,0:0|0:0|0:0,0:0:0:0:
243,185,206625,2,0,L|142:162,1,79.9999999999999,2|2,0:0|0:0,0:0:0:0:
119,243,207362,2,0,L|197:260,1,79.9999999999999,2|10,0:0|0:0,0:0:0:0:
281,286,208098,5,2,0:0:0:0:
425,185,208834,1,2,0:0:0:0:
335,33,209570,2,0,P|282:72|183:57,1,160,2|2,0:0|0:0,0:0:0:0:
53,171,211043,6,0,L|69:311,2,120,0|0|8,0:0|0:0|0:0,0:0:0:0:
140,181,212515,2,0,L|150:266,1,79.9999999999999,0|8,0:0|0:0,0:0:0:0:
212,321,213251,2,0,P|269:343|346:298,1,120,0|12,0:0|0:0,0:0:0:0:
256,192,213987,12,10,215460,0:0:0:0:
322,325,216932,5,12,0:0:0:0:
177,118,225767,6,0,L|190:276,2,120,12|8|8,0:0|0:0|0:0,0:0:0:0:
256,192,227055,12,10,228711,0:0:0:0:
319,50,230184,6,0,L|340:209,1,160,4|2,0:0|0:0,0:0:0:0:
306,289,231288,1,10,0:0:0:0:
232,335,231656,2,0,B|197:353|152:347|152:347|127:311|135:272,1,160,2|2,0:0|0:0,0:0:0:0:
158,188,232760,1,10,0:0:0:0:
138,101,233129,6,0,L|235:100,1,79.9999999999999,2|10,0:0|0:0,0:0:0:0:
283,41,233865,2,0,L|380:40,1,79.9999999999999,2|8,0:0|0:0,0:0:0:0:
430,96,234601,2,0,B|460:170|460:170|443:261,1,160,0|2,0:0|0:0,0:0:0:0:
384,312,235705,1,10,0:0:0:0:
321,250,236073,6,0,P|244:230|161:270,1,160,2|2,0:0|0:0,0:0:0:0:
116,327,237177,1,8,0:0:0:0:
85,244,237546,2,0,P|47:203|49:128,2,120,2|10|10,0:0|0:0|0:0,0:0:0:0:
127,166,239018,6,0,P|171:126|184:49,1,120,2|10,0:0|0:0,0:0:0:0:
254,13,239938,1,10,0:0:0:0:
325,64,240306,2,0,P|340:121|384:160,1,120,12|8,0:0|0:0,0:0:0:0:
470,141,241226,1,10,0:0:0:0:
508,220,241594,1,10,0:0:0:0:
441,278,241963,6,0,L|452:384,2,79.9999999999999,10|12|2,0:0|0:0|0:0,0:0:0:0:
357,249,243067,1,8,0:0:0:0:
281,294,243435,2,0,L|175:305,1,79.9999999999999,2|8,0:0|0:0,0:0:0:0:
113,305,244172,2,0,P|79:279|61:234,1,79.9999999999999,2|8,0:0|0:0,0:0:0:0:
62,158,244908,6,0,P|80:122|111:99,2,79.9999999999999,2|8|2,0:0|0:0|0:0,0:0:0:0:
147,178,246012,1,8,0:0:0:0:
223,221,246380,2,0,P|274:248|350:223,2,120,0|8|10,0:0|0:0|0:0,0:0:0:0:
225,133,247852,6,0,L|231:35,1,79.9999999999999,4|8,0:0|0:0,0:0:0:0:
317,41,248589,2,0,L|312:120,1,79.9999999999999,2|8,0:0|0:0,0:0:0:0:
371,185,249325,2,0,L|508:163,2,120,2|10|8,0:0|0:0|0:0,0:0:0:0:
294,227,250797,6,0,P|255:270|183:284,1,120,10|10,0:0|0:0,0:0:0:0:
112,260,251717,1,8,0:0:0:0:
74,133,252270,2,0,P|113:90|185:76,1,120,10|10,0:0|0:0,0:0:0:0:
256,100,253190,1,8,0:0:0:0:
256,192,253742,12,12,255030,0:0:0:0:
141,305,256687,6,0,L|325:286,1,160,4|0,0:0|0:0,0:0:0:0:
387,278,257791,1,8,0:0:0:0:
465,238,258159,2,0,P|482:181|440:97,1,120,0|8,0:0|0:0,0:0:0:0:
355,50,259264,1,10,0:0:0:0:
281,97,259632,6,0,L|135:82,1,120,4|12,0:0|0:0,0:0:0:0:
76,63,260552,2,0,L|69:3,2,40,0|8|12,0:0|0:0|0:0,0:0:0:0:
99,147,261288,6,0,P|68:196|191:265,1,240,2|10,0:0|0:0,0:0:0:0:
254,208,262760,2,0,L|329:216,1,40,2|2,0:0|0:0,0:0:0:0:
366,261,263313,2,0,L|520:243,1,120,2|10,0:0|0:0,0:0:0:0:
256,192,264601,12,0,269570,0:0:0:0:
