osu file format v14

[General]
AudioFilename: mmmppp333.mp3
AudioLeadIn: 2000
PreviewTime: 55061
Countdown: 0
SampleSet: Soft
StackLeniency: 0.4
Mode: 0
LetterboxInBreaks: 0
WidescreenStoryboard: 0

[Editor]
Bookmarks: 102086,230184
DistanceSpacing: 1
BeatDivisor: 4
GridSize: 4
TimelineZoom: 2.599999

[Metadata]
Title:Best FriendS
TitleUnicode:Best FriendS
Artist:Fujijo Seitokai Shikkou-bu
ArtistUnicode:藤女生徒会執行部
Creator:sahuang
Version:Collab Normal
Source:LOVE LAB
Tags:kunka n_a_s_y_a nasya Kalibe my angel azusa 恋愛ラブラボ ending kaburagi kotetsu
BeatmapID:1585219
BeatmapSetID:748836

[Difficulty]
HPDrainRate:3
CircleSize:3.5
OverallDifficulty:4
ApproachRate:5
SliderMultiplier:0.999999999999999
SliderTickRate:1

[Events]
//Background and Video events
0,0,"bg.jpg",0,0
//Break Periods
2,170016,180395
2,217132,224567
//Storyboard Layer 0 (Background)
//Storyboard Layer 1 (Fail)
//Storyboard Layer 2 (Pass)
//Storyboard Layer 3 (Foreground)
//Storyboard Sound Samples

[TimingPoints]
491,368.098159509202,4,2,0,50,1,0
491,-111.111111111111,4,2,0,50,0,0
5644,-111.111111111111,4,2,1,50,0,0
6380,-100,4,2,1,60,0,0
18159,-100,4,2,1,55,0,0
28466,-100,4,2,1,60,0,0
29938,-100,4,2,1,55,0,0
41717,-100,4,2,1,40,0,0
42086,-100,4,2,1,50,0,0
50184,-100,4,2,1,60,0,0
56441,-100,4,2,1,75,0,1
68037,-100,4,2,1,75,0,0
68589,-100,4,2,1,85,0,1
68957,-100,4,2,1,75,0,1
77055,-100,4,2,1,40,0,1
77607,-100,4,2,1,50,0,1
78159,-100,4,2,1,60,0,1
78527,-100,4,2,1,65,0,1
79079,-100,4,2,1,70,0,1
79632,-100,4,2,1,75,0,1
80000,-100,4,2,1,80,0,1
80552,-100,4,2,1,85,0,1
81288,-100,4,2,1,90,0,1
81656,-100,4,2,1,70,0,1
82944,-100,4,2,0,60,0,0
85337,-100,4,2,1,60,0,0
85889,-100,4,2,1,65,0,0
87546,-100,4,2,1,55,0,0
90675,-100,4,2,1,60,0,0
102086,-100,4,2,1,55,0,0
112392,-100,4,2,1,60,0,0
113865,-100,4,2,1,55,0,0
125644,-100,4,2,1,40,0,0
126012,-100,4,2,1,50,0,0
133742,-100,4,2,1,60,0,0
140368,-100,4,2,1,75,0,1
151963,-100,4,2,1,75,0,0
152515,-100,4,2,1,85,0,1
152883,-100,4,2,1,75,0,1
160981,-100,4,2,1,40,0,1
161533,-100,4,2,1,50,0,1
162086,-100,4,2,1,60,0,1
162454,-100,4,2,1,65,0,1
163006,-100,4,2,1,70,0,1
163558,-100,4,2,1,75,0,1
163926,-100,4,2,1,80,0,1
164478,-100,4,2,1,85,0,1
165214,-100,4,2,1,90,0,1
165583,-100,4,2,1,70,0,1
166871,-100,4,2,1,70,0,0
169816,-100,4,2,1,40,0,0
181595,-100,4,2,0,40,0,0
183067,-100,4,2,0,50,0,0
187484,-100,4,2,1,50,0,0
193374,-100,4,2,1,30,0,0
193742,-100,4,2,1,50,0,0
199264,-100,4,2,1,30,0,0
199632,-100,4,2,1,50,0,0
204233,-100,4,2,1,40,0,0
205153,-100,4,2,1,50,0,0
210306,-100,4,2,1,60,0,0
216012,-100,4,2,1,40,0,0
216932,-100,4,2,1,30,0,0
225398,-100,4,2,1,65,0,0
225767,-100,4,2,1,60,0,0
230184,-100,4,2,1,75,0,1
241779,-100,4,2,1,75,0,0
242331,-100,4,2,1,85,0,1
242699,-100,4,2,1,75,0,1
250797,-100,4,2,1,40,0,1
251349,-100,4,2,1,50,0,1
251902,-100,4,2,1,60,0,1
252270,-100,4,2,1,65,0,1
252822,-100,4,2,1,70,0,1
253374,-100,4,2,1,75,0,1
253742,-100,4,2,1,80,0,1
254294,-100,4,2,1,85,0,1
255030,-100,4,2,1,90,0,1
255398,-100,4,2,1,70,0,1
256687,-100,4,2,0,60,0,0
259079,-100,4,2,1,60,0,0
264601,-100,4,2,1,70,0,0
265521,-100,4,2,1,60,0,0
266257,-100,4,2,1,50,0,0
266994,-100,4,2,1,40,0,0
267730,-100,4,2,1,30,0,0
268466,-100,4,2,1,15,0,0
269570,-100,4,2,1,5,0,0

[Colours]
Combo1 : 0,164,82
Combo2 : 0,128,255
Combo3 : 255,128,64
Combo4 : 232,0,0
Combo5 : 173,90,90

[HitObjects]
402,29,491,6,0,P|382:72|386:114,1,89.999997253418,2|8,0:0|0:0,0:0:0:0:
410,150,1043,1,8,0:0:0:0:
444,178,1227,2,0,P|464:221|460:263,1,89.999997253418,2|10,0:0|0:0,0:0:0:0:
395,324,1963,2,0,L|401:368,2,44.999998626709,2|2|8,0:0|0:0|0:0,0:0:0:0:
356,301,2515,2,0,B|275:261|275:261|231:271,1,134.999995880127,10|10,0:0|0:0,0:0:0:0:
145,299,3435,6,0,P|141:254|161:214,1,89.999997253418,2|8,0:0|0:0,0:0:0:0:
196,187,3987,1,8,0:0:0:0:
239,177,4171,2,0,L|248:85,1,89.999997253418,2|8,0:0|0:0,0:0:0:0:
160,64,4908,2,0,L|164:19,2,44.999998626709,2|2|8,0:0|0:0|0:0,0:0:0:0:
127,95,5460,1,8,0:0:0:0:
103,133,5644,2,0,P|99:177|119:217,1,89.999997253418,8|8,0:0|0:0,0:0:0:0:
191,286,6380,6,0,P|235:271|287:279,1,99.9999999999999,4|10,0:0|0:0,0:0:0:0:
332,298,6932,1,0,0:0:0:0:
374,324,7116,2,0,P|381:273|390:225,1,99.9999999999999,2|8,0:0|0:0,0:0:0:0:
416,183,7668,1,2,0:0:0:0:
456,153,7852,2,0,P|449:102|440:54,1,99.9999999999999,0|10,0:0|0:0,0:0:0:0:
417,9,8405,1,10,0:0:0:0:
345,78,8773,2,0,P|349:102|352:127,2,50,2|8|2,0:0|0:0|0:0,0:0:0:0:
322,33,9325,5,0,0:0:0:0:
225,60,9693,2,0,P|181:45|129:53,1,99.9999999999999,12|0,0:0|0:0,0:0:0:0:
85,78,10245,1,2,0:0:0:0:
85,78,10429,1,8,0:0:0:0:
40,167,10797,2,0,P|31:215|47:262,1,99.9999999999999,2|10,0:0|0:0,0:0:0:0:
86,293,11349,1,8,0:0:0:0:
135,301,11533,2,0,P|159:304|184:308,1,50,2|8,0:0|0:0,0:0:0:0:
225,337,11902,2,0,P|249:333|274:329,1,50,10|8,0:0|0:0,0:0:0:0:
323,320,12270,5,14,0:0:0:0:
419,345,12638,1,12,0:0:0:0:
463,255,13006,2,0,P|487:250|512:247,2,50,2|0|10,0:0|0:0|0:0,0:0:0:0:
418,231,13558,1,2,0:0:0:0:
375,204,13742,2,0,P|370:179|367:154,1,50,0|2,0:0|0:0,0:0:0:0:
401,118,14110,2,0,P|405:93|408:68,1,50,8|8,0:0|0:0,0:0:0:0:
378,28,14478,2,0,P|333:4|283:4,1,99.9999999999999,2|10,0:0|0:0,0:0:0:0:
195,47,15214,6,0,P|190:71|187:96,1,50,2|2,0:0|0:0,0:0:0:0:
175,145,15583,1,10,0:0:0:0:
265,188,15951,2,0,P|269:212|272:237,1,50,2|2,0:0|0:0,0:0:0:0:
285,286,16320,1,10,0:0:0:0:
220,362,16687,2,0,P|195:366|170:369,1,50,2|2,0:0|0:0,0:0:0:0:
129,341,17055,2,0,P|104:345|79:348,1,50,10|10,0:0|0:0,0:0:0:0:
38,320,17423,1,10,0:0:0:0:
38,320,17607,1,10,0:0:0:0:
3,174,18159,6,0,P|52:166|99:182,1,99.9999999999999,4|8,0:0|0:0,0:0:0:0:
134,216,18711,1,0,0:0:0:0:
167,252,18895,2,0,L|271:241,1,99.9999999999999,2|8,0:0|0:0,0:0:0:0:
363,265,19632,2,0,P|367:240|370:215,1,50,2|0,0:0|0:0,0:0:0:0:
400,175,20000,2,0,P|397:150|393:125,1,50,8|0,0:0|0:0,0:0:0:0:
358,88,20368,2,0,P|311:72|262:80,1,99.9999999999999,2|8,0:0|0:0,0:0:0:0:
200,158,21104,6,0,L|211:262,1,99.9999999999999,2|8,0:0|0:0,0:0:0:0:
166,280,21656,1,0,0:0:0:0:
118,265,21840,2,0,L|107:165,1,99.9999999999999,2|8,0:0|0:0,0:0:0:0:
147,73,22576,2,0,P|168:63|197:58,1,50,2|0,0:0|0:0,0:0:0:0:
243,66,22944,2,0,P|264:76|293:81,1,50,8|0,0:0|0:0,0:0:0:0:
339,71,23313,2,0,P|384:48|435:50,1,99.9999999999999,2|8,0:0|0:0,0:0:0:0:
405,145,24049,5,2,0:0:0:0:
433,240,24417,2,0,P|436:264|439:289,1,50,8|0,0:0|0:0,0:0:0:0:
417,334,24785,2,0,P|372:357|321:355,1,99.9999999999999,2|8,0:0|0:0,0:0:0:0:
240,299,25521,2,0,P|188:308|143:328,1,99.9999999999999,2|8,0:0|0:0,0:0:0:0:
101,302,26073,2,0,P|92:250|72:205,1,99.9999999999999,2|0,0:0|0:0,0:0:0:0:
45,165,26625,1,8,0:0:0:0:
79,69,26994,6,0,P|124:46|175:48,1,99.9999999999999,2|8,0:0|0:0,0:0:0:0:
220,62,27546,1,2,0:0:0:0:
249,102,27730,2,0,P|246:126|243:151,1,50,0|0,0:0|0:0,0:0:0:0:
214,192,28098,2,0,P|218:216|221:241,1,50,8|0,0:0|0:0,0:0:0:0:
268,259,28466,1,10,0:0:0:0:
268,259,28650,1,10,0:0:0:0:
411,211,29202,2,0,P|407:235|405:260,2,50,10|10|0,0:0|0:0|0:0,0:0:0:0:
471,131,29938,6,0,P|421:112|376:119,1,99.9999999999999,4|8,0:0|0:0,0:0:0:0:
328,135,30490,1,0,0:0:0:0:
288,103,30675,2,0,P|238:84|193:91,1,99.9999999999999,2|8,0:0|0:0,0:0:0:0:
103,135,31411,2,0,P|106:160|110:185,1,50,2|0,0:0|0:0,0:0:0:0:
149,214,31779,2,0,P|146:239|142:264,1,50,8|0,0:0|0:0,0:0:0:0:
168,305,32147,2,0,P|218:324|263:317,1,99.9999999999999,2|8,0:0|0:0,0:0:0:0:
354,276,32883,6,0,L|458:287,1,99.9999999999999,2|8,0:0|0:0,0:0:0:0:
476,242,33435,1,0,0:0:0:0:
461,194,33619,2,0,L|361:183,1,99.9999999999999,2|8,0:0|0:0,0:0:0:0:
270,224,34356,2,0,P|245:227|220:230,1,50,2|0,0:0|0:0,0:0:0:0:
178,258,34724,2,0,P|153:254|128:251,1,50,8|0,0:0|0:0,0:0:0:0:
93,215,35092,2,0,P|68:218|43:221,2,50,2|4|8,0:0|0:0|0:0,0:0:0:0:
166,147,35828,5,2,0:0:0:0:
166,147,36012,2,0,P|169:122|172:97,2,50,0|8|2,0:0|0:0|0:0,0:0:0:0:
220,230,36748,2,0,P|216:254|213:279,2,50,2|8|2,0:0|0:0|0:0,0:0:0:0:
297,167,37484,2,0,P|300:142|303:117,2,50,2|8|2,0:0|0:0|0:0,0:0:0:0:
351,250,38221,1,2,0:0:0:0:
351,250,38405,2,0,P|399:273|444:270,1,99.9999999999999,8|2,0:0|0:0,0:0:0:0:
505,191,39141,5,10,0:0:0:0:
487,92,39509,1,2,0:0:0:0:
390,66,39877,1,10,0:0:0:0:
303,117,40245,2,0,L|321:216,1,99.9999999999999,2|8,0:0|0:0,0:0:0:0:
331,264,40797,1,0,0:0:0:0:
321,313,40981,1,8,0:0:0:0:
233,264,41349,1,8,0:0:0:0:
139,299,41717,6,0,P|89:301|45:278,1,99.9999999999999,4|2,0:0|0:0,0:0:0:0:
21,234,42270,1,0,0:0:0:0:
30,185,42454,2,0,P|41:135|35:86,1,99.9999999999999,2|2,0:0|0:0,0:0:0:0:
113,24,43190,2,0,P|137:20|162:17,1,50,2|0,0:0|0:0,0:0:0:0:
207,39,43558,2,0,P|231:42|256:45,1,50,2|0,0:0|0:0,0:0:0:0:
303,28,43926,1,2,0:0:0:0:
354,113,44294,2,0,P|351:137|347:162,1,50,10|0,0:0|0:0,0:0:0:0:
345,212,44662,6,0,L|356:312,1,99.9999999999999,2|2,0:0|0:0,0:0:0:0:
404,327,45214,1,0,0:0:0:0:
448,305,45398,2,0,L|437:205,1,99.9999999999999,2|2,0:0|0:0,0:0:0:0:
346,162,46135,2,0,P|321:158|296:154,1,50,2|0,0:0|0:0,0:0:0:0:
249,136,46503,2,0,P|224:139|199:143,1,50,2|0,0:0|0:0,0:0:0:0:
151,156,46871,2,0,P|128:199|130:249,1,99.9999999999999,2|10,0:0|0:0,0:0:0:0:
192,327,47607,6,0,P|241:323|285:344,1,99.9999999999999,2|2,0:0|0:0,0:0:0:0:
334,358,48159,1,0,0:0:0:0:
382,345,48343,2,0,P|403:300|399:251,1,99.9999999999999,2|2,0:0|0:0,0:0:0:0:
324,184,49079,2,0,P|320:159|316:134,1,50,2|0,0:0|0:0,0:0:0:0:
356,103,49448,2,0,P|359:78|363:53,1,50,2|0,0:0|0:0,0:0:0:0:
329,16,49816,1,10,0:0:0:0:
279,15,50000,6,0,P|254:11|229:7,2,50,0|8|0,0:0|0:0|0:0,0:0:0:0:
306,110,50736,2,0,P|330:106|355:102,2,50,0|8|0,0:0|0:0|0:0,0:0:0:0:
226,170,51472,2,0,P|201:166|176:162,2,50,0|8|0,0:0|0:0|0:0,0:0:0:0:
253,265,52208,2,0,P|277:261|302:257,2,50,0|8|0,0:0|0:0|0:0,0:0:0:0:
210,290,52760,2,0,P|185:286|160:282,2,50,0|8|8,0:0|0:0|0:0,0:0:0:0:
227,337,53313,5,12,0:0:0:0:
256,192,53497,12,10,54969,0:0:0:0:
256,192,55705,6,0,P|260:217|264:242,2,50,8|8|8,0:0|0:0|0:0,0:0:0:0:
193,114,56441,6,0,P|236:93|291:98,1,99.9999999999999,4|8,0:0|0:0,0:0:0:0:
333,115,56994,1,10,0:0:0:0:
333,115,57178,1,2,0:0:0:0:
425,77,57546,1,10,0:0:0:0:
473,164,57914,2,0,P|484:210|468:263,1,99.9999999999999,2|8,0:0|0:0,0:0:0:0:
448,304,58466,1,10,0:0:0:0:
448,304,58650,1,2,0:0:0:0:
354,269,59018,1,10,0:0:0:0:
269,323,59386,6,0,L|169:334,1,99.9999999999999,2|10,0:0|0:0,0:0:0:0:
147,290,59938,1,8,0:0:0:0:
162,242,60122,2,0,L|262:231,1,99.9999999999999,2|8,0:0|0:0,0:0:0:0:
354,269,60859,2,0,P|358:244|362:219,1,50,0|2,0:0|0:0,0:0:0:0:
400,187,61227,2,0,P|396:162|392:137,1,50,8|10,0:0|0:0,0:0:0:0:
359,100,61595,1,2,0:0:0:0:
266,61,61963,2,0,P|241:65|216:69,1,50,10|0,0:0|0:0,0:0:0:0:
174,41,62331,6,0,P|124:37|80:58,1,99.9999999999999,2|8,0:0|0:0,0:0:0:0:
50,99,62883,1,10,0:0:0:0:
56,148,63067,2,0,P|70:195|75:245,1,99.9999999999999,2|8,0:0|0:0,0:0:0:0:
84,294,63619,1,2,0:0:0:0:
123,325,63803,2,0,P|148:329|173:333,1,50,2|0,0:0|0:0,0:0:0:0:
211,301,64171,2,0,P|236:297|261:293,2,50,8|10|0,0:0|0:0|0:0,0:0:0:0:
274,378,64908,2,0,P|299:374|324:370,1,50,10|0,0:0|0:0,0:0:0:0:
362,339,65276,6,0,P|374:292|359:239,1,99.9999999999999,2|8,0:0|0:0,0:0:0:0:
329,204,65829,1,10,0:0:0:0:
232,177,66196,1,10,0:0:0:0:
137,209,66564,2,0,P|131:161|155:111,1,99.9999999999999,4|0,0:0|0:0,0:0:0:0:
182,74,67116,2,0,P|207:78|232:82,1,50,8|0,0:0|0:0,0:0:0:0:
268,48,67484,2,0,P|293:44|318:40,2,50,10|0|10,0:0|0:0|0:0,0:0:0:0:
283,146,68221,6,0,L|262:252,1,99.9999999999999,2|12,0:0|0:0,0:0:0:0:
270,293,68773,1,0,0:0:0:0:
309,324,68957,2,0,P|353:303|402:307,1,99.9999999999999,0|8,0:0|0:0,0:0:0:0:
467,230,69693,2,0,P|471:205|475:180,1,50,2|0,0:0|0:0,0:0:0:0:
452,135,70061,1,8,0:0:0:0:
378,67,70429,2,0,P|353:63|328:59,1,50,2|0,0:0|0:0,0:0:0:0:
286,85,70797,2,0,P|261:89|236:93,1,50,8|0,0:0|0:0,0:0:0:0:
197,123,71165,6,0,P|151:102|102:107,1,99.9999999999999,2|8,0:0|0:0,0:0:0:0:
59,132,71717,1,0,0:0:0:0:
30,173,71902,2,0,P|44:220|49:270,1,99.9999999999999,2|8,0:0|0:0,0:0:0:0:
88,364,72638,2,0,P|113:368|138:372,1,50,2|0,0:0|0:0,0:0:0:0:
176,340,73006,2,0,P|201:336|226:332,1,50,8|10,0:0|0:0,0:0:0:0:
268,357,73374,2,0,P|317:361|362:341,1,99.9999999999999,0|10,0:0|0:0,0:0:0:0:
300,262,74110,6,0,P|345:241|394:246,1,99.9999999999999,4|8,0:0|0:0,0:0:0:0:
439,266,74662,1,10,0:0:0:0:
479,236,74846,2,0,L|491:137,1,99.9999999999999,2|8,0:0|0:0,0:0:0:0:
460,97,75398,1,2,0:0:0:0:
419,67,75583,2,0,P|394:63|369:59,1,50,2|0,0:0|0:0,0:0:0:0:
327,85,75951,2,0,P|302:89|277:93,2,50,8|10|0,0:0|0:0|0:0,0:0:0:0:
317,184,76687,2,0,P|292:188|267:192,1,50,8|0,0:0|0:0,0:0:0:0:
243,235,77055,6,0,P|247:284|227:329,1,99.9999999999999,10|8,0:0|0:0,0:0:0:0:
184,356,77607,1,10,0:0:0:0:
134,348,77791,2,0,P|86:332|37:338,1,99.9999999999999,8|10,0:0|0:0,0:0:0:0:
50,238,78527,2,0,P|100:236|149:250,1,99.9999999999999,10|8,0:0|0:0,0:0:0:0:
197,255,79079,1,10,0:0:0:0:
243,235,79264,2,0,P|290:221|340:223,1,99.9999999999999,8|10,0:0|0:0,0:0:0:0:
417,287,80000,6,0,P|437:241|433:192,1,99.9999999999999,10|8,0:0|0:0,0:0:0:0:
403,152,80552,2,0,P|357:131|308:135,1,99.9999999999999,10|10,0:0|0:0,0:0:0:0:
264,158,81104,1,8,0:0:0:0:
264,158,81288,1,12,0:0:0:0:
177,107,81656,6,0,L|168:32,2,74.9999999999999,4|2|4,0:0|0:0|0:0,0:0:0:0:
129,165,82484,2,0,L|140:243,1,74.9999999999999,2|2,0:0|0:0,0:0:0:0:
155,286,82944,6,0,P|200:306|249:302,1,99.9999999999999,4|8,0:0|0:0,0:0:0:0:
295,281,83497,1,8,0:0:0:0:
333,248,83681,2,0,P|378:227|427:231,1,99.9999999999999,0|8,0:0|0:0,0:0:0:0:
475,246,84233,1,0,0:0:0:0:
504,205,84417,2,0,P|509:155|493:108,1,99.9999999999999,0|8,0:0|0:0,0:0:0:0:
470,64,84969,1,8,0:0:0:0:
370,51,85337,6,0,P|366:26|362:1,2,50,2|10|10,0:0|0:0|0:0,0:0:0:0:
300,123,86073,2,0,P|304:148|308:173,2,50,0|8|12,0:0|0:0|0:0,0:0:0:0:
200,110,86810,2,0,P|196:85|192:60,2,50,0|8|12,0:0|0:0|0:0,0:0:0:0:
147,195,87546,2,0,P|122:199|97:203,2,50,2|2|2,0:0|0:0|0:0,0:0:0:0:
192,215,88098,2,0,P|196:240|200:265,2,50,2|2|2,0:0|0:0|0:0,0:0:0:0:
240,201,88650,5,10,0:0:0:0:
200,110,89018,1,2,0:0:0:0:
200,110,89202,1,2,0:0:0:0:
257,28,89570,2,0,P|302:7|351:11,1,99.9999999999999,2|2,0:0|0:0,0:0:0:0:
433,65,90306,6,0,P|432:113|435:165,1,99.9999999999999,0|8,0:0|0:0,0:0:0:0:
441,214,90859,1,0,0:0:0:0:
438,263,91043,2,0,P|398:292|349:300,1,99.9999999999999,2|10,0:0|0:0,0:0:0:0:
299,302,91595,1,0,0:0:0:0:
263,267,91779,2,0,P|223:237|174:229,1,99.9999999999999,2|10,0:0|0:0,0:0:0:0:
124,234,92331,1,10,0:0:0:0:
44,294,92699,2,0,P|48:319|52:344,2,50,2|8|2,0:0|0:0|0:0,0:0:0:0:
1,268,93251,5,0,0:0:0:0:
47,179,93619,2,0,P|86:149|135:141,1,99.9999999999999,12|0,0:0|0:0,0:0:0:0:
185,143,94171,1,2,0:0:0:0:
185,143,94356,1,8,0:0:0:0:
215,238,94724,2,0,P|222:286|252:326,1,99.9999999999999,2|10,0:0|0:0,0:0:0:0:
290,358,95276,1,8,0:0:0:0:
338,344,95460,2,0,P|363:348|388:352,1,50,8|2,0:0|0:0,0:0:0:0:
419,313,95828,2,0,P|444:309|469:305,1,50,10|10,0:0|0:0,0:0:0:0:
502,268,96196,5,0,0:0:0:0:
463,175,96564,1,12,0:0:0:0:
424,82,96932,2,0,P|428:57|432:32,2,50,2|2|8,0:0|0:0|0:0,0:0:0:0:
387,115,97484,1,2,0:0:0:0:
364,159,97668,2,0,P|339:163|314:167,1,50,0|2,0:0|0:0,0:0:0:0:
273,196,98037,2,0,P|248:192|223:188,1,50,8|8,0:0|0:0,0:0:0:0:
180,213,98405,2,0,P|131:220|84:204,1,99.9999999999999,2|10,0:0|0:0,0:0:0:0:
140,121,99141,6,0,P|144:96|148:71,1,50,2|2,0:0|0:0,0:0:0:0:
181,35,99509,1,10,0:0:0:0:
259,97,99877,2,0,P|255:122|251:147,1,50,2|2,0:0|0:0,0:0:0:0:
223,188,100245,1,10,0:0:0:0:
270,275,100613,2,0,P|295:279|320:283,1,50,2|2,0:0|0:0,0:0:0:0:
356,315,100981,2,0,P|381:311|406:307,1,50,10|10,0:0|0:0,0:0:0:0:
449,283,101349,1,10,0:0:0:0:
449,283,101533,1,10,0:0:0:0:
489,138,102086,6,0,L|475:22,1,99.9999999999999,4|8,0:0|0:0,0:0:0:0:
433,14,102638,1,0,0:0:0:0:
390,40,102822,2,0,P|349:58|283:56,1,99.9999999999999,2|8,0:0|0:0,0:0:0:0:
201,20,103559,2,0,P|197:45|194:70,1,50,2|0,0:0|0:0,0:0:0:0:
153,98,103927,2,0,P|156:123|160:148,1,50,8|0,0:0|0:0,0:0:0:0:
183,191,104295,2,0,P|167:238|175:287,1,99.9999999999999,2|8,0:0|0:0,0:0:0:0:
254,347,105031,6,0,L|358:358,1,99.9999999999999,2|8,0:0|0:0,0:0:0:0:
400,340,105583,1,0,0:0:0:0:
447,323,105767,2,0,P|459:268|447:221,1,99.9999999999999,2|8,0:0|0:0,0:0:0:0:
401,139,106503,2,0,P|380:129|351:124,1,50,2|0,0:0|0:0,0:0:0:0:
306,140,106871,2,0,P|285:150|256:155,1,50,8|0,0:0|0:0,0:0:0:0:
209,164,107240,2,0,L|222:50,2,99.9999999999999,2|8|2,0:0|0:0|0:0,0:0:0:0:
123,214,108343,6,0,P|120:238|117:263,1,50,8|0,0:0|0:0,0:0:0:0:
118,313,108712,2,0,P|163:336|214:334,1,99.9999999999999,2|8,0:0|0:0,0:0:0:0:
300,290,109448,2,0,L|409:276,1,99.9999999999999,2|8,0:0|0:0,0:0:0:0:
440,249,110000,2,0,L|427:149,1,99.9999999999999,2|0,0:0|0:0,0:0:0:0:
423,99,110552,1,8,0:0:0:0:
338,44,110921,6,0,P|293:21|242:23,1,99.9999999999999,2|8,0:0|0:0,0:0:0:0:
197,40,111473,1,2,0:0:0:0:
197,40,111657,2,0,P|194:64|191:89,1,50,0|0,0:0|0:0,0:0:0:0:
162,130,112025,2,0,P|166:154|169:179,1,50,8|0,0:0|0:0,0:0:0:0:
202,216,112393,1,10,0:0:0:0:
202,216,112577,1,10,0:0:0:0:
65,278,113129,2,0,P|63:253|59:228,2,50,10|10|0,0:0|0:0|0:0,0:0:0:0:
144,338,113865,6,0,L|248:327,1,99.9999999999999,4|8,0:0|0:0,0:0:0:0:
285,300,114417,1,0,0:0:0:0:
329,277,114601,2,0,L|433:266,1,99.9999999999999,2|8,0:0|0:0,0:0:0:0:
490,188,115337,2,0,P|498:156|493:130,1,50,2|0,0:0|0:0,0:0:0:0:
476,93,115705,2,0,P|455:72|424:63,1,50,8|0,0:0|0:0,0:0:0:0:
386,73,116074,2,0,L|265:81,1,99.9999999999999,2|8,0:0|0:0,0:0:0:0:
194,39,116810,6,0,L|90:50,1,99.9999999999999,2|8,0:0|0:0,0:0:0:0:
50,73,117362,1,0,0:0:0:0:
20,112,117546,2,0,P|13:158|35:216,1,99.9999999999999,2|8,0:0|0:0,0:0:0:0:
112,263,118283,2,0,P|137:266|162:269,1,50,2|0,0:0|0:0,0:0:0:0:
196,305,118651,2,0,P|221:301|246:298,1,50,8|0,0:0|0:0,0:0:0:0:
289,274,119019,2,0,P|314:277|339:280,2,50,2|2|8,0:0|0:0|0:0,0:0:0:0:
258,178,119755,5,2,0:0:0:0:
258,178,119939,2,0,P|255:153|252:128,2,50,0|8|2,0:0|0:0|0:0,0:0:0:0:
349,138,120675,2,0,P|346:113|341:88,2,50,2|8|2,0:0|0:0|0:0,0:0:0:0:
438,93,121411,2,0,P|435:68|432:43,2,50,2|8|2,0:0|0:0|0:0,0:0:0:0:
436,193,122148,1,2,0:0:0:0:
436,193,122332,2,0,L|420:322,1,99.9999999999999,8|2,0:0|0:0,0:0:0:0:
336,340,123068,5,10,0:0:0:0:
237,323,123436,1,2,0:0:0:0:
140,297,123804,1,10,0:0:0:0:
76,220,124172,2,0,L|91:103,1,99.9999999999999,2|8,0:0|0:0,0:0:0:0:
119,81,124724,1,0,0:0:0:0:
119,81,124908,1,8,0:0:0:0:
207,35,125276,1,8,0:0:0:0:
294,84,125644,6,0,L|409:70,1,99.9999999999999,4|2,0:0|0:0,0:0:0:0:
447,155,126380,2,0,L|347:167,1,99.9999999999999,2|2,0:0|0:0,0:0:0:0:
263,222,127117,2,0,P|264:244|270:271,1,50,2|0,0:0|0:0,0:0:0:0:
301,310,127484,2,0,P|299:332|294:359,2,50,2|0|2,0:0|0:0|0:0,0:0:0:0:
205,339,128221,1,10,0:0:0:0:
131,270,128589,6,0,P|98:306|50:317,1,99.9999999999999,2|2,0:0|0:0,0:0:0:0:
3,229,129325,2,0,P|36:192|84:181,1,99.9999999999999,2|2,0:0|0:0,0:0:0:0:
184,189,130062,2,0,P|209:185|234:181,1,50,2|0,0:0|0:0,0:0:0:0:
266,143,130430,2,0,P|291:146|316:150,1,50,2|0,0:0|0:0,0:0:0:0:
364,161,130798,2,0,P|387:204|387:255,1,99.9999999999999,2|10,0:0|0:0,0:0:0:0:
316,324,131534,6,0,L|196:333,1,99.9999999999999,2|2,0:0|0:0,0:0:0:0:
125,289,132270,2,0,L|116:169,1,99.9999999999999,2|2,0:0|0:0,0:0:0:0:
184,114,133006,2,0,L|249:96,1,50,2|0,0:0|0:0,0:0:0:0:
277,122,133375,2,0,L|335:131,1,50,10|0,0:0|0:0,0:0:0:0:
375,122,133742,1,10,0:0:0:0:
375,122,133927,6,0,P|371:97|367:72,2,50,0|8|0,0:0|0:0|0:0,0:0:0:0:
446,191,134662,2,0,P|460:170|476:149,2,50,0|8|0,0:0|0:0|0:0,0:0:0:0:
447,290,135398,2,0,P|472:286|497:281,2,50,0|8|0,0:0|0:0|0:0,0:0:0:0:
374,354,136135,2,0,P|394:368|416:384,2,50,0|8|0,0:0|0:0|0:0,0:0:0:0:
328,333,136687,2,0,L|276:340,2,50,0|8|8,0:0|0:0|0:0,0:0:0:0:
335,283,137239,5,4,0:0:0:0:
256,192,137424,12,10,138896,0:0:0:0:
256,192,139632,6,0,P|252:217|248:242,2,50,8|8|8,0:0|0:0|0:0,0:0:0:0:
319,114,140368,6,0,P|276:93|221:98,1,99.9999999999999,4|8,0:0|0:0,0:0:0:0:
179,115,140921,1,10,0:0:0:0:
179,115,141105,1,2,0:0:0:0:
87,77,141473,1,10,0:0:0:0:
39,164,141841,2,0,P|28:210|44:263,1,99.9999999999999,2|8,0:0|0:0,0:0:0:0:
75,296,142393,1,10,0:0:0:0:
75,296,142577,1,2,0:0:0:0:
166,256,142945,1,10,0:0:0:0:
242,320,143313,6,0,L|342:331,1,99.9999999999999,2|10,0:0|0:0,0:0:0:0:
390,320,143865,1,8,0:0:0:0:
422,281,144049,2,0,P|427:227|402:178,1,99.9999999999999,2|8,0:0|0:0,0:0:0:0:
321,136,144786,2,0,P|317:111|313:86,1,50,0|2,0:0|0:0,0:0:0:0:
279,49,145154,2,0,P|254:53|229:57,1,50,8|10,0:0|0:0,0:0:0:0:
180,66,145522,1,2,0:0:0:0:
103,129,145889,2,0,L|110:196,1,50,10|0,0:0|0:0,0:0:0:0:
136,219,146257,6,0,L|251:227,1,99.9999999999999,2|8,0:0|0:0,0:0:0:0:
282,207,146810,1,10,0:0:0:0:
331,216,146994,2,0,P|345:261|338:319,1,99.9999999999999,2|8,0:0|0:0,0:0:0:0:
324,360,147546,1,0,0:0:0:0:
324,360,147730,2,0,P|349:356|374:352,1,50,2|0,0:0|0:0,0:0:0:0:
419,332,148098,2,0,P|444:328|469:324,2,50,8|10|0,0:0|0:0|0:0,0:0:0:0:
439,233,148835,2,0,P|435:208|431:183,1,50,10|0,0:0|0:0,0:0:0:0:
388,157,149203,6,0,L|402:38,1,99.9999999999999,2|8,0:0|0:0,0:0:0:0:
371,16,149754,1,10,0:0:0:0:
285,66,150122,1,10,0:0:0:0:
198,16,150490,2,0,L|78:34,1,99.9999999999999,4|0,0:0|0:0,0:0:0:0:
64,67,151043,2,0,L|72:117,1,50,8|0,0:0|0:0,0:0:0:0:
106,152,151411,2,0,P|131:148|156:144,2,50,10|0|10,0:0|0:0|0:0,0:0:0:0:
73,246,152148,6,0,L|180:230,1,99.9999999999999,0|12,0:0|0:0,0:0:0:0:
221,228,152700,1,0,0:0:0:0:
263,255,152884,2,0,P|267:304|271:357,1,99.9999999999999,2|8,0:0|0:0,0:0:0:0:
360,310,153620,2,0,P|358:284|353:256,1,50,2|0,0:0|0:0,0:0:0:0:
375,215,153988,1,8,0:0:0:0:
455,155,154356,2,0,P|451:130|447:105,1,50,2|0,0:0|0:0,0:0:0:0:
407,75,154724,2,0,P|411:50|415:25,1,50,8|0,0:0|0:0,0:0:0:0:
368,6,155092,6,0,P|322:27|273:22,1,99.9999999999999,2|8,0:0|0:0,0:0:0:0:
224,16,155644,1,0,0:0:0:0:
179,40,155829,2,0,L|193:157,1,99.9999999999999,2|8,0:0|0:0,0:0:0:0:
125,214,156565,2,0,P|100:218|75:222,1,50,2|0,0:0|0:0,0:0:0:0:
45,261,156933,2,0,P|49:286|53:311,1,50,8|10,0:0|0:0,0:0:0:0:
88,345,157301,2,0,P|133:365|182:361,1,99.9999999999999,0|10,0:0|0:0,0:0:0:0:
279,334,158037,6,0,P|328:330|373:350,1,99.9999999999999,4|8,0:0|0:0,0:0:0:0:
413,321,158589,1,10,0:0:0:0:
395,268,158773,2,0,P|349:250|297:247,1,99.9999999999999,2|8,0:0|0:0,0:0:0:0:
250,259,159325,1,2,0:0:0:0:
205,282,159509,2,0,P|180:278|155:274,1,50,2|0,0:0|0:0,0:0:0:0:
119,239,159878,2,0,P|94:243|69:247,2,50,8|10|0,0:0|0:0|0:0,0:0:0:0:
119,139,160614,2,0,P|115:114|111:89,1,50,8|0,0:0|0:0,0:0:0:0:
134,45,160982,6,0,L|255:43,1,99.9999999999999,10|8,0:0|0:0,0:0:0:0:
281,28,161534,1,10,0:0:0:0:
329,39,161717,2,0,L|450:37,1,99.9999999999999,8|10,0:0|0:0,0:0:0:0:
482,122,162454,2,0,P|495:169|482:221,1,99.9999999999999,10|8,0:0|0:0,0:0:0:0:
451,255,163006,1,10,0:0:0:0:
406,278,163190,2,0,P|358:291|307:278,1,99.9999999999999,8|10,0:0|0:0,0:0:0:0:
229,220,163926,6,0,P|181:206|130:220,1,99.9999999999999,10|8,0:0|0:0,0:0:0:0:
91,245,164478,2,0,L|82:109,1,99.9999999999999,10|10,0:0|0:0,0:0:0:0:
81,95,165031,1,8,0:0:0:0:
81,95,165215,1,12,0:0:0:0:
147,20,165583,6,0,P|185:10|238:1,2,74.9999999999999,4|2|4,0:0|0:0|0:0,0:0:0:0:
169,91,166411,2,0,L|155:165,1,74.9999999999999,2|2,0:0|0:0,0:0:0:0:
184,205,166871,6,0,P|204:250|200:299,1,99.9999999999999,4|8,0:0|0:0,0:0:0:0:
178,344,167423,2,0,L|329:331,1,150,8|8,0:0|0:0,0:0:0:0:
368,302,168160,1,8,0:0:0:0:
368,302,168343,1,12,0:0:0:0:
416,214,168711,2,0,L|409:132,1,50,8|0,0:0|0:0,0:0:0:0:
397,116,169079,1,8,0:0:0:0:
397,116,169264,2,0,P|401:91|405:66,2,50,0|0|0,3:0|3:0|3:0,0:0:0:0:
366,155,169816,5,4,0:0:0:0:
111,156,181595,6,0,P|98:221|155:288,2,150,4|8|8,0:0|0:0|0:0,0:0:0:0:
181,85,183067,2,0,L|251:74,1,50,0|0,0:0|0:0,0:0:0:0:
272,50,183435,2,0,L|342:61,1,50,8|8,0:0|0:0,0:0:0:0:
361,88,183803,2,0,L|369:159,2,50,0|0|8,0:0|0:0|0:0,0:0:0:0:
445,34,184540,6,0,L|461:172,1,99.9999999999999,2|10,0:0|0:0,0:0:0:0:
479,177,185092,1,8,0:0:0:0:
479,177,185276,2,0,L|478:247,2,50,2|0|8,0:0|0:0|0:0,0:0:0:0:
430,164,185828,2,0,L|300:176,1,99.9999999999999,2|0,0:0|0:0,0:0:0:0:
289,144,186380,1,10,0:0:0:0:
190,129,186748,1,2,0:0:0:0:
101,175,187116,1,10,0:0:0:0:
59,264,187484,6,0,P|69:312|108:342,1,99.9999999999999,14|0,0:0|0:0,0:0:0:0:
159,339,188037,2,0,L|293:326,1,99.9999999999999,10|0,0:0|0:0,0:0:0:0:
308,322,188589,1,10,0:0:0:0:
401,287,188957,1,0,0:0:0:0:
401,287,189141,2,0,P|417:240|402:177,1,99.9999999999999,10|0,0:0|0:0,0:0:0:0:
381,149,189693,2,0,L|244:136,1,99.9999999999999,10|10,0:0|0:0,0:0:0:0:
262,93,190245,1,0,0:0:0:0:
262,93,190429,6,0,P|213:60|160:55,1,99.9999999999999,10|0,0:0|0:0,0:0:0:0:
126,71,190981,2,0,L|134:193,1,99.9999999999999,10|0,0:0|0:0,0:0:0:0:
90,198,191533,2,0,L|104:264,1,50,10|10,0:0|0:0,0:0:0:0:
113,295,191902,1,10,0:0:0:0:
113,295,192086,1,10,0:0:0:0:
113,295,193374,6,0,L|233:302,1,99.9999999999999,4|2,0:0|0:0,0:0:0:0:
260,212,194110,2,0,L|160:206,1,99.9999999999999,2|2,0:0|0:0,0:0:0:0:
82,143,194846,2,0,L|87:43,1,99.9999999999999,2|2,0:0|0:0,0:0:0:0:
183,11,195583,2,0,L|177:110,1,99.9999999999999,2|10,0:0|0:0,0:0:0:0:
160,206,196319,6,0,B|176:259|230:267|230:267|276:230|336:241,2,200,2|2|2,0:0|0:0|0:0,0:0:0:0:
185,109,198159,1,2,0:0:0:0:
249,32,198527,2,0,P|292:24|348:38,2,99.9999999999999,2|10|4,0:0|0:0|0:0,0:0:0:0:
185,109,199632,6,0,P|142:117|86:103,2,99.9999999999999,2|2|2,0:0|0:0|0:0,0:0:0:0:
276,149,200736,2,0,L|384:139,1,99.9999999999999,2|2,0:0|0:0,0:0:0:0:
413,232,201472,2,0,L|313:241,1,99.9999999999999,2|10,0:0|0:0,0:0:0:0:
238,306,202208,6,0,P|185:339|26:196,1,300,2|2,0:0|0:0,0:0:0:0:
82,136,203681,2,0,L|78:64,2,50,10|8|8,0:0|0:0|0:0,0:0:0:0:
131,144,204233,2,0,L|254:123,1,99.9999999999999,12|12,0:0|0:0,0:0:0:0:
337,227,205153,5,4,0:0:0:0:
431,195,205521,1,2,0:0:0:0:
356,128,205889,2,0,L|342:18,1,99.9999999999999,2|2,0:0|0:0,0:0:0:0:
243,29,206625,2,0,L|230:128,1,99.9999999999999,2|2,0:0|0:0,0:0:0:0:
156,195,207362,2,0,L|168:294,1,99.9999999999999,2|10,0:0|0:0,0:0:0:0:
253,346,208098,5,2,0:0:0:0:
434,261,208834,1,2,0:0:0:0:
369,71,209570,1,2,0:0:0:0:
276,109,209938,1,2,0:0:0:0:
204,39,210306,2,0,L|132:15,2,50,2|0|8,0:0|0:0|0:0,0:0:0:0:
130,107,211043,6,0,L|58:83,2,50,0|0|8,0:0|0:0|0:0,0:0:0:0:
166,141,211595,2,0,L|179:242,1,99.9999999999999,0|0,0:0|0:0,0:0:0:0:
205,282,212147,1,8,0:0:0:0:
247,308,212331,2,0,P|289:318|373:285,1,99.9999999999999,0|0,0:0|0:0,0:0:0:0:
364,260,212883,2,0,L|354:187,1,50,8|0,0:0|0:0,0:0:0:0:
332,167,213251,2,0,L|341:89,1,50,0|8,0:0|0:0,0:0:0:0:
373,82,213619,1,8,0:0:0:0:
256,192,213803,12,10,215460,0:0:0:0:
205,110,216932,5,12,0:0:0:0:
256,192,225767,12,10,228711,0:0:0:0:
396,280,230184,6,0,P|417:237|412:182,1,99.9999999999999,4|8,0:0|0:0,0:0:0:0:
395,140,230737,1,10,0:0:0:0:
395,140,230921,1,2,0:0:0:0:
433,48,231289,1,10,0:0:0:0:
334,61,231656,2,0,P|291:40|236:45,1,99.9999999999999,2|8,0:0|0:0,0:0:0:0:
194,62,232209,1,10,0:0:0:0:
194,62,232393,1,2,0:0:0:0:
97,35,232760,1,10,0:0:0:0:
50,123,233129,6,0,L|61:223,1,99.9999999999999,2|10,0:0|0:0,0:0:0:0:
49,270,233681,1,8,0:0:0:0:
73,313,233865,2,0,P|116:334|171:329,1,99.9999999999999,2|8,0:0|0:0,0:0:0:0:
255,284,234601,2,0,P|259:259|263:234,1,50,0|2,0:0|0:0,0:0:0:0:
298,199,234969,2,0,P|294:174|290:149,1,50,8|10,0:0|0:0,0:0:0:0:
253,116,235337,1,2,0:0:0:0:
303,29,235705,2,0,P|328:25|353:21,1,50,10|0,0:0|0:0,0:0:0:0:
399,36,236073,6,0,P|420:79|415:134,1,99.9999999999999,2|8,0:0|0:0,0:0:0:0:
396,175,236625,1,10,0:0:0:0:
415,221,236810,2,0,P|418:270|397:314,1,99.9999999999999,2|8,0:0|0:0,0:0:0:0:
355,341,237362,1,2,0:0:0:0:
307,355,237546,2,0,P|282:351|257:347,1,50,2|0,0:0|0:0,0:0:0:0:
219,314,237914,2,0,P|194:318|169:322,2,50,8|10|0,0:0|0:0|0:0,0:0:0:0:
161,232,238650,2,0,P|186:228|211:224,1,50,10|0,0:0|0:0,0:0:0:0:
259,230,239018,6,0,P|303:251|352:247,1,99.9999999999999,2|8,0:0|0:0,0:0:0:0:
402,240,239570,1,10,0:0:0:0:
439,147,239938,1,10,0:0:0:0:
385,64,240306,2,0,P|340:42|291:46,1,99.9999999999999,12|2,0:0|0:0,0:0:0:0:
241,54,240859,2,0,P|216:58|191:62,1,50,8|2,0:0|0:0,0:0:0:0:
144,43,241227,2,0,P|119:39|94:35,2,50,10|0|10,0:0|0:0|0:0,0:0:0:0:
167,139,241963,6,0,P|168:188|160:237,1,99.9999999999999,10|12,0:0|0:0,0:0:0:0:
153,287,242515,1,0,0:0:0:0:
175,331,242699,2,0,P|219:352|268:348,1,99.9999999999999,2|8,0:0|0:0,0:0:0:0:
363,315,243435,2,0,P|388:319|413:323,1,50,2|0,0:0|0:0,0:0:0:0:
457,344,243803,1,8,0:0:0:0:
484,247,244171,2,0,P|480:222|476:197,1,50,2|0,0:0|0:0,0:0:0:0:
437,165,244540,2,0,P|441:140|445:115,1,50,8|0,0:0|0:0,0:0:0:0:
423,70,244908,6,0,P|378:48|329:52,1,99.9999999999999,2|8,0:0|0:0,0:0:0:0:
282,69,245460,1,0,0:0:0:0:
234,53,245644,2,0,P|184:49|140:70,1,99.9999999999999,2|8,0:0|0:0,0:0:0:0:
106,164,246380,2,0,P|110:189|114:214,1,50,0|2,0:0|0:0,0:0:0:0:
72,240,246748,2,0,P|68:265|64:290,1,50,8|8,0:0|0:0,0:0:0:0:
92,332,247116,2,0,P|136:353|185:349,1,99.9999999999999,0|10,0:0|0:0,0:0:0:0:
268,293,247852,6,0,P|269:243|261:194,1,99.9999999999999,4|8,0:0|0:0,0:0:0:0:
243,146,248405,1,10,0:0:0:0:
264,100,248589,2,0,P|308:78|357:82,1,99.9999999999999,2|8,0:0|0:0,0:0:0:0:
395,114,249141,1,2,0:0:0:0:
429,149,249325,2,0,P|433:174|437:199,1,50,2|0,0:0|0:0,0:0:0:0:
399,231,249693,2,0,P|395:256|391:281,2,50,8|10|0,0:0|0:0|0:0,0:0:0:0:
299,237,250429,2,0,P|295:262|291:287,1,50,8|0,0:0|0:0,0:0:0:0:
259,325,250797,6,0,P|214:346|165:342,1,99.9999999999999,10|8,0:0|0:0,0:0:0:0:
121,318,251349,1,10,0:0:0:0:
99,273,251533,2,0,P|87:225|66:179,1,99.9999999999999,8|10,0:0|0:0,0:0:0:0:
61,79,252270,2,0,P|105:57|154:61,1,99.9999999999999,10|8,0:0|0:0,0:0:0:0:
202,75,252822,1,10,0:0:0:0:
247,95,253006,2,0,P|295:84|345:82,1,99.9999999999999,8|10,0:0|0:0,0:0:0:0:
420,151,253742,6,0,P|434:198|424:246,1,99.9999999999999,10|8,0:0|0:0,0:0:0:0:
390,283,254294,2,0,P|340:284|291:295,1,99.9999999999999,10|10,0:0|0:0,0:0:0:0:
245,276,254846,1,8,0:0:0:0:
245,276,255030,1,12,0:0:0:0:
147,295,255398,6,0,L|156:370,2,74.9999999999999,4|2|4,0:0|0:0|0:0,0:0:0:0:
96,238,256227,2,0,L|92:158,1,74.9999999999999,2|2,0:0|0:0,0:0:0:0:
126,126,256687,6,0,P|172:108|221:116,1,99.9999999999999,4|8,0:0|0:0,0:0:0:0:
266,141,257239,1,8,0:0:0:0:
278,189,257423,2,0,P|279:238|290:287,1,99.9999999999999,0|8,0:0|0:0,0:0:0:0:
315,330,257975,1,0,0:0:0:0:
355,359,258159,2,0,P|403:367|450:349,1,99.9999999999999,0|8,0:0|0:0,0:0:0:0:
489,319,258711,1,8,0:0:0:0:
487,219,259079,6,0,P|491:194|495:169,2,50,2|10|10,0:0|0:0|0:0,0:0:0:0:
387,230,259815,2,0,P|391:255|395:280,2,50,0|8|12,0:0|0:0|0:0,0:0:0:0:
296,186,260552,2,0,P|300:161|304:136,2,50,0|8|12,0:0|0:0|0:0,0:0:0:0:
237,267,261288,2,0,P|212:271|187:275,2,50,2|2|2,0:0|0:0|0:0,0:0:0:0:
272,301,261840,2,0,P|297:297|322:293,2,50,2|2|2,0:0|0:0|0:0,0:0:0:0:
263,350,262392,5,10,0:0:0:0:
165,369,262760,1,2,0:0:0:0:
165,369,262944,1,2,0:0:0:0:
75,324,263313,2,0,P|76:275|68:226,1,99.9999999999999,2|10,0:0|0:0,0:0:0:0:
70,175,263865,2,0,P|114:153|163:157,1,99.9999999999999,10|0,0:0|0:0,0:0:0:0:
256,192,264601,5,4,0:0:0:0:
256,192,264785,12,0,269570,0:0:0:0:
