osu file format v14

[General]
AudioFilename: audio.mp3
AudioLeadIn: 0
PreviewTime: 49870
Countdown: 0
SampleSet: Normal
StackLeniency: 0.7
Mode: 1
LetterboxInBreaks: 0
WidescreenStoryboard: 1

[Editor]
DistanceSpacing: 1.2
BeatDivisor: 4
GridSize: 8
TimelineZoom: 1.8

[Metadata]
Title:Best FriendS
TitleUnicode:Best FriendS
Artist:Fujijo Seitokai Shikkou-bu
ArtistUnicode:藤女生徒会執行部
Creator:davidminh0111
Version:ily4's Inner Oni
Source:LOVE LAB
Tags:沼倉愛美 赤崎千夏 水瀬いのり 佐倉綾音 大地葉 恋愛ラブラボ ending 千葉 naotyu- 直樹 numakura manami akasaki chinatsu minase inori sakura ayane taichi you 恋愛ラボ kurahashi riko maki natsuo tanahashi suzune enomoto yuiko mizushima sayori xfraczynho iloveyou4ever TV Size
BeatmapID:1336613
BeatmapSetID:631581

[Difficulty]
HPDrainRate:6
CircleSize:2
OverallDifficulty:5
ApproachRate:10
SliderMultiplier:1.4
SliderTickRate:1

[Events]
//Background and Video events
0,0,"bg.jpg",0,50
//Break Periods
//Storyboard Layer 0 (Background)
//Storyboard Layer 1 (Fail)
//Storyboard Layer 2 (Pass)
//Storyboard Layer 3 (Foreground)
//Storyboard Sound Samples

[TimingPoints]
1190,368.098159509202,4,1,0,90,1,0
10576,-83.3333333333333,4,1,0,90,0,0
11312,-71.4285714285714,4,1,0,90,0,0
12416,-66.6666666666667,4,1,0,90,0,0
12601,-100,4,1,0,90,0,0
23275,-83.3333333333333,4,1,0,90,0,0
24564,-100,4,1,0,90,0,0
36527,-105.263157894737,4,1,0,90,0,0
44073,-103.896103896104,4,1,0,90,0,0
44257,-102.564102564103,4,1,0,90,0,0
44441,-101.26582278481,4,1,0,90,0,0
44625,-100,4,1,0,90,0,0
50515,-98.5901607019619,4,1,0,90,0,0
50699,-97.2195216799533,4,1,0,90,0,0
50883,-95.8864704190239,4,1,0,90,0,0
50975,-94.5894816496406,4,1,0,90,0,0
51067,-93.3271115258983,4,1,0,90,0,0
51159,-92.0979922637686,4,1,0,90,0,0
51251,-90.9090909090909,4,1,0,90,0,1
77754,-90.9090909090909,4,1,0,90,0,0
77846,-100,4,1,0,90,0,0

[HitObjects]
389,158,453,5,8,0:0:0:0:
428,146,637,1,0,0:0:0:0:
428,146,729,1,0,0:0:0:0:
311,156,821,1,8,0:0:0:0:
397,154,1005,1,0,0:0:0:0:
433,160,1097,1,8,0:0:0:0:
360,171,1190,1,0,0:0:0:0:
470,175,1558,1,8,0:0:0:0:
470,175,1742,1,8,0:0:0:0:
383,152,1926,1,0,0:0:0:0:
383,152,2110,1,0,0:0:0:0:
383,152,2202,1,0,0:0:0:0:
462,166,2294,1,8,0:0:0:0:
343,169,2478,1,0,0:0:0:0:
292,173,2662,1,8,0:0:0:0:
419,164,2754,1,0,0:0:0:0:
325,162,2846,1,8,0:0:0:0:
324,162,3030,1,8,0:0:0:0:
321,158,3214,1,0,0:0:0:0:
438,171,3582,1,0,0:0:0:0:
382,161,3766,1,8,0:0:0:0:
382,161,3950,1,8,0:0:0:0:
416,163,4134,1,0,0:0:0:0:
495,162,4318,1,0,0:0:0:0:
495,162,4410,1,0,0:0:0:0:
371,162,4502,1,8,0:0:0:0:
200,168,4686,1,8,0:0:0:0:
444,162,4870,1,0,0:0:0:0:
443,162,5055,1,0,0:0:0:0:
408,176,5147,1,0,0:0:0:0:
263,151,5239,1,8,0:0:0:0:
444,162,5331,1,8,0:0:0:0:
408,166,5423,1,0,0:0:0:0:
312,176,5515,1,0,0:0:0:0:
408,166,5607,1,8,0:0:0:0:
408,166,5791,1,8,0:0:0:0:
409,156,5883,1,0,0:0:0:0:
429,147,5975,1,8,0:0:0:0:
459,154,6159,1,0,0:0:0:0:
459,154,6251,1,0,0:0:0:0:
440,176,6343,1,8,0:0:0:0:
432,168,6527,1,0,0:0:0:0:
384,160,6711,1,8,0:0:0:0:
456,176,6803,1,0,0:0:0:0:
370,173,6895,1,8,0:0:0:0:
370,173,6987,1,8,0:0:0:0:
224,184,7079,1,0,0:0:0:0:
320,176,7447,1,12,0:0:0:0:
424,192,7815,1,0,0:0:0:0:
464,176,7999,1,0,0:0:0:0:
464,176,8091,1,0,0:0:0:0:
400,168,8183,1,8,0:0:0:0:
480,160,8367,1,8,0:0:0:0:
448,160,8551,1,0,0:0:0:0:
464,168,8736,1,8,0:0:0:0:
464,168,8828,1,8,0:0:0:0:
432,176,8920,1,0,0:0:0:0:
488,168,9104,1,8,0:0:0:0:
496,168,9288,1,0,0:0:0:0:
496,168,9380,1,0,0:0:0:0:
392,160,9472,1,8,0:0:0:0:
480,168,9564,1,0,0:0:0:0:
424,160,9656,1,8,0:0:0:0:
424,160,9748,1,8,0:0:0:0:
416,160,9840,1,0,0:0:0:0:
400,160,10024,1,8,0:0:0:0:
480,168,10208,1,0,0:0:0:0:
400,176,10392,1,12,0:0:0:0:
448,168,10760,1,0,0:0:0:0:
448,168,10944,1,0,0:0:0:0:
408,168,11128,1,12,0:0:0:0:
416,144,11496,1,8,0:0:0:0:
424,160,11680,1,0,0:0:0:0:
456,176,11864,1,12,0:0:0:0:
432,160,12048,1,0,0:0:0:0:
432,160,12140,1,0,0:0:0:0:
440,152,12232,1,8,0:0:0:0:
456,176,12416,1,12,0:0:0:0:
512,184,12969,1,0,0:0:0:0:
512,184,13337,1,0,0:0:0:0:
448,160,13521,1,8,0:0:0:0:
464,160,13705,1,0,0:0:0:0:
472,160,14073,1,8,0:0:0:0:
432,160,14257,1,0,0:0:0:0:
464,152,14441,1,8,0:0:0:0:
464,152,14625,1,8,0:0:0:0:
456,152,14809,1,0,0:0:0:0:
456,152,14993,1,0,0:0:0:0:
456,160,15177,1,8,0:0:0:0:
440,160,15545,1,0,0:0:0:0:
456,160,15729,1,8,0:0:0:0:
432,160,15913,1,0,0:0:0:0:
432,160,16282,1,0,0:0:0:0:
392,160,16650,1,8,0:0:0:0:
424,160,17018,1,0,0:0:0:0:
400,160,17202,1,8,0:0:0:0:
448,144,17386,1,0,0:0:0:0:
448,144,17570,1,0,0:0:0:0:
424,160,17754,1,8,0:0:0:0:
424,160,17938,1,8,0:0:0:0:
400,152,18122,1,0,0:0:0:0:
432,160,18490,1,0,0:0:0:0:
400,168,18674,1,8,0:0:0:0:
368,168,18858,1,0,0:0:0:0:
432,208,19226,1,8,0:0:0:0:
429,162,19594,1,0,0:0:0:0:
429,162,19778,1,0,0:0:0:0:
492,158,19963,1,8,0:0:0:0:
491,170,20331,1,0,0:0:0:0:
427,178,20699,1,0,0:0:0:0:
492,207,20883,1,8,0:0:0:0:
488,154,21067,1,0,0:0:0:0:
450,162,21251,1,0,0:0:0:0:
482,162,21435,1,8,0:0:0:0:
485,181,21803,1,8,0:0:0:0:
487,166,22171,1,0,0:0:0:0:
499,154,22355,1,0,0:0:0:0:
440,149,22539,1,8,0:0:0:0:
422,165,22723,1,0,0:0:0:0:
380,169,22907,1,8,0:0:0:0:
424,192,23091,1,0,0:0:0:0:
407,179,23275,1,12,0:0:0:0:
407,179,23459,1,12,0:0:0:0:
449,195,24012,1,12,0:0:0:0:
449,195,24196,1,12,0:0:0:0:
468,166,24564,1,8,0:0:0:0:
468,166,24656,1,8,0:0:0:0:
445,169,24748,1,0,0:0:0:0:
408,161,25116,1,0,0:0:0:0:
420,156,25300,1,8,0:0:0:0:
416,162,25484,1,0,0:0:0:0:
416,162,25668,1,0,0:0:0:0:
416,162,25760,1,0,0:0:0:0:
408,161,25852,1,8,0:0:0:0:
371,168,26036,1,0,0:0:0:0:
447,162,26220,1,8,0:0:0:0:
447,162,26404,1,8,0:0:0:0:
445,157,26588,1,0,0:0:0:0:
445,157,26772,1,0,0:0:0:0:
434,164,26956,1,8,0:0:0:0:
431,164,27324,1,0,0:0:0:0:
462,158,27509,1,8,0:0:0:0:
430,154,27693,1,0,0:0:0:0:
479,156,27877,1,0,0:0:0:0:
479,156,27969,1,0,0:0:0:0:
462,152,28061,1,8,0:0:0:0:
413,151,28245,1,0,0:0:0:0:
406,154,28429,1,8,0:0:0:0:
416,176,28521,1,8,0:0:0:0:
472,184,28613,1,0,0:0:0:0:
496,176,28705,1,0,0:0:0:0:
416,176,28797,1,8,0:0:0:0:
395,158,28981,1,0,0:0:0:0:
421,147,29165,1,8,0:0:0:0:
395,145,29349,1,8,0:0:0:0:
399,145,29441,1,0,0:0:0:0:
397,149,29533,1,8,0:0:0:0:
458,173,29717,1,8,0:0:0:0:
481,155,29901,1,0,0:0:0:0:
382,190,30085,1,12,0:0:0:0:
464,163,30269,1,12,0:0:0:0:
469,209,30637,1,0,0:0:0:0:
471,182,30821,1,8,0:0:0:0:
471,182,30913,1,8,0:0:0:0:
457,182,31005,1,0,0:0:0:0:
449,170,31189,1,8,0:0:0:0:
448,216,31374,1,0,0:0:0:0:
421,182,31558,1,8,0:0:0:0:
421,182,31650,1,8,0:0:0:0:
448,176,31742,1,0,0:0:0:0:
440,176,31926,1,8,0:0:0:0:
456,176,32110,1,0,0:0:0:0:
432,168,32294,1,8,0:0:0:0:
432,160,32386,1,0,0:0:0:0:
432,160,32478,1,0,0:0:0:0:
400,160,32662,1,8,0:0:0:0:
440,160,33030,1,8,0:0:0:0:
464,160,33122,1,0,0:0:0:0:
464,160,33214,1,0,0:0:0:0:
424,160,33398,1,8,0:0:0:0:
416,160,33582,1,0,0:0:0:0:
408,160,33766,1,0,0:0:0:0:
408,160,33858,1,0,0:0:0:0:
408,160,33950,1,8,0:0:0:0:
392,160,34134,1,0,0:0:0:0:
416,160,34318,1,8,0:0:0:0:
416,144,34410,1,8,0:0:0:0:
376,160,34502,1,0,0:0:0:0:
368,152,34686,1,8,0:0:0:0:
384,152,34870,1,0,0:0:0:0:
408,160,35055,1,8,0:0:0:0:
440,160,35147,1,0,0:0:0:0:
440,160,35239,1,0,0:0:0:0:
440,160,35331,1,0,0:0:0:0:
440,160,35423,1,8,0:0:0:0:
448,160,35607,1,8,0:0:0:0:
416,160,35791,1,0,0:0:0:0:
448,160,35975,1,8,0:0:0:0:
480,160,36159,1,0,0:0:0:0:
432,192,36527,1,12,0:0:0:0:
416,168,36895,1,8,0:0:0:0:
448,176,37079,1,8,0:0:0:0:
448,168,37263,1,0,0:0:0:0:
448,160,37631,1,8,0:0:0:0:
448,176,37815,1,0,0:0:0:0:
448,160,37999,1,8,0:0:0:0:
448,160,38183,1,8,0:0:0:0:
416,152,38367,1,0,0:0:0:0:
408,152,38551,1,0,0:0:0:0:
448,160,38736,1,8,0:0:0:0:
432,184,39104,1,0,0:0:0:0:
424,168,39288,1,8,0:0:0:0:
360,160,39472,1,0,0:0:0:0:
480,192,39840,1,0,0:0:0:0:
480,192,40024,1,0,0:0:0:0:
432,160,40208,1,8,0:0:0:0:
400,160,40576,1,0,0:0:0:0:
416,152,40760,1,8,0:0:0:0:
384,152,40944,1,0,0:0:0:0:
384,152,41128,1,0,0:0:0:0:
408,168,41312,1,8,0:0:0:0:
400,168,41496,1,8,0:0:0:0:
416,160,41680,1,0,0:0:0:0:
264,208,42048,1,0,0:0:0:0:
408,144,42416,1,8,0:0:0:0:
440,144,42785,1,0,0:0:0:0:
368,128,42969,1,0,0:0:0:0:
376,160,43153,1,8,0:0:0:0:
492,176,43521,1,0,0:0:0:0:
414,162,43705,1,8,0:0:0:0:
463,198,43889,1,0,0:0:0:0:
450,202,44073,1,0,0:0:0:0:
471,179,44257,1,8,0:0:0:0:
458,179,44441,1,8,0:0:0:0:
468,216,44625,1,0,0:0:0:0:
468,216,44809,1,0,0:0:0:0:
468,216,44901,1,0,0:0:0:0:
464,176,44993,1,8,0:0:0:0:
488,176,45177,1,8,0:0:0:0:
440,208,45545,1,0,0:0:0:0:
440,208,45637,1,0,0:0:0:0:
440,168,45729,1,8,0:0:0:0:
488,176,45913,1,8,0:0:0:0:
424,160,46282,1,8,0:0:0:0:
424,160,46374,1,8,0:0:0:0:
456,168,46466,1,0,0:0:0:0:
320,168,46650,1,8,0:0:0:0:
400,136,46834,1,0,0:0:0:0:
464,168,47018,1,0,0:0:0:0:
464,168,47110,1,0,0:0:0:0:
384,168,47202,1,8,0:0:0:0:
424,160,47386,1,0,0:0:0:0:
432,168,47570,1,8,0:0:0:0:
384,144,47754,1,8,0:0:0:0:
384,144,47846,1,8,0:0:0:0:
424,160,47938,1,0,0:0:0:0:
408,176,48122,1,12,0:0:0:0:
432,200,48490,1,0,0:0:0:0:
424,168,48674,1,8,0:0:0:0:
400,160,48858,1,0,0:0:0:0:
456,160,49042,1,8,0:0:0:0:
384,152,49226,1,0,0:0:0:0:
440,144,49410,1,8,0:0:0:0:
408,152,49594,1,0,0:0:0:0:
408,152,49686,1,0,0:0:0:0:
320,152,49778,1,8,0:0:0:0:
440,160,49963,1,12,0:0:0:0:
456,168,50515,1,0,0:0:0:0:
408,152,50699,1,8,0:0:0:0:
440,160,50883,1,0,0:0:0:0:
440,160,50975,1,0,0:0:0:0:
432,160,51067,1,8,0:0:0:0:
424,160,51159,1,8,0:0:0:0:
416,144,51251,1,0,0:0:0:0:
416,144,51435,1,0,0:0:0:0:
416,144,51527,1,0,0:0:0:0:
416,160,51619,1,8,0:0:0:0:
320,152,51803,1,0,0:0:0:0:
416,160,51987,1,8,0:0:0:0:
416,160,52079,1,8,0:0:0:0:
368,144,52171,1,0,0:0:0:0:
384,160,52355,1,12,0:0:0:0:
496,160,52723,1,0,0:0:0:0:
448,160,52907,1,0,0:0:0:0:
448,160,52999,1,0,0:0:0:0:
432,168,53091,1,8,0:0:0:0:
464,152,53275,1,8,0:0:0:0:
464,152,53367,1,8,0:0:0:0:
400,160,53459,1,0,0:0:0:0:
400,160,53643,1,0,0:0:0:0:
448,144,53828,1,12,0:0:0:0:
480,176,54196,1,0,0:0:0:0:
480,176,54380,1,0,0:0:0:0:
480,176,54472,1,0,0:0:0:0:
424,168,54564,1,8,0:0:0:0:
472,168,54748,1,0,0:0:0:0:
440,160,54932,1,8,0:0:0:0:
448,168,55024,1,8,0:0:0:0:
376,160,55116,1,0,0:0:0:0:
376,160,55208,1,0,0:0:0:0:
376,152,55300,1,8,0:0:0:0:
424,160,55484,1,0,0:0:0:0:
448,152,55668,1,8,0:0:0:0:
392,144,55760,1,0,0:0:0:0:
424,136,55852,1,8,0:0:0:0:
424,136,55944,1,8,0:0:0:0:
408,136,56036,1,0,0:0:0:0:
488,152,56220,1,8,0:0:0:0:
432,136,56404,1,0,0:0:0:0:
432,136,56496,1,0,0:0:0:0:
472,152,56588,1,0,0:0:0:0:
480,160,56772,1,8,0:0:0:0:
424,176,56956,1,8,0:0:0:0:
448,160,57140,1,0,0:0:0:0:
504,192,57509,1,0,0:0:0:0:
480,168,57693,1,8,0:0:0:0:
496,168,57877,1,0,0:0:0:0:
496,168,58061,1,0,0:0:0:0:
496,168,58153,1,0,0:0:0:0:
488,160,58245,1,8,0:0:0:0:
480,168,58429,1,0,0:0:0:0:
456,160,58613,1,8,0:0:0:0:
480,168,58705,1,8,0:0:0:0:
456,168,58797,1,0,0:0:0:0:
432,176,58981,1,8,0:0:0:0:
432,176,59165,1,0,0:0:0:0:
440,176,59533,1,0,0:0:0:0:
448,192,59717,1,8,0:0:0:0:
448,168,59901,1,0,0:0:0:0:
448,160,60085,1,8,0:0:0:0:
391,177,60269,1,8,0:0:0:0:
391,177,60361,1,8,0:0:0:0:
339,162,60453,1,0,0:0:0:0:
389,141,60637,1,8,0:0:0:0:
419,136,60821,1,0,0:0:0:0:
419,136,60913,1,0,0:0:0:0:
352,141,61005,1,8,0:0:0:0:
352,141,61097,1,8,0:0:0:0:
410,154,61189,1,0,0:0:0:0:
398,154,61374,1,12,0:0:0:0:
458,154,61558,1,0,0:0:0:0:
432,161,61650,1,8,0:0:0:0:
458,154,61742,1,0,0:0:0:0:
477,153,61834,1,0,0:0:0:0:
432,154,61926,1,8,0:0:0:0:
459,166,62018,1,8,0:0:0:0:
421,168,62110,1,0,0:0:0:0:
443,146,62294,1,12,0:0:0:0:
311,190,62478,1,0,0:0:0:0:
435,186,62662,1,12,0:0:0:0:
434,184,63030,1,0,0:0:0:0:
435,186,63214,1,0,0:0:0:0:
417,160,63398,1,12,0:0:0:0:
490,190,63766,1,0,0:0:0:0:
486,174,63950,1,8,0:0:0:0:
486,174,64042,1,8,0:0:0:0:
454,170,64134,1,0,0:0:0:0:
433,150,64318,1,8,0:0:0:0:
449,156,64502,1,0,0:0:0:0:
449,156,64594,1,0,0:0:0:0:
473,157,64686,1,8,0:0:0:0:
473,157,64778,1,8,0:0:0:0:
427,154,64870,1,0,0:0:0:0:
395,168,65055,1,8,0:0:0:0:
445,158,65239,1,0,0:0:0:0:
445,158,65331,1,0,0:0:0:0:
423,165,65423,1,8,0:0:0:0:
423,165,65515,1,8,0:0:0:0:
449,163,65607,1,0,0:0:0:0:
412,164,65791,1,8,0:0:0:0:
419,161,65975,1,0,0:0:0:0:
419,161,66159,1,0,0:0:0:0:
291,133,66251,1,0,0:0:0:0:
418,166,66343,1,8,0:0:0:0:
451,155,66527,1,0,0:0:0:0:
445,158,66711,1,8,0:0:0:0:
427,154,66803,1,0,0:0:0:0:
447,148,66895,1,8,0:0:0:0:
447,148,66987,1,8,0:0:0:0:
433,149,67079,1,0,0:0:0:0:
433,149,67263,1,8,0:0:0:0:
451,155,67447,1,8,0:0:0:0:
481,157,67539,1,8,0:0:0:0:
476,149,67631,1,0,0:0:0:0:
475,156,67723,1,0,0:0:0:0:
424,160,67815,1,8,0:0:0:0:
428,163,67999,1,8,0:0:0:0:
361,155,68183,1,0,0:0:0:0:
361,155,68367,1,0,0:0:0:0:
480,177,68551,1,8,0:0:0:0:
466,170,68736,1,8,0:0:0:0:
466,170,68828,1,8,0:0:0:0:
442,157,68920,1,0,0:0:0:0:
464,157,69288,1,0,0:0:0:0:
469,158,69472,1,8,0:0:0:0:
494,160,69656,1,0,0:0:0:0:
493,160,69840,1,0,0:0:0:0:
493,160,69932,1,0,0:0:0:0:
424,153,70024,1,8,0:0:0:0:
464,157,70208,1,0,0:0:0:0:
447,160,70392,1,8,0:0:0:0:
482,160,70484,1,0,0:0:0:0:
434,154,70576,1,8,0:0:0:0:
376,171,70668,1,8,0:0:0:0:
424,160,70760,1,0,0:0:0:0:
409,173,70944,1,12,0:0:0:0:
371,141,71312,1,0,0:0:0:0:
438,158,71404,1,0,0:0:0:0:
427,169,71496,1,8,0:0:0:0:
408,158,71680,1,0,0:0:0:0:
429,160,71864,1,8,0:0:0:0:
468,194,72232,1,0,0:0:0:0:
423,152,72416,1,8,0:0:0:0:
439,159,72601,1,0,0:0:0:0:
439,159,72785,1,0,0:0:0:0:
389,158,72969,1,8,0:0:0:0:
417,156,73153,1,0,0:0:0:0:
417,156,73245,1,8,0:0:0:0:
417,162,73337,1,8,0:0:0:0:
417,162,73521,1,0,0:0:0:0:
439,159,73705,1,8,0:0:0:0:
445,157,73889,1,0,0:0:0:0:
444,162,74073,1,8,0:0:0:0:
448,165,74257,1,8,0:0:0:0:
490,167,74441,1,0,0:0:0:0:
490,167,74625,1,0,0:0:0:0:
499,183,74809,1,12,0:0:0:0:
474,166,74993,1,0,0:0:0:0:
495,182,75085,1,0,0:0:0:0:
474,166,75177,1,0,0:0:0:0:
464,187,75361,1,12,0:0:0:0:
466,179,75545,1,0,0:0:0:0:
496,182,75637,1,0,0:0:0:0:
465,179,75729,1,0,0:0:0:0:
428,189,75913,1,12,0:0:0:0:
491,169,76097,1,0,0:0:0:0:
427,175,76466,1,12,0:0:0:0:
494,184,76742,1,12,0:0:0:0:
494,185,77018,1,12,0:0:0:0:
494,185,77294,1,12,0:0:0:0:
494,184,77570,1,12,0:0:0:0:
460,164,77754,1,0,0:0:0:0:
479,164,78122,1,8,0:0:0:0:
479,164,78306,1,8,0:0:0:0:
508,165,78490,1,0,0:0:0:0:
508,165,78674,1,0,0:0:0:0:
508,165,78766,1,0,0:0:0:0:
456,160,78858,1,8,0:0:0:0:
416,170,79042,1,0,0:0:0:0:
440,171,79226,1,8,0:0:0:0:
450,177,79318,1,0,0:0:0:0:
440,160,79410,1,8,0:0:0:0:
440,160,79594,1,8,0:0:0:0:
414,155,79778,1,0,0:0:0:0:
462,169,80147,1,8,0:0:0:0:
425,175,80208,1,8,0:0:0:0:
414,177,80269,1,8,0:0:0:0:
419,162,80331,1,0,0:0:0:0:
427,177,80515,1,8,0:0:0:0:
454,184,80699,1,0,0:0:0:0:
455,169,80883,1,0,0:0:0:0:
457,175,80975,1,8,0:0:0:0:
453,169,81067,1,0,0:0:0:0:
457,174,81251,1,8,0:0:0:0:
402,165,81619,1,8,0:0:0:0:
402,165,81711,1,8,0:0:0:0:
423,172,81803,1,0,0:0:0:0:
471,177,81987,1,12,0:0:0:0:
479,179,82355,1,0,0:0:0:0:
406,177,82539,1,8,0:0:0:0:
471,177,82723,1,0,0:0:0:0:
434,152,82907,1,8,0:0:0:0:
434,152,83091,1,8,0:0:0:0:
413,150,83275,1,0,0:0:0:0:
391,133,83459,1,8,0:0:0:0:
479,153,83828,1,4,0:0:0:0:
479,153,84012,1,4,0:0:0:0:
458,154,84380,1,12,0:0:0:0:
429,164,84748,1,4,0:0:0:0:
443,156,84932,1,12,0:0:0:0:
436,154,85300,1,8,0:0:0:0:
436,154,85361,1,8,0:0:0:0:
436,154,85423,1,8,0:0:0:0:
381,154,85484,1,0,0:0:0:0:
480,169,85668,1,4,0:0:0:0:
