osu file format v14

[General]
AudioFilename: audio.mp3
AudioLeadIn: 0
PreviewTime: 49870
Countdown: 0
SampleSet: Normal
StackLeniency: 0.7
Mode: 1
LetterboxInBreaks: 0
WidescreenStoryboard: 0

[Editor]
DistanceSpacing: 1.3
BeatDivisor: 4
GridSize: 8
TimelineZoom: 1.8

[Metadata]
Title:Best FriendS
TitleUnicode:Best FriendS
Artist:Fujijo Seitokai Shikkou-bu
ArtistUnicode:藤女生徒会執行部
Creator:davidminh0111
Version:Oni
Source:LOVE LAB
Tags:沼倉愛美 赤崎千夏 水瀬いのり 佐倉綾音 大地葉 恋愛ラブラボ ending 千葉 naotyu- 直樹 numakura manami akasaki chinatsu minase inori sakura ayane taichi you 恋愛ラボ kurahashi riko maki natsuo tanahashi suzune enomoto yuiko mizushima sayori xfraczynho iloveyou4ever TV Size
BeatmapID:1374164
BeatmapSetID:631581

[Difficulty]
HPDrainRate:5.5
CircleSize:2
OverallDifficulty:5
ApproachRate:10
SliderMultiplier:1.4
SliderTickRate:1

[Events]
//Background and Video events
0,0,"bg.jpg",0,50
//Break Periods
//Storyboard Layer 0 (Background)
//Storyboard Layer 1 (Fail)
//Storyboard Layer 2 (Pass)
//Storyboard Layer 3 (Foreground)
//Storyboard Sound Samples

[TimingPoints]
1190,368.098159509202,4,1,0,80,1,0
12601,-100,4,1,0,70,0,0
23275,-90.9090909090909,4,1,0,80,0,0
24564,-100,4,1,0,80,0,0
36527,-105.263157894737,4,1,0,60,0,0
44625,-100,4,1,0,80,0,0
50883,-99.009900990099,4,1,0,80,0,0
50975,-98.0392156862745,4,1,0,80,0,0
51067,-97.0873786407767,4,1,0,80,0,0
51159,-96.1538461538461,4,1,0,80,0,0
51251,-95.2380952380952,4,1,0,80,0,1
77754,-100,4,1,0,80,0,0
85668,-66.6666666666667,4,1,0,80,0,0

[HitObjects]
256,192,453,5,8,0:0:0:0:
256,192,637,1,0,0:0:0:0:
256,192,729,1,0,0:0:0:0:
256,192,821,1,8,0:0:0:0:
256,192,1005,1,8,0:0:0:0:
256,192,1097,1,8,0:0:0:0:
256,192,1190,1,0,0:0:0:0:
256,192,1374,1,0,0:0:0:0:
256,192,1558,1,8,0:0:0:0:
256,192,1742,1,8,0:0:0:0:
256,192,1926,1,0,0:0:0:0:
256,192,2294,1,8,0:0:0:0:
256,192,2478,1,0,0:0:0:0:
256,192,2570,1,0,0:0:0:0:
256,192,2662,1,8,0:0:0:0:
256,192,2846,1,0,0:0:0:0:
256,192,3030,1,8,0:0:0:0:
256,192,3214,1,0,0:0:0:0:
256,192,3582,1,0,0:0:0:0:
256,192,3674,1,0,0:0:0:0:
256,192,3766,1,0,0:0:0:0:
256,192,3950,1,8,0:0:0:0:
256,192,4318,1,0,0:0:0:0:
256,192,4502,1,12,0:0:0:0:
256,192,4686,1,8,0:0:0:0:
256,192,5055,1,0,0:0:0:0:
256,192,5147,1,0,0:0:0:0:
256,192,5239,1,0,0:0:0:0:
256,192,5423,1,0,0:0:0:0:
256,192,5607,1,8,0:0:0:0:
256,192,5975,1,8,0:0:0:0:
256,192,6159,1,0,0:0:0:0:
256,192,6343,1,8,0:0:0:0:
256,192,6527,1,8,0:0:0:0:
256,192,6619,1,8,0:0:0:0:
256,192,6711,1,0,0:0:0:0:
256,192,6895,1,0,0:0:0:0:
256,192,6987,1,8,0:0:0:0:
256,192,7079,1,0,0:0:0:0:
256,192,7447,1,14,0:0:0:0:
256,192,7815,1,0,0:0:0:0:
256,192,7999,1,0,0:0:0:0:
256,192,8091,1,0,0:0:0:0:
256,192,8183,1,0,0:0:0:0:
256,192,8367,1,8,0:0:0:0:
256,192,8736,1,8,0:0:0:0:
256,192,8920,1,0,0:0:0:0:
256,192,9104,1,8,0:0:0:0:
256,192,9196,1,8,0:0:0:0:
256,192,9288,1,0,0:0:0:0:
256,192,9472,1,8,0:0:0:0:
256,192,9564,1,0,0:0:0:0:
256,192,9656,1,8,0:0:0:0:
256,192,9748,1,8,0:0:0:0:
256,192,9840,1,0,0:0:0:0:
256,192,10024,1,0,0:0:0:0:
256,192,10208,1,0,0:0:0:0:
256,192,10392,1,14,0:0:0:0:
256,192,10760,1,0,0:0:0:0:
256,192,10944,1,0,0:0:0:0:
256,192,11128,1,12,0:0:0:0:
256,192,11496,1,0,0:0:0:0:
256,192,11680,1,0,0:0:0:0:
256,192,11864,1,12,0:0:0:0:
256,192,12048,1,0,0:0:0:0:
256,192,12140,1,0,0:0:0:0:
256,192,12232,1,8,0:0:0:0:
256,192,12416,1,12,0:0:0:0:
256,192,12969,1,0,0:0:0:0:
256,192,13337,1,0,0:0:0:0:
256,192,13521,1,0,0:0:0:0:
256,192,13705,1,8,0:0:0:0:
256,192,14073,1,0,0:0:0:0:
256,192,14257,1,0,0:0:0:0:
256,192,14441,1,8,0:0:0:0:
256,192,14625,1,8,0:0:0:0:
256,192,14809,1,0,0:0:0:0:
256,192,14993,1,0,0:0:0:0:
256,192,15177,1,8,0:0:0:0:
256,192,15545,1,0,0:0:0:0:
256,192,15729,1,0,0:0:0:0:
256,192,15913,1,8,0:0:0:0:
256,192,16282,1,0,0:0:0:0:
256,192,16650,1,8,0:0:0:0:
256,192,17018,1,0,0:0:0:0:
256,192,17202,1,8,0:0:0:0:
256,192,17386,1,0,0:0:0:0:
256,192,17570,1,8,0:0:0:0:
256,192,17662,1,8,0:0:0:0:
256,192,17754,1,0,0:0:0:0:
256,192,17938,1,0,0:0:0:0:
256,192,18122,1,8,0:0:0:0:
256,192,18490,1,0,0:0:0:0:
256,192,18674,1,8,0:0:0:0:
256,192,18858,1,0,0:0:0:0:
256,192,19226,1,8,0:0:0:0:
256,192,19594,1,8,0:0:0:0:
256,192,19963,1,0,0:0:0:0:
256,192,20331,1,0,0:0:0:0:
256,192,20699,1,0,0:0:0:0:
256,192,20883,1,8,0:0:0:0:
256,192,21251,1,8,0:0:0:0:
256,192,21435,1,0,0:0:0:0:
256,192,21803,1,8,0:0:0:0:
256,192,22171,1,8,0:0:0:0:
256,192,22355,1,0,0:0:0:0:
256,192,22723,1,0,0:0:0:0:
256,192,22907,1,8,0:0:0:0:
256,192,23091,1,0,0:0:0:0:
256,192,23275,1,4,0:0:0:0:
256,192,23643,1,0,0:0:0:0:
256,192,23828,1,0,0:0:0:0:
256,192,24196,1,8,0:0:0:0:
256,192,24380,1,8,0:0:0:0:
256,192,24748,1,8,0:0:0:0:
256,192,24932,1,8,0:0:0:0:
256,192,25024,1,8,0:0:0:0:
256,192,25116,1,0,0:0:0:0:
256,192,25300,1,0,0:0:0:0:
256,192,25484,1,8,0:0:0:0:
256,192,25668,1,0,0:0:0:0:
256,192,25760,1,0,0:0:0:0:
256,192,25852,1,8,0:0:0:0:
256,192,26036,1,0,0:0:0:0:
256,192,26220,1,0,0:0:0:0:
256,192,26404,1,8,0:0:0:0:
256,192,26496,1,8,0:0:0:0:
256,192,26588,1,0,0:0:0:0:
256,192,26772,1,0,0:0:0:0:
256,192,26956,1,8,0:0:0:0:
256,192,27324,1,8,0:0:0:0:
256,192,27509,1,0,0:0:0:0:
256,192,27693,1,0,0:0:0:0:
256,192,28061,1,8,0:0:0:0:
256,192,28429,1,8,0:0:0:0:
256,192,28797,1,0,0:0:0:0:
256,192,28981,1,0,0:0:0:0:
256,192,29165,1,8,0:0:0:0:
256,192,29349,1,8,0:0:0:0:
256,192,29441,1,8,0:0:0:0:
256,192,29533,1,0,0:0:0:0:
256,192,29717,1,8,0:0:0:0:
256,192,29901,1,0,0:0:0:0:
256,192,30085,1,12,0:0:0:0:
256,192,30637,1,8,0:0:0:0:
256,192,30821,1,8,0:0:0:0:
256,192,30913,1,0,0:0:0:0:
256,192,31005,1,8,0:0:0:0:
256,192,31190,1,8,0:0:0:0:
256,192,31374,1,0,0:0:0:0:
256,192,31558,1,8,0:0:0:0:
256,192,31650,1,0,0:0:0:0:
256,192,31742,1,8,0:0:0:0:
256,192,31926,1,8,0:0:0:0:
256,192,32110,1,0,0:0:0:0:
256,192,32294,1,8,0:0:0:0:
256,192,32386,1,8,0:0:0:0:
256,192,32478,1,8,0:0:0:0:
256,192,32662,1,8,0:0:0:0:
256,192,32846,1,0,0:0:0:0:
256,192,33030,1,0,0:0:0:0:
256,192,33122,1,0,0:0:0:0:
256,192,33214,1,0,0:0:0:0:
256,192,33398,1,8,0:0:0:0:
256,192,33582,1,8,0:0:0:0:
256,192,33950,1,8,0:0:0:0:
256,192,34318,1,0,0:0:0:0:
256,192,34686,1,8,0:0:0:0:
256,192,35055,1,0,0:0:0:0:
256,192,35423,1,8,0:0:0:0:
256,192,35607,1,0,0:0:0:0:
256,192,35791,1,8,0:0:0:0:
256,192,35883,1,8,0:0:0:0:
256,192,35975,1,0,0:0:0:0:
256,192,36067,1,0,0:0:0:0:
256,192,36159,1,8,0:0:0:0:
256,192,36251,1,8,0:0:0:0:
256,192,36343,1,0,0:0:0:0:
256,192,36527,1,8,0:0:0:0:
256,192,36895,1,8,0:0:0:0:
256,192,37263,1,0,0:0:0:0:
256,192,37631,1,8,0:0:0:0:
256,192,37999,1,8,0:0:0:0:
256,192,38183,1,0,0:0:0:0:
256,192,38275,1,0,0:0:0:0:
256,192,38367,1,8,0:0:0:0:
256,192,38551,1,8,0:0:0:0:
256,192,38736,1,0,0:0:0:0:
256,192,39104,1,0,0:0:0:0:
256,192,39288,1,8,0:0:0:0:
256,192,39472,1,0,0:0:0:0:
256,192,39840,1,0,0:0:0:0:
256,192,40208,1,8,0:0:0:0:
256,192,40576,1,8,0:0:0:0:
256,192,40944,1,8,0:0:0:0:
256,192,41128,1,8,0:0:0:0:
256,192,41220,1,8,0:0:0:0:
256,192,41312,1,0,0:0:0:0:
256,192,41496,1,8,0:0:0:0:
256,192,41680,1,0,0:0:0:0:
256,192,41864,1,8,0:0:0:0:
256,192,42048,1,0,0:0:0:0:
256,192,42232,1,0,0:0:0:0:
256,192,42416,1,8,0:0:0:0:
256,192,42785,1,0,0:0:0:0:
256,192,43153,1,8,0:0:0:0:
256,192,43521,1,8,0:0:0:0:
256,192,43889,1,8,0:0:0:0:
256,192,44073,1,8,0:0:0:0:
256,192,44257,1,0,0:0:0:0:
256,192,44441,1,0,0:0:0:0:
256,192,44809,1,0,0:0:0:0:
256,192,44993,1,0,0:0:0:0:
256,192,45177,1,8,0:0:0:0:
256,192,45361,1,0,0:0:0:0:
256,192,45453,1,0,0:0:0:0:
256,192,45545,1,8,0:0:0:0:
256,192,45729,1,0,0:0:0:0:
256,192,45913,1,8,0:0:0:0:
256,192,46097,1,0,0:0:0:0:
256,192,46189,1,8,0:0:0:0:
256,192,46282,1,8,0:0:0:0:
256,192,46466,1,0,0:0:0:0:
256,192,46650,1,8,0:0:0:0:
256,192,46834,1,0,0:0:0:0:
256,192,47018,1,0,0:0:0:0:
256,192,47110,1,8,0:0:0:0:
256,192,47202,1,0,0:0:0:0:
256,192,47386,1,8,0:0:0:0:
256,192,47478,1,0,0:0:0:0:
256,192,47570,1,8,0:0:0:0:
256,192,47754,1,8,0:0:0:0:
256,192,47938,1,0,0:0:0:0:
256,192,48122,1,8,0:0:0:0:
256,192,48490,1,0,0:0:0:0:
256,192,48674,1,0,0:0:0:0:
256,192,48858,1,8,0:0:0:0:
256,192,49042,1,8,0:0:0:0:
256,192,49226,1,0,0:0:0:0:
256,192,49410,1,8,0:0:0:0:
256,192,49594,1,0,0:0:0:0:
256,192,49778,1,12,0:0:0:0:
256,192,49963,1,12,0:0:0:0:
256,192,50331,1,8,0:0:0:0:
256,192,50515,1,0,0:0:0:0:
256,192,50699,1,0,0:0:0:0:
256,192,50883,1,8,0:0:0:0:
256,192,50975,1,8,0:0:0:0:
256,192,51067,1,0,0:0:0:0:
256,192,51159,1,8,0:0:0:0:
256,192,51251,1,0,0:0:0:0:
256,192,51435,1,0,0:0:0:0:
256,192,51619,1,0,0:0:0:0:
256,192,51711,1,0,0:0:0:0:
256,192,51803,1,8,0:0:0:0:
256,192,51987,1,0,0:0:0:0:
256,192,52355,1,12,0:0:0:0:
256,192,52539,1,0,0:0:0:0:
256,192,52631,1,0,0:0:0:0:
256,192,52723,1,8,0:0:0:0:
256,192,52907,1,0,0:0:0:0:
256,192,53091,1,0,0:0:0:0:
256,192,53183,1,0,0:0:0:0:
256,192,53275,1,8,0:0:0:0:
256,192,53459,1,8,0:0:0:0:
256,192,53828,1,12,0:0:0:0:
256,192,54196,1,0,0:0:0:0:
256,192,54380,1,0,0:0:0:0:
256,192,54472,1,0,0:0:0:0:
256,192,54564,1,8,0:0:0:0:
256,192,54748,1,0,0:0:0:0:
256,192,54932,1,0,0:0:0:0:
256,192,55024,1,0,0:0:0:0:
256,192,55116,1,0,0:0:0:0:
256,192,55300,1,8,0:0:0:0:
256,192,55484,1,8,0:0:0:0:
256,192,55668,1,0,0:0:0:0:
256,192,55852,1,8,0:0:0:0:
256,192,55944,1,8,0:0:0:0:
256,192,56036,1,0,0:0:0:0:
256,192,56220,1,8,0:0:0:0:
256,192,56404,1,0,0:0:0:0:
256,192,56496,1,0,0:0:0:0:
256,192,56588,1,8,0:0:0:0:
256,192,56772,1,8,0:0:0:0:
256,192,56956,1,0,0:0:0:0:
256,192,57140,1,8,0:0:0:0:
256,192,57509,1,0,0:0:0:0:
256,192,57693,1,8,0:0:0:0:
256,192,57877,1,8,0:0:0:0:
256,192,58061,1,0,0:0:0:0:
256,192,58153,1,0,0:0:0:0:
256,192,58245,1,8,0:0:0:0:
256,192,58429,1,8,0:0:0:0:
256,192,58613,1,0,0:0:0:0:
256,192,58705,1,0,0:0:0:0:
256,192,58797,1,0,0:0:0:0:
256,192,58981,1,8,0:0:0:0:
256,192,59165,1,0,0:0:0:0:
256,192,59533,1,0,0:0:0:0:
256,192,59717,1,0,0:0:0:0:
256,192,59809,1,0,0:0:0:0:
256,192,59901,1,8,0:0:0:0:
256,192,59993,1,8,0:0:0:0:
256,192,60085,1,0,0:0:0:0:
256,192,60453,1,8,0:0:0:0:
256,192,60637,1,0,0:0:0:0:
256,192,61005,1,0,0:0:0:0:
256,192,61374,1,12,0:0:0:0:
256,192,61742,1,8,0:0:0:0:
256,192,61834,1,8,0:0:0:0:
256,192,61926,1,0,0:0:0:0:
256,192,62110,1,0,0:0:0:0:
256,192,62294,1,12,0:0:0:0:
256,192,62662,1,4,0:0:0:0:
256,192,63030,1,0,0:0:0:0:
256,192,63398,1,8,0:0:0:0:
256,192,63766,1,0,0:0:0:0:
256,192,64134,1,8,0:0:0:0:
256,192,64318,1,8,0:0:0:0:
256,192,64502,1,0,0:0:0:0:
256,192,64686,1,0,0:0:0:0:
256,192,64778,1,0,0:0:0:0:
256,192,64870,1,0,0:0:0:0:
256,192,65055,1,8,0:0:0:0:
256,192,65239,1,0,0:0:0:0:
256,192,65423,1,0,0:0:0:0:
256,192,65515,1,0,0:0:0:0:
256,192,65607,1,0,0:0:0:0:
256,192,65791,1,8,0:0:0:0:
256,192,65975,1,0,0:0:0:0:
256,192,66343,1,0,0:0:0:0:
256,192,66527,1,0,0:0:0:0:
256,192,66619,1,0,0:0:0:0:
256,192,66711,1,8,0:0:0:0:
256,192,67079,1,0,0:0:0:0:
256,192,67263,1,0,0:0:0:0:
256,192,67447,1,8,0:0:0:0:
256,192,67631,1,8,0:0:0:0:
256,192,67723,1,8,0:0:0:0:
256,192,67815,1,0,0:0:0:0:
256,192,67999,1,8,0:0:0:0:
256,192,68367,1,8,0:0:0:0:
256,192,68551,1,0,0:0:0:0:
256,192,68643,1,0,0:0:0:0:
256,192,68736,1,8,0:0:0:0:
256,192,68828,1,8,0:0:0:0:
256,192,68920,1,0,0:0:0:0:
256,192,69104,1,0,0:0:0:0:
256,192,69196,1,0,0:0:0:0:
256,192,69288,1,0,0:0:0:0:
256,192,69472,1,0,0:0:0:0:
256,192,69656,1,8,0:0:0:0:
256,192,69840,1,8,0:0:0:0:
256,192,69932,1,8,0:0:0:0:
256,192,70024,1,8,0:0:0:0:
256,192,70208,1,8,0:0:0:0:
256,192,70392,1,0,0:0:0:0:
256,192,70576,1,8,0:0:0:0:
256,192,70668,1,8,0:0:0:0:
256,192,70760,1,0,0:0:0:0:
256,192,70944,1,14,0:0:0:0:
256,192,71312,1,0,0:0:0:0:
256,192,71404,1,0,0:0:0:0:
256,192,71496,1,0,0:0:0:0:
256,192,71680,1,0,0:0:0:0:
256,192,71864,1,8,0:0:0:0:
256,192,72232,1,0,0:0:0:0:
256,192,72416,1,0,0:0:0:0:
256,192,72785,1,0,0:0:0:0:
256,192,73153,1,8,0:0:0:0:
256,192,73245,1,8,0:0:0:0:
256,192,73337,1,8,0:0:0:0:
256,192,73705,1,8,0:0:0:0:
256,192,73889,1,0,0:0:0:0:
256,192,74257,1,0,0:0:0:0:
256,192,74441,1,8,0:0:0:0:
256,192,74533,1,8,0:0:0:0:
256,192,74625,1,0,0:0:0:0:
256,192,74809,1,8,0:0:0:0:
256,192,75177,1,0,0:0:0:0:
256,192,75361,1,8,0:0:0:0:
256,192,75545,1,0,0:0:0:0:
256,192,75729,1,0,0:0:0:0:
256,192,75913,1,8,0:0:0:0:
256,192,76097,1,12,0:0:0:0:
256,192,76466,1,8,0:0:0:0:
256,192,76742,1,8,0:0:0:0:
256,192,77018,1,8,0:0:0:0:
256,192,77294,1,8,0:0:0:0:
256,192,77570,1,8,0:0:0:0:
256,192,77754,1,0,0:0:0:0:
256,192,78122,1,0,0:0:0:0:
256,192,78306,1,0,0:0:0:0:
256,192,78490,1,8,0:0:0:0:
256,192,78858,1,8,0:0:0:0:
256,192,79042,1,0,0:0:0:0:
256,192,79134,1,0,0:0:0:0:
256,192,79226,1,8,0:0:0:0:
256,192,79410,1,0,0:0:0:0:
256,192,79594,1,8,0:0:0:0:
256,192,79778,1,8,0:0:0:0:
256,192,80147,1,8,0:0:0:0:
256,192,80239,1,0,0:0:0:0:
256,192,80331,1,8,0:0:0:0:
256,192,80423,1,8,0:0:0:0:
256,192,80515,1,8,0:0:0:0:
256,192,80699,1,0,0:0:0:0:
256,192,80791,1,0,0:0:0:0:
256,192,80883,1,0,0:0:0:0:
256,192,81067,1,8,0:0:0:0:
256,192,81251,1,8,0:0:0:0:
256,192,81435,1,0,0:0:0:0:
256,192,81619,1,0,0:0:0:0:
256,192,81711,1,0,0:0:0:0:
256,192,81803,1,8,0:0:0:0:
256,192,81895,1,0,0:0:0:0:
256,192,81987,1,8,0:0:0:0:
256,192,82355,1,0,0:0:0:0:
256,192,82447,1,0,0:0:0:0:
256,192,82539,1,8,0:0:0:0:
256,192,82723,1,0,0:0:0:0:
256,192,82907,1,8,0:0:0:0:
256,192,83091,1,8,0:0:0:0:
256,192,83183,1,8,0:0:0:0:
256,192,83275,1,0,0:0:0:0:
256,192,83459,1,8,0:0:0:0:
256,192,83828,1,0,0:0:0:0:
256,192,84012,1,0,0:0:0:0:
256,192,84380,1,8,0:0:0:0:
256,192,84748,1,0,0:0:0:0:
256,192,84932,1,8,0:0:0:0:
256,192,85668,1,4,0:0:0:0:
