osu file format v14

[General]
AudioFilename: audio.mp3
AudioLeadIn: 0
PreviewTime: 49870
Countdown: 0
SampleSet: Normal
StackLeniency: 0.7
Mode: 1
LetterboxInBreaks: 0
WidescreenStoryboard: 0

[Editor]
Bookmarks: 1190,7079,12969,18858,24748,30637,33582,36527,45361,51251,63030,71864,77754
DistanceSpacing: 1.5
BeatDivisor: 4
GridSize: 32
TimelineZoom: 2.2

[Metadata]
Title:Best FriendS
TitleUnicode:Best FriendS
Artist:Fujijo Seitokai Shikkou-bu
ArtistUnicode:藤女生徒会執行部
Creator:davidminh0111
Version:Futsuu
Source:LOVE LAB
Tags:沼倉愛美 赤崎千夏 水瀬いのり 佐倉綾音 大地葉 恋愛ラブラボ ending 千葉 naotyu- 直樹 numakura manami akasaki chinatsu minase inori sakura ayane taichi you 恋愛ラボ kurahashi riko maki natsuo tanahashi suzune enomoto yuiko mizushima sayori xfraczynho iloveyou4ever TV Size
BeatmapID:1343002
BeatmapSetID:631581

[Difficulty]
HPDrainRate:7
CircleSize:2
OverallDifficulty:3
ApproachRate:10
SliderMultiplier:1.4
SliderTickRate:1

[Events]
//Background and Video events
0,0,"bg.jpg",0,50
//Break Periods
//Storyboard Layer 0 (Background)
//Storyboard Layer 1 (Fail)
//Storyboard Layer 2 (Pass)
//Storyboard Layer 3 (Foreground)
//Storyboard Sound Samples

[TimingPoints]
1190,368.098159509202,4,1,0,80,1,0
51251,-100,4,1,0,90,0,1
77754,-100,4,1,0,90,0,0

[HitObjects]
256,192,1190,5,0,0:0:0:0:
256,192,1558,1,8,0:0:0:0:
256,192,1926,1,8,0:0:0:0:
256,192,2294,1,8,0:0:0:0:
256,192,2478,1,0,0:0:0:0:
256,192,3030,1,8,0:0:0:0:
256,192,3214,1,0,0:0:0:0:
256,192,3582,1,0,0:0:0:0:
256,192,3950,1,8,0:0:0:0:
256,192,4502,1,12,0:0:0:0:
256,192,5055,1,0,0:0:0:0:
256,192,5239,1,0,0:0:0:0:
256,192,5607,1,8,0:0:0:0:
256,192,5975,1,8,0:0:0:0:
256,192,6343,1,8,0:0:0:0:
256,192,7079,1,0,0:0:0:0:
256,192,7447,1,12,0:0:0:0:
256,192,7815,1,0,0:0:0:0:
256,192,8183,1,0,0:0:0:0:
256,192,8367,1,8,0:0:0:0:
256,192,8736,1,8,0:0:0:0:
256,192,8920,1,0,0:0:0:0:
256,192,9288,1,8,0:0:0:0:
256,192,10024,1,0,0:0:0:0:
256,192,10392,1,12,0:0:0:0:
256,192,10760,1,0,0:0:0:0:
256,192,11128,1,12,0:0:0:0:
256,192,11496,1,0,0:0:0:0:
256,192,11864,1,12,0:0:0:0:
256,192,12232,1,12,0:0:0:0:
256,192,12416,1,12,0:0:0:0:
256,192,12969,1,0,0:0:0:0:
256,192,13337,1,0,0:0:0:0:
256,192,13521,1,8,0:0:0:0:
256,192,13705,1,0,0:0:0:0:
256,192,14073,1,0,0:0:0:0:
256,192,14441,1,0,0:0:0:0:
256,192,14809,1,0,0:0:0:0:
256,192,14993,1,0,0:0:0:0:
256,192,15177,1,8,0:0:0:0:
256,192,15729,1,0,0:0:0:0:
256,192,15913,1,8,0:0:0:0:
256,192,16282,1,8,0:0:0:0:
256,192,16650,1,0,0:0:0:0:
256,192,17386,1,8,0:0:0:0:
256,192,17754,1,0,0:0:0:0:
256,192,18122,1,8,0:0:0:0:
256,192,18858,1,0,0:0:0:0:
256,192,19226,1,0,0:0:0:0:
256,192,19594,1,0,0:0:0:0:
256,192,19963,1,8,0:0:0:0:
256,192,20331,1,0,0:0:0:0:
256,192,20883,1,8,0:0:0:0:
256,192,21435,1,0,0:0:0:0:
256,192,21803,1,8,0:0:0:0:
256,192,22907,1,0,0:0:0:0:
256,192,23275,1,4,0:0:0:0:
256,192,23459,1,4,0:0:0:0:
256,192,24012,1,4,0:0:0:0:
256,192,24196,1,4,0:0:0:0:
256,192,24748,1,4,0:0:0:0:
256,192,25116,1,0,0:0:0:0:
256,192,25300,1,0,0:0:0:0:
256,192,25484,1,8,0:0:0:0:
256,192,25852,1,8,0:0:0:0:
256,192,26220,1,0,0:0:0:0:
256,192,26588,1,8,0:0:0:0:
256,192,26772,1,0,0:0:0:0:
256,192,26956,1,8,0:0:0:0:
256,192,27509,1,0,0:0:0:0:
256,192,27693,1,0,0:0:0:0:
256,192,28061,1,0,0:0:0:0:
256,192,28429,1,8,0:0:0:0:
256,192,29165,1,0,0:0:0:0:
256,192,29533,1,8,0:0:0:0:
256,192,30085,5,12,0:0:0:0:
256,192,30637,1,0,0:0:0:0:
256,192,31189,1,8,0:0:0:0:
256,192,31558,1,0,0:0:0:0:
256,192,31742,1,8,0:0:0:0:
256,192,32110,1,0,0:0:0:0:
256,192,32662,1,0,0:0:0:0:
256,192,33030,1,0,0:0:0:0:
256,192,33214,1,8,0:0:0:0:
256,192,33582,1,0,0:0:0:0:
256,192,34318,1,0,0:0:0:0:
256,192,34686,1,0,0:0:0:0:
256,192,35055,1,8,0:0:0:0:
256,192,35423,1,0,0:0:0:0:
256,192,35791,1,8,0:0:0:0:
256,192,36527,1,8,0:0:0:0:
256,192,36895,1,8,0:0:0:0:
256,192,37263,1,0,0:0:0:0:
256,192,37631,1,8,0:0:0:0:
256,192,37999,1,8,0:0:0:0:
256,192,38367,1,8,0:0:0:0:
256,192,38551,1,8,0:0:0:0:
256,192,38736,1,0,0:0:0:0:
256,192,39472,1,0,0:0:0:0:
256,192,39840,1,0,0:0:0:0:
256,192,40208,1,8,0:0:0:0:
256,192,40576,1,0,0:0:0:0:
256,192,40944,1,8,0:0:0:0:
256,192,41312,1,0,0:0:0:0:
256,192,41496,1,0,0:0:0:0:
256,192,41680,1,8,0:0:0:0:
256,192,42416,1,8,0:0:0:0:
256,192,42785,1,0,0:0:0:0:
256,192,43153,1,8,0:0:0:0:
256,192,43889,1,8,0:0:0:0:
256,192,44257,1,0,0:0:0:0:
256,192,44441,1,0,0:0:0:0:
256,192,44809,1,0,0:0:0:0:
256,192,45177,1,8,0:0:0:0:
256,192,45545,1,0,0:0:0:0:
256,192,45729,1,0,0:0:0:0:
256,192,45913,1,8,0:0:0:0:
256,192,46282,1,0,0:0:0:0:
256,192,46650,1,8,0:0:0:0:
256,192,47018,1,0,0:0:0:0:
256,192,47202,1,0,0:0:0:0:
256,192,47386,1,8,0:0:0:0:
256,192,47570,1,8,0:0:0:0:
256,192,48122,12,0,49778,0:0:0:0:
256,192,50883,5,8,0:0:0:0:
256,192,51251,1,0,0:0:0:0:
256,192,51619,1,0,0:0:0:0:
256,192,51803,1,8,0:0:0:0:
256,192,51987,1,0,0:0:0:0:
256,192,52355,1,8,0:0:0:0:
256,192,52723,1,0,0:0:0:0:
256,192,53091,1,0,0:0:0:0:
256,192,53275,1,0,0:0:0:0:
256,192,53459,1,8,0:0:0:0:
256,192,53828,1,8,0:0:0:0:
256,192,54196,1,0,0:0:0:0:
256,192,54932,1,0,0:0:0:0:
256,192,55300,1,8,0:0:0:0:
256,192,55668,1,0,0:0:0:0:
256,192,56036,1,8,0:0:0:0:
256,192,56220,1,0,0:0:0:0:
256,192,56772,1,0,0:0:0:0:
256,192,57140,1,8,0:0:0:0:
256,192,57877,1,0,0:0:0:0:
256,192,58245,1,8,0:0:0:0:
256,192,58613,1,8,0:0:0:0:
256,192,58981,1,8,0:0:0:0:
256,192,59165,1,0,0:0:0:0:
256,192,59717,1,8,0:0:0:0:
256,192,60085,1,0,0:0:0:0:
256,192,60453,1,8,0:0:0:0:
256,192,60637,1,0,0:0:0:0:
256,192,61005,1,0,0:0:0:0:
256,192,61374,1,12,0:0:0:0:
256,192,61742,1,8,0:0:0:0:
256,192,61926,1,0,0:0:0:0:
256,192,62294,1,8,0:0:0:0:
256,192,63030,1,0,0:0:0:0:
256,192,63398,1,8,0:0:0:0:
256,192,63766,1,0,0:0:0:0:
256,192,64134,1,8,0:0:0:0:
256,192,64318,1,0,0:0:0:0:
256,192,64502,1,8,0:0:0:0:
256,192,64870,1,0,0:0:0:0:
256,192,65055,1,8,0:0:0:0:
256,192,65239,1,0,0:0:0:0:
256,192,65607,1,0,0:0:0:0:
256,192,65975,1,8,0:0:0:0:
256,192,66711,1,8,0:0:0:0:
256,192,67079,1,0,0:0:0:0:
256,192,67447,1,8,0:0:0:0:
256,192,67815,1,0,0:0:0:0:
256,192,67999,1,8,0:0:0:0:
256,192,68551,1,0,0:0:0:0:
256,192,68920,1,0,0:0:0:0:
256,192,69472,1,0,0:0:0:0:
256,192,69656,1,8,0:0:0:0:
256,192,70208,1,8,0:0:0:0:
256,192,70392,1,0,0:0:0:0:
256,192,70760,1,0,0:0:0:0:
256,192,70944,1,8,0:0:0:0:
256,192,71496,1,0,0:0:0:0:
256,192,71864,1,8,0:0:0:0:
256,192,72231,1,0,0:0:0:0:
288,192,72416,1,0,0:0:0:0:
288,192,72785,1,0,0:0:0:0:
288,192,73337,1,0,0:0:0:0:
288,192,73705,1,8,0:0:0:0:
288,192,73889,1,0,0:0:0:0:
288,160,74257,1,0,0:0:0:0:
256,192,74809,1,0,0:0:0:0:
256,192,75361,1,0,0:0:0:0:
256,192,75729,1,0,0:0:0:0:
256,192,76097,1,12,0:0:0:0:
256,192,76466,12,0,77570,0:0:0:0:
256,192,77754,5,0,0:0:0:0:
256,192,78122,1,0,0:0:0:0:
256,192,78490,1,8,0:0:0:0:
256,192,78858,1,8,0:0:0:0:
256,192,79226,1,0,0:0:0:0:
256,192,79594,1,8,0:0:0:0:
256,192,79778,1,0,0:0:0:0:
256,192,80147,1,0,0:0:0:0:
256,192,80515,1,8,0:0:0:0:
256,192,80883,1,0,0:0:0:0:
256,192,81251,1,8,0:0:0:0:
256,192,81987,1,4,0:0:0:0:
256,192,82355,1,8,0:0:0:0:
256,192,82539,1,0,0:0:0:0:
256,192,82907,1,8,0:0:0:0:
256,192,83275,1,0,0:0:0:0:
256,192,83459,1,8,0:0:0:0:
256,192,83828,5,0,0:0:0:0:
256,192,84012,1,0,0:0:0:0:
256,192,84380,1,8,0:0:0:0:
256,192,84748,1,0,0:0:0:0:
256,192,84932,1,8,0:0:0:0:
256,192,85668,1,4,0:0:0:0:
