osu file format v14

[General]
AudioFilename: audio.mp3
AudioLeadIn: 0
PreviewTime: 49870
Countdown: 0
SampleSet: Normal
StackLeniency: 0.7
Mode: 1
LetterboxInBreaks: 0
WidescreenStoryboard: 0

[Editor]
Bookmarks: 1190,12969,36527,85668
DistanceSpacing: 1.1
BeatDivisor: 4
GridSize: 8
TimelineZoom: 1.8

[Metadata]
Title:Best FriendS
TitleUnicode:Best FriendS
Artist:Fujijo Seitokai Shikkou-bu
ArtistUnicode:藤女生徒会執行部
Creator:davidminh0111
Version:Kantan
Source:LOVE LAB
Tags:沼倉愛美 赤崎千夏 水瀬いのり 佐倉綾音 大地葉 恋愛ラブラボ ending 千葉 naotyu- 直樹 numakura manami akasaki chinatsu minase inori sakura ayane taichi you 恋愛ラボ kurahashi riko maki natsuo tanahashi suzune enomoto yuiko mizushima sayori xfraczynho iloveyou4ever TV Size
BeatmapID:1337921
BeatmapSetID:631581

[Difficulty]
HPDrainRate:8
CircleSize:2
OverallDifficulty:2
ApproachRate:10
SliderMultiplier:1.4
SliderTickRate:1

[Events]
//Background and Video events
0,0,"bg.jpg",0,50
//Break Periods
//Storyboard Layer 0 (Background)
//Storyboard Layer 1 (Fail)
//Storyboard Layer 2 (Pass)
//Storyboard Layer 3 (Foreground)
//Storyboard Sound Samples

[TimingPoints]
1190,368.098159509202,4,1,0,100,1,0
51251,-90.9090909090909,4,1,0,100,0,1
77754,-100,4,1,0,100,0,0

[HitObjects]
256,192,1190,5,0,0:0:0:0:
256,192,1926,1,8,0:0:0:0:
256,192,2662,1,0,0:0:0:0:
256,192,4502,1,12,0:0:0:0:
256,192,5607,1,8,0:0:0:0:
256,192,6343,1,8,0:0:0:0:
256,192,7079,1,0,0:0:0:0:
256,192,7447,1,8,0:0:0:0:
256,192,8551,1,8,0:0:0:0:
256,192,9656,1,0,0:0:0:0:
256,192,10392,1,12,0:0:0:0:
256,192,11128,1,12,0:0:0:0:
256,192,11864,1,12,0:0:0:0:
256,192,12232,1,12,0:0:0:0:
256,192,12969,1,0,0:0:0:0:
256,192,13705,1,0,0:0:0:0:
256,192,14441,1,0,0:0:0:0:
256,192,15177,1,8,0:0:0:0:
256,192,15913,1,0,0:0:0:0:
256,192,17386,1,0,0:0:0:0:
256,192,18122,1,8,0:0:0:0:
256,192,18858,1,0,0:0:0:0:
256,192,20331,1,8,0:0:0:0:
256,192,21067,1,0,0:0:0:0:
256,192,21803,1,8,0:0:0:0:
256,192,23275,1,4,0:0:0:0:
256,192,24012,1,4,0:0:0:0:
256,192,24748,1,8,0:0:0:0:
256,192,25484,1,0,0:0:0:0:
256,192,26220,1,0,0:0:0:0:
256,192,26956,1,8,0:0:0:0:
256,192,27693,1,0,0:0:0:0:
256,192,29165,1,0,0:0:0:0:
256,192,29901,1,8,0:0:0:0:
256,192,30637,1,0,0:0:0:0:
256,192,31374,1,0,0:0:0:0:
256,192,32110,1,8,0:0:0:0:
256,192,32846,1,8,0:0:0:0:
256,192,33582,1,0,0:0:0:0:
256,192,35055,1,8,0:0:0:0:
256,192,35791,1,0,0:0:0:0:
256,192,36527,1,8,0:0:0:0:
256,192,37263,1,0,0:0:0:0:
256,192,37999,1,8,0:0:0:0:
256,192,38367,1,8,0:0:0:0:
256,192,38736,1,8,0:0:0:0:
256,192,39472,1,0,0:0:0:0:
256,192,40208,1,8,0:0:0:0:
256,192,40944,1,0,0:0:0:0:
256,192,41312,1,0,0:0:0:0:
256,192,41680,1,0,0:0:0:0:
256,192,42416,1,8,0:0:0:0:
256,192,43153,1,8,0:0:0:0:
256,192,43889,1,8,0:0:0:0:
256,192,45177,1,0,0:0:0:0:
256,192,45913,1,8,0:0:0:0:
256,192,46650,1,8,0:0:0:0:
256,192,47386,1,8,0:0:0:0:
256,192,48122,12,0,49778,0:0:0:0:
256,192,51251,5,4,0:0:0:0:
256,192,51987,1,8,0:0:0:0:
256,192,52723,1,0,0:0:0:0:
256,192,53459,1,8,0:0:0:0:
256,192,54196,1,0,0:0:0:0:
256,192,54932,1,0,0:0:0:0:
256,192,55668,1,8,0:0:0:0:
256,192,56220,1,0,0:0:0:0:
256,192,57140,1,8,0:0:0:0:
256,192,57877,1,8,0:0:0:0:
256,192,58613,1,0,0:0:0:0:
256,192,59165,1,8,0:0:0:0:
256,192,60085,1,8,0:0:0:0:
256,192,60637,1,0,0:0:0:0:
256,192,61374,1,12,0:0:0:0:
256,192,62294,1,12,0:0:0:0:
256,192,63030,1,0,0:0:0:0:
256,192,63766,1,8,0:0:0:0:
256,192,64502,1,0,0:0:0:0:
256,192,64870,1,0,0:0:0:0:
256,192,65239,1,0,0:0:0:0:
256,192,65975,1,0,0:0:0:0:
256,192,66711,1,8,0:0:0:0:
256,192,67447,1,8,0:0:0:0:
256,192,67999,1,8,0:0:0:0:
256,192,68920,1,0,0:0:0:0:
256,192,69656,1,8,0:0:0:0:
256,192,70392,1,8,0:0:0:0:
256,192,70944,1,8,0:0:0:0:
256,192,71864,1,0,0:0:0:0:
256,192,73337,1,8,0:0:0:0:
256,192,74809,1,8,0:0:0:0:
256,192,76097,1,8,0:0:0:0:
256,192,76466,12,0,77386,0:0:0:0:
256,192,77754,5,0,0:0:0:0:
256,192,78490,1,8,0:0:0:0:
256,192,79226,1,8,0:0:0:0:
256,192,79778,1,0,0:0:0:0:
256,192,80699,1,0,0:0:0:0:
256,192,81251,1,8,0:0:0:0:
256,192,81987,1,4,0:0:0:0:
256,192,83459,1,8,0:0:0:0:
256,192,83828,1,0,0:0:0:0:
256,192,84380,1,0,0:0:0:0:
256,192,84932,1,0,0:0:0:0:
256,192,85668,1,4,0:0:0:0:
