osu file format v14

[General]
AudioFilename: audio.mp3
AudioLeadIn: 0
PreviewTime: 49875
Countdown: 0
SampleSet: Soft
StackLeniency: 0.7
Mode: 0
LetterboxInBreaks: 0
WidescreenStoryboard: 0

[Editor]
DistanceSpacing: 2.6
BeatDivisor: 4
GridSize: 4
TimelineZoom: 1.5

[Metadata]
Title:Best FriendS (TV Size)
TitleUnicode:Best FriendS (TV Size)
Artist:Fujijo Seitokai Shikkou-bu
ArtistUnicode:藤女生徒会執行部
Creator:My Angel Ram
Version:Emotions
Source:LOVE LAB
Tags:恋愛ラブラボ ending kaburagi kotetsu japanese jpop pop female vocals vocalists
BeatmapID:3926506
BeatmapSetID:1904321

[Difficulty]
HPDrainRate:6
CircleSize:4
OverallDifficulty:8.8
ApproachRate:9
SliderMultiplier:1.62
SliderTickRate:1

[Events]
//Background and Video events
0,0,"BG.jpg",0,0
Video,-92,"ehe.avi"
//Break Periods
//Storyboard Layer 0 (Background)
//Storyboard Layer 1 (Fail)
//Storyboard Layer 2 (Pass)
//Storyboard Layer 3 (Foreground)
//Storyboard Layer 4 (Overlay)
//Storyboard Sound Samples

[TimingPoints]
341,368.098159509202,4,2,1,60,1,0
1077,368.098159509202,4,2,1,60,1,0
1077,-98.0392156862745,4,2,1,60,0,0
9911,-81.9672131147541,4,2,1,70,0,0
12856,-108.695652173913,4,2,1,60,0,0
23163,-108.695652173913,4,2,1,70,0,0
24451,-108.695652173913,4,2,1,60,0,0
29973,-81.9672131147541,4,2,1,70,0,0
30341,-108.695652173913,4,2,1,60,0,0
36414,-138.888888888889,4,2,1,50,0,0
45249,-98.0392156862746,4,2,1,60,0,0
51138,-89.2857142857143,4,2,1,70,0,0
71752,-89.2857142857143,4,2,1,80,0,0
76353,-98.0392156862745,4,2,1,70,0,0
77641,-108.695652173913,4,2,1,60,0,0
80586,-98.0392156862745,4,2,1,70,0,0
85739,-98.0392156862745,4,2,1,5,0,0

[Colours]
Combo1 : 182,107,107
Combo2 : 255,79,79
Combo3 : 225,183,179
Combo4 : 191,140,119

[HitObjects]
26,62,341,6,0,L|126:38,1,81,8|0,0:2|1:2,0:2:0:0:
128,33,617,1,0,1:2:0:0:
128,33,709,1,8,0:2:0:0:
214,201,893,5,10,0:2:0:0:
214,201,985,1,10,0:2:0:0:
214,201,1077,2,0,P|175:150|76:161,1,165.240001008545,6|10,1:2|0:2,0:2:0:0:
0,274,1629,1,8,0:2:0:0:
130,361,1813,2,0,P|178:347|213:339,1,82.6200005042725,2|0,1:2|1:2,0:2:0:0:
354,226,2181,1,10,0:2:0:0:
210,166,2365,1,2,0:2:0:0:
358,345,2549,2,0,P|366:304|374:264,1,82.6200005042725,0|2,1:2|0:2,0:2:0:0:
413,110,2917,1,10,0:2:0:0:
237,263,3101,2,0,P|228:222|220:182,1,82.6200005042725,10|0,0:2|1:2,0:2:0:0:
142,14,3470,5,2,0:2:0:0:
335,156,3654,1,10,0:2:0:0:
101,223,3838,1,10,0:2:0:0:
101,223,3930,1,10,0:2:0:0:
101,223,4022,2,0,P|60:219|23:200,1,82.6200005042725,0|0,1:2|0:2,0:2:0:0:
247,0,4390,2,0,P|230:81|216:162,1,165.240001008545,14|0,0:2|1:2,0:2:0:0:
288,351,4942,1,2,0:2:0:0:
381,201,5126,1,10,0:2:0:0:
197,269,5310,5,2,1:2:0:0:
197,269,5402,1,0,1:2:0:0:
197,269,5494,2,0,P|261:256|314:245,1,82.6200005042725,2|0,1:2|1:2,0:2:0:0:
111,371,5862,2,0,P|70:362|30:354,1,82.6200005042725,10|8,0:2|0:2,0:2:0:0:
0,340,6138,1,8,0:2:0:0:
0,340,6230,1,2,1:2:0:0:
125,139,6414,1,8,0:2:0:0:
201,360,6598,1,10,0:2:0:0:
28,224,6782,1,10,0:2:0:0:
313,187,6966,6,0,P|272:196|232:204,1,82.6200005042725,2|0,1:2|0:2,0:2:0:0:
0,82,7335,2,0,P|56:23|149:39,1,165.240001008545,14|2,0:2|1:2,0:2:0:0:
249,184,7887,1,2,1:2:0:0:
304,41,8071,1,10,0:2:0:0:
129,130,8255,2,0,P|151:204|158:234,1,82.6200005042725,2|0,0:2|1:2,0:2:0:0:
236,355,8623,5,2,0:2:0:0:
235,164,8807,1,10,0:2:0:0:
87,315,8991,1,10,0:2:0:0:
334,238,9175,1,2,1:2:0:0:
126,107,9359,1,2,1:2:0:0:
242,359,9543,1,10,0:2:0:0:
242,359,9635,1,10,0:2:0:0:
242,359,9727,1,10,0:2:0:0:
213,217,9911,5,2,1:2:0:0:
132,378,10095,1,0,1:2:0:0:
359,320,10279,2,0,P|323:287|274:279,1,98.8199959287416,14|0,0:2|0:2,0:2:0:0:
114,294,10647,5,2,1:2:0:0:
215,85,10831,1,0,1:2:0:0:
0,193,11016,2,0,L|115:220,1,98.8199959287416,14|0,0:2|0:2,0:2:0:0:
298,146,11384,5,2,1:2:0:0:
82,45,11568,1,0,1:2:0:0:
213,278,11752,1,14,0:2:0:0:
275,25,11936,1,2,1:2:0:0:
275,25,12028,1,2,1:2:0:0:
275,25,12120,5,14,0:2:0:0:
5,176,12304,1,14,0:2:0:0:
432,67,12856,6,0,B|472:115|472:115|441:195,1,149.039994996826,6|8,1:2|0:2,0:2:0:0:
445,328,13408,1,2,1:2:0:0:
336,274,13592,2,0,B|285:265|285:265|246:294|246:294|196:285,1,149.039994996826,2|8,1:2|0:2,0:2:0:0:
55,194,14144,1,2,0:2:0:0:
206,139,14328,1,2,1:2:0:0:
84,21,14512,2,0,L|101:108,1,74.5199974984132,2|8,0:2|0:2,0:2:0:0:
0,234,14881,1,2,1:2:0:0:
0,234,15065,2,0,P|30:213|66:205,1,74.5199974984132,2|0,1:2|0:2,0:2:0:0:
236,233,15433,1,8,0:0:0:0:
100,317,15617,1,2,0:2:0:0:
179,121,15801,6,0,P|172:157|164:194,1,74.5199974984132,2|0,1:2|0:2,0:2:0:0:
289,338,16169,2,0,P|282:301|274:264,1,74.5199974984132,10|0,0:2|0:2,0:2:0:0:
446,162,16537,2,0,B|391:152|391:152|355:178|355:178|307:169,1,149.039994996826,2|10,1:2|0:2,0:2:0:0:
124,44,17089,1,2,0:2:0:0:
214,194,17273,1,2,1:2:0:0:
234,18,17457,1,2,0:2:0:0:
112,158,17641,1,10,0:2:0:0:
296,100,17825,1,10,0:2:0:0:
147,8,18009,2,0,L|162:80,1,74.5199974984132,2|0,1:2|1:2,0:2:0:0:
32,223,18378,2,0,L|47:150,1,74.5199974984132,8|0,0:2|1:2,0:2:0:0:
236,289,18746,6,0,P|184:238|113:248,2,149.039994996826,2|10|2,1:2|0:2|1:2,0:2:0:0:
328,352,19666,1,0,1:2:0:0:
328,352,19850,2,0,P|365:350|399:336,1,74.5199974984132,10|0,0:2|0:2,0:2:0:0:
489,199,20218,2,0,B|412:176|426:241|347:220,1,149.039994996826,2|8,1:2|0:2,0:2:0:0:
211,122,20770,1,2,1:2:0:0:
211,122,20954,2,0,P|224:176|232:212,1,74.5199974984132,0|0,1:2|1:2,0:2:0:0:
329,58,21322,2,0,P|303:31|267:20,1,74.5199974984132,10|0,0:2|0:2,0:2:0:0:
65,152,21690,6,0,P|137:136|210:121,1,149.039994996826,2|8,1:2|0:2,0:2:0:0:
334,279,22243,2,0,P|261:263|188:248,1,149.039994996826,0|0,1:2|1:2,0:2:0:0:
195,47,22795,2,0,L|210:119,1,74.5199974984132,8|2,0:2|0:2,0:2:0:0:
281,346,23163,5,10,0:2:0:0:
96,264,23347,1,10,0:2:0:0:
79,274,23899,5,10,0:2:0:0:
264,192,24083,1,10,0:2:0:0:
103,43,24451,5,2,0:2:0:0:
103,43,24543,1,2,0:2:0:0:
103,43,24635,2,0,B|82:68|58:86|58:86|92:165,1,149.039994996826,6|8,1:2|0:2,0:2:0:0:
162,313,25187,1,2,1:2:0:0:
294,194,25371,2,0,L|211:175,1,74.5199974984132,2|0,1:2|0:2,0:2:0:0:
317,327,25739,2,0,L|400:308,1,74.5199974984132,10|2,0:2|0:2,0:2:0:0:
507,203,26108,1,2,1:2:0:0:
345,133,26292,1,2,0:2:0:0:
479,297,26476,1,10,0:2:0:0:
447,84,26660,1,0,1:2:0:0:
447,84,26752,1,2,1:2:0:0:
447,84,26844,2,0,P|431:156|417:230,1,149.039994996826,2|8,1:2|0:2,0:2:0:0:
239,73,27396,5,2,0:2:0:0:
286,224,27580,2,0,P|317:205|336:173,1,74.5199974984132,2|0,1:2|0:2,0:2:0:0:
147,210,27948,2,0,P|147:246|164:279,1,74.5199974984132,10|0,0:2|0:2,0:2:0:0:
229,86,28316,2,0,P|197:67|160:66,1,74.5199974984132,2|0,1:2|3:2,3:2:0:0:
50,222,28684,1,10,0:2:0:0:
175,142,28868,1,2,0:2:0:0:
58,96,29052,5,2,1:2:0:0:
154,225,29236,1,2,1:2:0:0:
0,158,29420,1,10,0:2:0:0:
152,62,29604,1,10,0:2:0:0:
56,233,29789,1,2,0:2:0:0:
33,5,29973,2,0,L|60:122,1,98.8199959287416,6|8,1:2|0:2,0:2:0:0:
154,300,30341,5,2,0:2:0:0:
154,300,30433,1,2,0:2:0:0:
154,300,30525,2,0,L|171:217,1,74.5199974984132,0|2,1:2|0:2,0:2:0:0:
253,58,30893,1,10,0:2:0:0:
119,164,31077,2,0,P|151:147|188:147,1,74.5199974984132,10|0,0:2|1:2,0:2:0:0:
288,286,31445,5,2,1:2:0:0:
335,111,31629,1,10,0:2:0:0:
168,226,31813,2,0,L|182:299,1,74.5199974984132,2|0,0:2|1:2,0:2:0:0:
55,139,32181,5,2,0:2:0:0:
10,288,32365,1,10,0:2:0:0:
168,226,32549,2,0,L|69:208,1,74.5199974984132,10|0,0:2|1:2,0:2:0:0:
220,68,32917,5,2,1:2:0:0:
291,208,33101,1,10,0:2:0:0:
150,130,33285,1,2,0:2:0:0:
321,0,33470,2,0,L|307:73,1,74.5199974984132,2|0,1:2|0:2,0:2:0:0:
420,227,33838,2,0,L|406:153,1,74.5199974984132,10|0,0:2|0:2,0:2:0:0:
231,349,34206,1,2,1:2:0:0:
318,196,34390,1,0,1:2:0:0:
449,363,34574,2,0,P|417:343|381:335,1,74.5199974984132,10|2,0:2|0:2,0:2:0:0:
293,356,34850,1,2,0:2:0:0:
293,356,34942,2,0,L|214:337,1,74.5199974984132,6|0,1:2|0:2,0:2:0:0:
24,241,35310,5,10,0:2:0:0:
243,179,35494,1,2,1:2:0:0:
4,252,35678,5,10,0:2:0:0:
186,92,35862,1,0,1:2:0:0:
134,353,36046,1,10,0:2:0:0:
149,368,36414,6,0,L|271:350,2,116.640002847656,6|2|2,1:2|1:2|1:2,0:2:0:0:
24,241,37519,2,0,L|97:256,1,58.3200014238282,10|0,0:2|0:2,0:2:0:0:
147,154,37887,2,0,L|136:84,2,58.3200014238282,2|2|2,1:2|0:2|0:2,0:2:0:0:
227,220,38439,1,2,1:2:0:0:
227,220,38623,2,0,P|284:218|327:254,1,116.640002847656,2|10,1:2|0:2,0:2:0:0:
327,254,39175,1,2,0:2:0:0:
398,323,39359,6,0,L|469:308,1,58.3200014238282,2|0,1:2|0:2,0:2:0:0:
512,215,39727,2,0,L|441:200,1,58.3200014238282,2|0,0:2|1:2,0:2:0:0:
372,133,40095,2,0,L|384:61,1,58.3200014238282,2|0,1:2|0:2,0:2:0:0:
267,0,40463,2,0,L|276:57,1,58.3200014238282,10|0,0:2|0:2,0:2:0:0:
103,86,40831,1,2,1:2:0:0:
103,86,41016,2,0,P|127:71|155:62,1,58.3200014238282,2|0,0:2|0:2,0:2:0:0:
76,209,41384,1,2,1:2:0:0:
76,209,41568,2,0,L|8:194,1,58.3200014238282,2|0,1:2|0:2,0:2:0:0:
108,306,41936,2,0,L|176:291,1,58.3200014238282,10|0,0:2|0:2,0:2:0:0:
324,251,42304,6,0,P|281:212|224:207,2,116.640002847656,2|2|2,1:2|1:2|1:2,0:2:0:0:
451,378,43408,2,0,L|460:321,1,58.3200014238282,10|0,0:2|0:2,0:2:0:0:
379,165,43776,2,0,L|387:222,2,58.3200014238282,2|2|2,1:2|0:2|0:2,0:2:0:0:
273,88,44328,2,0,P|246:97|216:97,1,58.3200014238282,2|2,1:2|1:2,0:2:0:0:
55,30,44697,1,10,0:2:0:0:
156,222,44881,1,10,0:2:0:0:
9,153,45065,5,10,0:2:0:0:
9,153,45157,1,10,0:2:0:0:
8,153,45249,2,0,P|45:133|85:130,1,82.6200005042725,6|2,1:2|1:2,0:2:0:0:
229,215,45617,1,10,0:2:0:0:
72,354,45801,2,0,L|91:259,1,82.6200005042725,2|0,1:2|1:2,0:2:0:0:
252,304,46169,1,2,1:2:0:0:
181,127,46353,1,10,0:2:0:0:
178,354,46537,2,0,P|234:382|271:378,1,82.6200005042725,2|0,0:2|1:2,0:2:0:0:
435,215,46905,5,2,1:2:0:0:
240,282,47089,1,10,0:2:0:0:
458,209,47273,1,2,1:2:0:0:
212,121,47457,1,2,1:2:0:0:
462,29,47641,1,14,0:2:0:0:
363,278,47825,1,2,1:2:0:0:
115,46,48009,6,0,B|168:19|168:19|285:43,1,165.240001008545,14|10,0:2|0:2,0:2:0:0:
385,200,48562,1,10,0:2:0:0:
188,125,48746,1,10,0:2:0:0:
404,30,48930,1,10,0:2:0:0:
310,257,49114,1,10,0:2:0:0:
192,25,49298,1,10,0:2:0:0:
461,185,49482,1,10,0:2:0:0:
461,185,49574,1,10,0:0:0:0:
461,185,49666,5,10,0:2:0:0:
102,342,49850,1,14,0:0:0:0:
102,342,50402,5,8,0:0:0:0:
84,103,50586,1,8,0:0:0:0:
247,263,50770,1,8,0:0:0:0:
11,234,50954,1,10,0:0:0:0:
11,234,51046,1,10,0:0:0:0:
11,234,51138,2,0,L|107:214,1,90.7200011074219,6|0,1:2|0:2,0:2:0:0:
307,88,51506,1,8,0:2:0:0:
102,16,51690,1,10,0:2:0:0:
288,251,51874,2,0,P|301:208|290:165,1,90.7200011074219,2|0,1:2|0:2,0:2:0:0:
2,32,52243,6,0,B|47:42|47:42|90:31,1,90.7200011074219,10|0,0:2|0:2,0:2:0:0:
288,251,52611,6,0,P|232:183|144:183,1,181.440002214844,2|8,1:2|0:2,0:2:0:0:
0,277,53163,1,10,0:2:0:0:
198,384,53347,2,0,P|242:373|287:363,1,90.7200011074219,2|0,1:2|0:2,0:2:0:0:
512,301,53715,6,0,B|466:302|466:302|427:280,1,90.7200011074219,10|0,0:2|0:2,0:2:0:0:
329,84,54083,6,0,P|336:129|319:170,1,90.7200011074219,2|0,1:2|0:2,0:2:0:0:
160,49,54451,2,0,P|195:21|239:15,1,90.7200011074219,10|8,0:2|0:2,0:2:0:0:
202,214,54819,2,0,P|160:197|132:162,1,90.7200011074219,2|0,1:2|0:2,0:2:0:0:
228,112,55187,1,10,0:2:0:0:
105,256,55371,1,2,0:2:0:0:
35,91,55555,5,2,1:2:0:0:
195,209,55739,1,2,1:2:0:0:
18,91,55924,1,10,0:2:0:0:
250,14,56108,1,10,0:2:0:0:
105,256,56292,5,2,1:2:0:0:
9,2,56476,1,2,1:2:0:0:
231,115,56660,1,10,0:2:0:0:
7,281,56844,5,10,0:2:0:0:
7,281,56936,1,10,0:2:0:0:
7,281,57028,2,0,P|15:235|23:191,1,90.7200011074219,6|0,1:2|0:2,0:2:0:0:
210,323,57396,1,8,0:2:0:0:
108,113,57580,1,10,0:2:0:0:
33,364,57764,6,0,B|75:384|127:352|99:328|157:299|196:321,1,181.440002214844,2|8,1:2|0:2,0:2:0:0:
381,241,58316,1,10,0:2:0:0:
381,241,58408,1,10,0:2:0:0:
381,241,58500,1,2,1:2:0:0:
129,168,58684,1,2,1:2:0:0:
364,75,58868,1,10,0:2:0:0:
259,270,59052,2,0,L|239:168,1,90.7200011074219,10|0,0:2|1:2,0:2:0:0:
452,218,59420,1,2,0:2:0:0:
363,0,59604,2,0,L|345:89,1,90.7200011074219,10|2,0:2|0:2,0:2:0:0:
104,157,59973,6,0,P|151:84|238:88,1,181.440002214844,6|10,1:2|0:2,0:2:0:0:
109,262,60525,2,0,P|65:273|20:282,1,90.7200011074219,8|0,0:2|1:2,0:2:0:0:
198,163,60893,2,0,P|241:174|286:183,1,90.7200011074219,2|8,0:2|0:2,0:2:0:0:
427,0,61261,2,0,B|404:32|375:47|375:47|411:155,1,181.440002214844,6|2,1:2|1:2,0:2:0:0:
489,371,61813,1,10,0:2:0:0:
261,246,61997,1,2,1:2:0:0:
261,246,62089,1,2,1:2:0:0:
261,246,62181,1,10,0:2:0:0:
512,145,62365,1,0,1:2:0:0:
251,384,62549,5,10,0:2:0:0:
61,52,62917,6,0,P|100:30|145:27,1,90.7200011074219,6|0,1:2|0:2,0:2:0:0:
94,232,63285,2,0,P|55:208|30:171,1,90.7200011074219,10|8,0:2|0:2,0:2:0:0:
235,123,63654,2,0,P|234:167|214:208,1,90.7200011074219,2|0,1:2|0:2,0:2:0:0:
19,339,64022,1,10,0:2:0:0:
141,145,64206,1,2,0:2:0:0:
239,373,64390,6,0,L|137:347,1,90.7200011074219,2|2,1:2|0:2,0:2:0:0:
307,161,64758,1,10,0:2:0:0:
374,350,64942,1,10,0:2:0:0:
208,139,65126,2,0,P|221:96|255:67,1,90.7200011074219,2|2,1:2|0:2,0:2:0:0:
476,208,65494,1,10,0:2:0:0:
235,256,65678,1,2,0:2:0:0:
446,24,65862,6,0,B|480:20|506:8|506:8|471:133,1,181.440002214844,6|10,1:2|0:2,0:2:0:0:
360,367,66414,1,8,0:2:0:0:
213,160,66598,2,0,L|306:143,1,90.7200011074219,2|0,1:2|0:2,0:2:0:0:
122,325,66966,2,0,L|32:308,1,90.7200011074219,10|2,0:2|0:2,0:2:0:0:
119,105,67335,5,2,1:2:0:0:
257,293,67519,1,2,0:2:0:0:
254,22,67703,1,10,0:2:0:0:
73,205,67887,1,10,0:2:0:0:
73,205,67979,1,10,0:2:0:0:
73,205,68071,1,2,1:2:0:0:
327,93,68255,1,2,1:2:0:0:
104,7,68439,2,0,L|131:108,1,90.7200011074219,10|10,0:2|0:2,0:2:0:0:
188,158,68715,5,10,0:2:0:0:
188,158,68807,2,0,P|274:167|299:249,1,181.440002214844,6|8,1:2|0:2,0:2:0:0:
299,248,69359,1,10,0:2:0:0:
92,345,69543,2,0,B|187:316|169:395|263:373,1,181.440002214844,2|8,1:2|0:2,0:2:0:0:
458,163,70095,5,2,1:2:0:0:
458,163,70187,1,2,1:2:0:0:
458,163,70279,1,2,1:2:0:0:
254,262,70463,1,2,1:2:0:0:
512,323,70647,1,10,0:2:0:0:
315,89,70831,2,0,L|348:273,1,181.440002214844,10|2,0:2|1:2,0:2:0:0:
512,156,71384,2,0,P|474:130|430:125,1,90.7200011074219,10|2,0:2|0:2,0:2:0:0:
245,294,71752,5,6,1:2:0:0:
343,239,71936,1,8,0:2:0:0:
245,189,72120,1,10,0:2:0:0:
345,327,72304,1,10,0:2:0:0:
155,241,72488,1,8,0:2:0:0:
330,132,72672,1,10,0:2:0:0:
126,40,72856,1,8,0:2:0:0:
257,305,73040,1,2,1:2:0:0:
257,305,73132,1,2,1:2:0:0:
255,305,73224,5,14,0:2:0:0:
435,226,73408,1,8,0:2:0:0:
263,140,73592,1,10,0:2:0:0:
362,338,73776,1,10,0:2:0:0:
465,84,73960,1,8,0:2:0:0:
206,214,74144,1,10,0:2:0:0:
511,271,74328,1,8,0:2:0:0:
252,35,74512,1,8,0:2:0:0:
160,384,74697,5,14,0:2:0:0:
365,129,74881,1,0,1:2:0:0:
53,239,75065,1,0,1:2:0:0:
334,4,75249,5,8,0:2:0:0:
328,333,75433,1,0,1:2:0:0:
125,68,75617,1,2,1:2:0:0:
472,229,75801,5,10,0:2:0:0:
87,364,75985,1,14,0:2:0:0:
104,378,76353,6,0,P|165:373|214:335,1,123.930000756409,10|10,0:2|0:2,0:2:0:0:
201,192,76905,2,0,L|79:215,2,123.930000756409,10|10|10,0:2|0:2|0:2,0:2:0:0:
263,134,77549,5,10,0:2:0:0:
263,134,77641,2,0,L|356:155,1,74.5199974984132,6|0,1:2|0:2,0:2:0:0:
205,41,78009,2,0,L|112:62,1,74.5199974984132,10|8,0:2|0:2,0:2:0:0:
1,216,78378,2,0,P|52:164|124:167,1,149.039994996826,2|10,1:2|0:2,0:2:0:0:
185,309,78930,1,2,0:2:0:0:
185,309,79114,2,0,L|97:284,1,74.5199974984132,2|2,1:2|1:2,0:2:0:0:
206,208,79482,1,10,0:2:0:0:
249,376,79666,1,10,0:2:0:0:
134,221,79850,2,0,P|161:196|196:185,1,74.5199974984132,0|0,1:2|0:2,0:2:0:0:
401,221,80218,5,10,0:2:0:0:
415,246,80310,1,10,0:2:0:0:
413,275,80402,1,10,0:2:0:0:
398,301,80494,1,10,0:2:0:0:
376,316,80586,2,0,L|278:298,1,82.6200005042725,6|2,1:2|0:2,0:2:0:0:
69,204,80954,5,10,0:2:0:0:
278,110,81138,1,2,1:2:0:0:
0,67,81322,5,8,0:2:0:0:
205,181,81506,1,2,1:2:0:0:
0,287,81690,5,10,0:2:0:0:
148,22,81874,1,14,0:2:0:0:
173,36,82243,6,0,L|253:17,2,82.6200005042725,2|2|2,0:2|0:2|0:2,0:2:0:0:
86,104,82795,5,2,0:2:0:0:
146,209,82979,1,2,0:2:0:0:
62,186,83163,1,2,0:2:0:0:
170,127,83347,1,10,0:2:0:0:
188,114,83715,5,10,0:2:0:0:
2,239,83899,1,10,0:2:0:0:
210,356,84083,1,2,1:2:0:0:
206,335,84175,1,2,1:2:0:0:
202,315,84267,1,10,0:2:0:0:
323,165,84451,1,10,0:2:0:0:
319,186,84543,1,10,0:2:0:0:
315,206,84635,1,10,0:2:0:0:
414,366,84819,6,0,L|317:349,1,82.6200005042725,2|0,1:2|0:2,0:2:0:0:
259,284,85187,2,0,L|218:292,2,41.3100002521362,10|10|10,0:2|0:2|0:2,0:2:0:0:
91,360,85555,5,6,1:2:0:0:
256,192,85647,12,0,90893,0:2:0:0:
