osu file format v14

[General]
AudioFilename: audio.mp3
AudioLeadIn: 0
PreviewTime: 49429
Countdown: 0
SampleSet: Soft
StackLeniency: 0.7
Mode: 3
LetterboxInBreaks: 0
SpecialStyle: 0
WidescreenStoryboard: 0

[Editor]
DistanceSpacing: 1
BeatDivisor: 4
GridSize: 16
TimelineZoom: 2

[Metadata]
Title:Best FriendS (GoldenWolf Edit)
TitleUnicode:Best FriendS (GoldenWolf Edit)
Artist:Fujijo Seitokai Shikkou-bu
ArtistUnicode:藤女生徒会執行部
Creator:Kibitz
Version:Everlasting Memories
Source:LOVE LAB
Tags:anime japanese pop jpop j-pop tvsize ED 恋愛ラブラボ ending 千葉"naotyu-"直樹 沼倉愛美 赤﨑千夏 水瀬いのり 佐倉綾音 大地葉 numakura manami akasaki chinatsu minase inori sakura ayane taichi you 恋愛ラボ 倉橋莉子 真木夏緒 棚橋鈴音 榎本結子 水嶋沙依理 kurahashi riko maki natsuo tanahashi suzune enomoto yuiko mizushima sayori remix Maxim-Miau ML-ysg
BeatmapID:4045249
BeatmapSetID:1953393

[Difficulty]
HPDrainRate:8
CircleSize:4
OverallDifficulty:8
ApproachRate:5
SliderMultiplier:1.4
SliderTickRate:1

[Events]
//Background and Video events
0,0,"tomodachi.jpg",0,0
//Break Periods
//Storyboard Layer 0 (Background)
//Storyboard Layer 1 (Fail)
//Storyboard Layer 2 (Pass)
//Storyboard Layer 3 (Foreground)
//Storyboard Layer 4 (Overlay)
//Storyboard Sound Samples

[TimingPoints]
-724,368.098159509202,4,2,1,60,1,0
50809,-100,4,2,1,60,0,1
62220,-100,4,2,1,60,0,0
62588,-100,4,2,1,60,0,1
77312,-100,4,2,1,60,0,0

[HitObjects]
320,192,12,5,8,0:0:0:0:
448,192,12,1,0,0:0:0:0:
64,192,104,1,0,0:0:0:40:Tom1.wav
192,192,104,1,0,0:0:0:0:
320,192,196,1,2,0:0:0:0:
448,192,196,1,0,0:0:0:0:
192,192,288,1,2,0:0:0:0:
64,192,380,1,8,0:0:0:0:
448,192,380,1,0,0:0:0:0:
192,192,472,1,0,0:0:0:40:Tom2.wav
320,192,472,1,0,0:0:0:0:
64,192,564,1,0,0:0:0:40:Tom2.wav
448,192,564,1,0,0:0:0:0:
320,192,656,1,2,0:0:0:0:
64,192,748,1,4,0:0:0:0:
192,192,748,1,8,0:0:0:0:
448,192,748,1,0,0:0:0:0:
192,192,932,1,2,0:0:0:0:
64,192,1116,1,8,0:0:0:0:
320,192,1116,1,0,0:0:0:0:
448,192,1116,1,0,0:0:0:0:
64,192,1300,1,2,0:0:0:0:
192,192,1484,1,8,0:0:0:0:
320,192,1484,1,0,0:0:0:0:
448,192,1484,1,0,0:0:0:0:
320,192,1668,1,2,0:0:0:0:
64,192,1852,1,8,0:0:0:0:
192,192,1852,1,0,0:0:0:0:
448,192,1852,1,0,0:0:0:0:
448,192,2036,1,2,0:0:0:0:
64,192,2220,1,8,0:0:0:0:
192,192,2220,1,0,0:0:0:0:
320,192,2220,1,0,0:0:0:0:
192,192,2404,1,2,0:0:0:0:
64,192,2588,1,8,0:0:0:0:
320,192,2588,1,0,0:0:0:0:
448,192,2588,1,0,0:0:0:0:
320,192,2772,1,2,0:0:0:0:
64,192,2956,1,8,0:0:0:0:
192,192,2956,1,0,0:0:0:0:
448,192,2956,1,0,0:0:0:0:
192,192,3141,128,2,3233:0:0:0:0:
64,192,3325,1,8,0:0:0:0:
320,192,3325,128,0,3417:0:0:0:0:
448,192,3325,1,0,0:0:0:0:
448,192,3509,128,2,3601:0:0:0:0:
64,192,3693,1,8,0:0:0:0:
192,192,3693,1,0,0:0:0:0:
320,192,3693,1,0,0:0:0:0:
64,192,3877,128,2,3969:0:0:0:0:
192,192,4061,1,8,0:0:0:0:
320,192,4061,1,0,0:0:0:0:
448,192,4061,128,0,4153:0:0:0:0:
192,192,4245,128,2,4337:0:0:0:0:
64,192,4429,1,8,0:0:0:0:
320,192,4429,1,0,0:0:0:0:
448,192,4429,1,0,0:0:0:0:
448,192,4613,128,2,4705:0:0:0:0:
64,192,4797,1,8,0:0:0:0:
192,192,4797,1,0,0:0:0:0:
320,192,4797,128,0,4889:0:0:0:0:
64,192,4981,128,2,5165:0:0:0:0:
192,192,5165,1,8,0:0:0:0:
320,192,5165,1,0,0:0:0:0:
448,192,5165,128,0,5349:0:0:0:0:
320,192,5349,1,2,0:0:0:0:
64,192,5533,1,8,0:0:0:0:
192,192,5533,1,0,0:0:0:0:
448,192,5533,1,0,0:0:0:0:
64,192,5717,1,2,0:0:0:0:
192,192,5717,1,8,0:0:0:0:
320,192,5809,1,8,0:0:0:0:
448,192,5809,1,0,0:0:0:0:
64,192,5901,1,8,0:0:0:0:
192,192,5901,1,0,0:0:0:50:Splash.wav
192,192,6085,1,2,0:0:0:0:
320,192,6085,1,0,0:0:0:0:
64,192,6269,1,8,0:0:0:0:
320,192,6269,1,0,0:0:0:0:
448,192,6269,128,0,6453:0:0:0:0:
192,192,6453,1,2,0:0:0:0:
320,192,6545,1,0,0:0:0:0:
64,192,6637,128,8,6822:0:0:0:0:
192,192,6637,1,0,0:0:0:0:
448,192,6637,1,0,0:0:0:0:
448,192,6822,1,2,0:0:0:0:
64,192,7006,1,8,0:0:0:0:
192,192,7006,128,0,7098:0:0:0:0:
320,192,7006,1,0,0:0:0:0:
320,192,7190,1,2,0:0:0:0:
64,192,7374,1,8,0:0:0:0:
192,192,7374,1,0,0:0:0:0:
448,192,7374,1,0,0:0:0:0:
64,192,7558,1,2,0:0:0:0:
192,192,7742,1,8,0:0:0:0:
320,192,7742,1,0,0:0:0:0:
448,192,7742,1,0,0:0:0:0:
192,192,7926,1,2,0:0:0:0:
64,192,8110,1,8,0:0:0:0:
320,192,8110,1,0,0:0:0:0:
448,192,8110,1,0,0:0:0:0:
448,192,8294,1,2,0:0:0:0:
64,192,8478,1,8,0:0:0:0:
192,192,8478,1,0,0:0:0:0:
320,192,8478,1,0,0:0:0:0:
320,192,8662,1,2,0:0:0:0:
64,192,8846,1,8,0:0:0:0:
192,192,8846,1,0,0:0:0:0:
448,192,8846,128,0,8938:0:0:0:0:
64,192,9030,128,2,9122:0:0:0:0:
192,192,9214,1,8,0:0:0:0:
320,192,9214,128,0,9306:0:0:0:50:Splash.wav
448,192,9214,1,0,0:0:0:0:
64,192,9306,1,0,0:0:0:0:
448,192,9398,1,2,0:0:0:0:
320,192,9490,1,0,0:0:0:0:
64,192,9582,1,2,0:0:0:0:
192,192,9582,1,0,0:0:0:0:
64,192,9766,1,2,0:0:0:0:
192,192,9766,1,0,0:0:0:0:
64,192,9950,1,8,0:0:0:0:
192,192,9950,1,0,0:0:0:50:Splash.wav
320,192,9950,1,0,0:0:0:0:
448,192,9950,1,0,0:0:0:0:
64,192,10134,1,2,0:0:0:0:
192,192,10134,1,0,0:0:0:0:
320,192,10318,1,2,0:0:0:0:
448,192,10318,1,0,0:0:0:0:
320,192,10502,1,2,0:0:0:0:
448,192,10502,1,0,0:0:0:0:
64,192,10687,1,8,0:0:0:0:
192,192,10687,1,0,0:0:0:50:Splash.wav
320,192,10687,1,0,0:0:0:0:
448,192,10687,1,0,0:0:0:0:
320,192,10871,1,2,0:0:0:0:
448,192,10871,1,0,0:0:0:0:
64,192,11055,1,2,0:0:0:0:
192,192,11055,1,0,0:0:0:0:
64,192,11239,1,2,0:0:0:0:
192,192,11239,1,0,0:0:0:0:
320,192,11423,1,8,0:0:0:0:
448,192,11423,1,0,0:0:0:0:
64,192,11515,1,8,0:0:0:0:
192,192,11515,1,0,0:0:0:0:
320,192,11607,1,8,0:0:0:0:
448,192,11607,1,0,0:0:0:0:
64,192,11699,1,8,0:0:0:0:
192,192,11699,1,0,0:0:0:0:
64,192,11791,1,8,0:0:0:0:
320,192,11791,1,0,0:0:0:0:
448,192,11791,1,0,0:0:0:0:
64,192,11975,1,8,0:0:0:0:
192,192,11975,1,0,0:0:0:0:
320,192,11975,1,0,0:0:0:0:
448,192,11975,128,0,12343:0:0:0:0:
64,192,12527,1,2,0:0:0:0:
192,192,12527,1,4,0:0:0:0:
320,192,12527,1,0,0:0:0:0:
448,192,12527,1,0,0:0:0:0:
192,192,12895,1,8,0:0:0:0:
320,192,12895,1,0,0:0:0:0:
448,192,12895,1,0,0:0:0:0:
64,192,13079,1,2,0:0:0:0:
192,192,13079,1,0,0:0:0:0:
64,192,13263,1,2,0:0:0:0:
192,192,13263,1,0,0:0:0:0:
320,192,13447,1,0,0:0:0:0:
64,192,13631,1,8,0:0:0:0:
320,192,13631,1,0,0:0:0:0:
448,192,13631,1,0,0:0:0:0:
192,192,13815,1,0,0:0:0:0:
64,192,13999,1,2,0:0:0:0:
320,192,13999,1,0,0:0:0:0:
448,192,14183,1,0,0:0:0:0:
64,192,14368,1,8,0:0:0:0:
192,192,14368,1,0,0:0:0:0:
320,192,14368,1,0,0:0:0:0:
320,192,14552,1,2,0:0:0:0:
448,192,14552,1,0,0:0:0:0:
320,192,14736,1,2,0:0:0:0:
448,192,14736,1,0,0:0:0:0:
64,192,14920,1,0,0:0:0:0:
64,192,15104,1,8,0:0:0:0:
192,192,15104,1,0,0:0:0:0:
448,192,15104,1,0,0:0:0:0:
320,192,15288,1,0,0:0:0:0:
64,192,15472,1,2,0:0:0:0:
192,192,15472,1,0,0:0:0:0:
320,192,15656,1,0,0:0:0:0:
64,192,15840,1,8,0:0:0:0:
192,192,15840,1,0,0:0:0:0:
448,192,15840,1,0,0:0:0:0:
192,192,16024,1,2,0:0:0:0:
320,192,16024,1,0,0:0:0:0:
192,192,16208,1,2,0:0:0:0:
320,192,16208,1,0,0:0:0:0:
64,192,16392,1,0,0:0:0:0:
64,192,16576,1,8,0:0:0:0:
192,192,16576,1,0,0:0:0:0:
448,192,16576,1,0,0:0:0:0:
320,192,16760,1,0,0:0:0:0:
64,192,16944,1,2,0:0:0:0:
448,192,16944,1,0,0:0:0:0:
192,192,17128,1,0,0:0:0:0:
64,192,17312,1,8,0:0:0:0:
320,192,17312,1,0,0:0:0:0:
448,192,17312,1,0,0:0:0:0:
192,192,17496,1,2,0:0:0:0:
448,192,17496,1,0,0:0:0:0:
192,192,17680,1,2,0:0:0:0:
448,192,17680,1,0,0:0:0:0:
64,192,17864,1,2,0:0:0:0:
320,192,17864,1,0,0:0:0:0:
64,192,18049,1,8,0:0:0:0:
320,192,18049,1,0,0:0:0:0:
448,192,18049,1,0,0:0:0:0:
192,192,18233,1,0,0:0:0:0:
320,192,18417,1,2,0:0:0:0:
448,192,18417,1,0,0:0:0:0:
64,192,18601,1,0,0:0:0:0:
192,192,18785,1,8,0:0:0:0:
320,192,18785,1,0,0:0:0:0:
448,192,18785,1,0,0:0:0:0:
64,192,18969,1,2,0:0:0:0:
320,192,18969,1,0,0:0:0:0:
64,192,19153,1,2,0:0:0:0:
320,192,19153,1,0,0:0:0:0:
448,192,19337,1,0,0:0:0:0:
64,192,19521,1,8,0:0:0:0:
192,192,19521,1,0,0:0:0:0:
448,192,19521,1,0,0:0:0:0:
320,192,19705,1,0,0:0:0:0:
64,192,19889,1,2,0:0:0:0:
448,192,19889,1,0,0:0:0:0:
192,192,20073,1,0,0:0:0:0:
64,192,20257,1,8,0:0:0:0:
320,192,20257,1,0,0:0:0:0:
448,192,20257,1,0,0:0:0:0:
192,192,20441,1,2,0:0:0:0:
320,192,20441,1,0,0:0:0:0:
192,192,20625,1,2,0:0:0:0:
320,192,20625,1,0,0:0:0:0:
64,192,20809,1,2,0:0:0:0:
448,192,20809,1,0,0:0:0:0:
64,192,20993,1,8,0:0:0:0:
192,192,20993,1,0,0:0:0:0:
448,192,20993,1,0,0:0:0:0:
320,192,21177,1,0,0:0:0:0:
64,192,21361,1,2,0:0:0:0:
192,192,21361,1,0,0:0:0:0:
320,192,21545,1,0,0:0:0:0:
64,192,21729,1,8,0:0:0:0:
192,192,21729,1,0,0:0:0:0:
448,192,21729,1,0,0:0:0:0:
320,192,21914,1,2,0:0:0:0:
448,192,21914,1,0,0:0:0:0:
64,192,22098,1,2,0:0:0:0:
320,192,22098,1,0,0:0:0:0:
64,192,22282,1,2,0:0:0:0:
320,192,22282,1,0,0:0:0:0:
64,192,22466,1,8,0:0:0:0:
192,192,22466,1,0,0:0:0:0:
448,192,22466,1,0,0:0:0:0:
192,192,22650,1,2,0:0:0:0:
320,192,22650,1,0,0:0:0:0:
64,192,22834,1,8,0:0:0:0:
320,192,22834,1,2,0:0:0:0:
448,192,22834,1,0,0:0:0:0:
64,192,23018,1,8,0:0:0:0:
192,192,23018,1,0,0:0:0:0:
320,192,23018,1,0,0:0:0:0:
64,192,23570,1,8,0:0:0:0:
192,192,23570,1,2,0:0:0:0:
448,192,23570,1,0,0:0:0:0:
192,192,23754,1,8,0:0:0:0:
320,192,23754,1,0,0:0:0:0:
448,192,23754,1,0,0:0:0:0:
64,192,23938,1,8,0:0:0:0:
192,192,23938,1,0,0:0:0:0:
320,192,24030,1,8,0:0:0:0:
448,192,24030,1,0,0:0:0:0:
64,192,24122,1,8,0:0:0:0:
192,192,24122,1,0,0:0:0:0:
320,192,24214,1,8,0:0:0:0:
448,192,24214,1,0,0:0:0:0:
64,192,24306,1,4,0:0:0:0:
192,192,24306,1,2,0:0:0:0:
320,192,24306,1,0,0:0:0:0:
448,192,24306,1,0,0:0:0:0:
64,192,24674,1,8,0:0:0:0:
192,192,24674,1,0,0:0:0:0:
320,192,24674,1,0,0:0:0:0:
320,192,24858,1,2,0:0:0:0:
448,192,24858,1,0,0:0:0:0:
320,192,25042,1,2,0:0:0:0:
448,192,25042,1,0,0:0:0:0:
192,192,25226,1,0,0:0:0:0:
64,192,25410,1,8,0:0:0:0:
192,192,25410,1,0,0:0:0:0:
448,192,25410,1,0,0:0:0:0:
320,192,25595,1,0,0:0:0:0:
192,192,25779,1,2,0:0:0:0:
448,192,25779,1,0,0:0:0:0:
64,192,25963,1,0,0:0:0:0:
192,192,26147,1,8,0:0:0:0:
320,192,26147,1,0,0:0:0:0:
448,192,26147,1,0,0:0:0:0:
64,192,26331,1,2,0:0:0:0:
192,192,26331,1,0,0:0:0:0:
64,192,26515,1,2,0:0:0:0:
192,192,26515,1,0,0:0:0:0:
320,192,26699,1,2,0:0:0:0:
448,192,26699,1,0,0:0:0:0:
64,192,26883,1,8,0:0:0:0:
320,192,26883,1,0,0:0:0:0:
448,192,26883,1,0,0:0:0:0:
192,192,27067,1,0,0:0:0:0:
320,192,27251,1,2,0:0:0:0:
448,192,27251,1,0,0:0:0:0:
192,192,27435,1,0,0:0:0:0:
64,192,27619,1,8,0:0:0:0:
320,192,27619,1,0,0:0:0:0:
448,192,27619,1,0,0:0:0:0:
192,192,27803,1,2,0:0:0:0:
320,192,27803,1,0,0:0:0:0:
192,192,27987,1,2,0:0:0:0:
320,192,27987,1,0,0:0:0:0:
448,192,28171,1,0,0:0:0:0:
64,192,28355,1,8,0:0:0:0:
320,192,28355,1,0,0:0:0:0:
448,192,28355,1,0,0:0:0:0:
192,192,28539,1,0,0:0:0:0:
64,192,28723,1,2,0:0:0:0:
448,192,28723,1,0,0:0:0:0:
320,192,28907,1,0,0:0:0:0:
64,192,29091,1,8,0:0:0:0:
192,192,29091,1,0,0:0:0:0:
448,192,29091,1,0,0:0:0:0:
64,192,29275,1,2,0:0:0:0:
320,192,29275,1,0,0:0:0:0:
64,192,29460,1,2,0:0:0:0:
320,192,29460,1,0,0:0:0:0:
192,192,29644,1,2,0:0:0:0:
448,192,29644,1,4,0:0:0:0:
64,192,29828,1,8,0:0:0:0:
192,192,29828,1,0,0:0:0:0:
448,192,29828,1,0,0:0:0:0:
320,192,30012,1,0,0:0:0:0:
64,192,30196,1,2,0:0:0:0:
192,192,30196,1,0,0:0:0:0:
448,192,30380,1,0,0:0:0:0:
64,192,30564,1,8,0:0:0:0:
192,192,30564,1,0,0:0:0:0:
320,192,30564,1,0,0:0:0:0:
192,192,30748,1,2,0:0:0:0:
448,192,30748,1,0,0:0:0:0:
192,192,30932,1,2,0:0:0:0:
448,192,30932,1,0,0:0:0:0:
64,192,31116,1,0,0:0:0:0:
64,192,31300,1,8,0:0:0:0:
320,192,31300,1,0,0:0:0:0:
448,192,31300,1,0,0:0:0:0:
192,192,31484,1,0,0:0:0:0:
64,192,31668,1,2,0:0:0:0:
448,192,31668,1,0,0:0:0:0:
320,192,31852,1,0,0:0:0:0:
64,192,32036,1,8,0:0:0:0:
192,192,32036,1,0,0:0:0:0:
448,192,32036,1,0,0:0:0:0:
192,192,32220,1,2,0:0:0:0:
320,192,32220,1,0,0:0:0:0:
192,192,32404,1,2,0:0:0:0:
320,192,32404,1,0,0:0:0:0:
64,192,32588,1,2,0:0:0:0:
448,192,32588,1,0,0:0:0:0:
64,192,32772,1,8,0:0:0:0:
320,192,32772,1,0,0:0:0:0:
448,192,32772,1,0,0:0:0:0:
192,192,32956,1,0,0:0:0:0:
320,192,33141,1,2,0:0:0:0:
448,192,33141,1,0,0:0:0:0:
192,192,33325,1,0,0:0:0:0:
64,192,33509,1,8,0:0:0:0:
320,192,33509,1,0,0:0:0:0:
448,192,33509,1,0,0:0:0:0:
64,192,33693,1,2,0:0:0:0:
192,192,33693,1,0,0:0:0:0:
192,192,33877,1,2,0:0:0:0:
448,192,33877,1,0,0:0:0:0:
192,192,34061,1,2,0:0:0:0:
448,192,34061,1,0,0:0:0:0:
64,192,34245,1,8,0:0:0:0:
320,192,34245,1,0,0:0:0:50:Splash.wav
448,192,34245,1,0,0:0:0:0:
64,192,34429,1,8,0:0:0:0:
192,192,34429,1,0,0:0:0:0:
320,192,34521,1,8,0:0:0:0:
64,192,34613,1,2,0:0:0:0:
192,192,34613,1,0,0:0:0:25:Splash.wav
448,192,34613,1,0,0:0:0:0:
320,192,34797,1,2,0:0:0:0:
448,192,34797,1,0,0:0:0:0:
64,192,34981,1,8,0:0:0:0:
192,192,34981,1,0,0:0:0:25:Splash.wav
448,192,34981,1,0,0:0:0:0:
64,192,35165,1,2,0:0:0:0:
192,192,35165,1,0,0:0:0:0:
64,192,35349,1,8,0:0:0:0:
320,192,35349,1,0,0:0:0:25:Splash.wav
448,192,35349,1,0,0:0:0:0:
320,192,35533,1,2,0:0:0:0:
448,192,35533,1,0,0:0:0:0:
64,192,35717,1,8,0:0:0:0:
192,192,35717,1,0,0:0:0:25:Splash.wav
448,192,35717,1,0,0:0:0:0:
192,192,35901,1,2,0:0:0:0:
320,192,35901,1,0,0:0:0:0:
64,192,36085,1,4,0:0:0:0:
192,192,36085,1,2,0:0:0:0:
320,192,36085,1,0,0:0:0:0:
448,192,36085,1,0,0:0:0:0:
320,192,36453,1,0,0:0:0:50:Edge.wav
64,192,36637,1,2,0:0:0:0:
448,192,36637,1,0,0:0:0:0:
192,192,36822,1,2,0:0:0:0:
320,192,36822,1,0,0:0:0:50:Edge.wav
320,192,37190,1,0,0:0:0:50:Edge.wav
64,192,37558,1,2,0:0:0:0:
448,192,37558,1,0,0:0:0:50:Edge.wav
320,192,37926,1,0,0:0:0:50:Edge.wav
64,192,38110,1,2,0:0:0:0:
192,192,38110,1,0,0:0:0:0:
320,192,38294,1,2,0:0:0:0:
448,192,38294,1,0,0:0:0:50:Edge.wav
320,192,38662,1,0,0:0:0:50:Edge.wav
64,192,39030,1,2,0:0:0:0:
320,192,39030,1,0,0:0:0:50:Edge.wav
192,192,39398,1,0,0:0:0:50:Edge.wav
320,192,39582,1,2,0:0:0:0:
448,192,39582,1,0,0:0:0:0:
192,192,39766,1,2,0:0:0:0:
320,192,39766,1,0,0:0:0:50:Edge.wav
192,192,40134,1,0,0:0:0:50:Edge.wav
64,192,40502,1,2,0:0:0:0:
448,192,40502,1,0,0:0:0:50:Edge.wav
192,192,40871,1,0,0:0:0:50:Edge.wav
320,192,41055,1,2,0:0:0:0:
448,192,41055,1,0,0:0:0:0:
64,192,41239,1,0,0:0:0:50:Edge.wav
192,192,41239,1,0,0:0:0:0:
320,192,41423,1,2,0:0:0:0:
448,192,41423,1,0,0:0:0:0:
320,192,41584,1,0,0:0:0:0:
64,192,41607,1,8,0:0:0:0:
192,192,41607,1,0,0:0:0:0:
448,192,41607,1,0,0:0:0:0:
64,192,41975,1,4,0:0:0:0:
192,192,41975,1,2,0:0:0:0:
320,192,41975,1,0,0:0:0:0:
448,192,41975,1,0,0:0:0:0:
448,192,42343,1,0,0:0:0:50:Edge.wav
64,192,42527,1,2,0:0:0:0:
192,192,42527,1,0,0:0:0:0:
320,192,42711,1,2,0:0:0:0:
448,192,42711,1,0,0:0:0:50:Edge.wav
64,192,42895,1,0,0:0:0:0:
448,192,43079,1,0,0:0:0:50:Edge.wav
64,192,43447,1,2,0:0:0:0:
448,192,43447,1,0,0:0:0:50:Edge.wav
64,192,43815,1,0,0:0:0:50:Edge.wav
320,192,43999,1,2,0:0:0:0:
448,192,43999,1,0,0:0:0:0:
64,192,44183,1,2,0:0:0:0:
192,192,44183,1,0,0:0:0:50:Edge.wav
64,192,44368,1,8,0:0:0:0:
192,192,44368,1,0,0:0:0:0:
448,192,44368,1,0,0:0:0:0:
320,192,44552,1,8,0:0:0:0:
448,192,44552,1,0,0:0:0:50:Edge.wav
64,192,44644,1,8,0:0:0:0:
192,192,44644,1,0,0:0:0:0:
320,192,44736,1,8,0:0:0:0:
448,192,44736,1,0,0:0:0:0:
64,192,44920,1,2,0:0:0:0:
320,192,44920,1,0,0:0:0:0:
64,192,45104,1,2,0:0:0:0:
320,192,45104,1,0,0:0:0:0:
192,192,45288,1,8,0:0:0:0:
320,192,45288,1,0,0:0:0:0:
448,192,45288,1,0,0:0:0:0:
64,192,45472,1,2,0:0:0:0:
448,192,45472,1,0,0:0:0:0:
192,192,45656,1,2,0:0:0:0:
320,192,45656,1,0,0:0:0:0:
192,192,45840,1,2,0:0:0:0:
320,192,45840,1,0,0:0:0:0:
64,192,46024,1,8,0:0:0:0:
320,192,46024,1,0,0:0:0:0:
448,192,46024,1,0,0:0:0:0:
64,192,46208,1,2,0:0:0:0:
192,192,46208,1,0,0:0:0:0:
320,192,46392,1,2,0:0:0:0:
448,192,46392,1,0,0:0:0:0:
320,192,46576,1,2,0:0:0:0:
448,192,46576,1,0,0:0:0:0:
64,192,46760,1,8,0:0:0:0:
192,192,46760,1,0,0:0:0:0:
448,192,46760,1,0,0:0:0:0:
192,192,46944,1,2,0:0:0:0:
320,192,46944,1,0,0:0:0:0:
64,192,47128,1,2,0:0:0:0:
448,192,47128,1,0,0:0:0:0:
64,192,47312,1,8,0:0:0:0:
192,192,47312,1,0,0:0:0:0:
320,192,47312,1,0,0:0:0:0:
192,192,47496,1,8,0:0:0:0:
320,192,47496,1,2,0:0:0:0:
448,192,47496,1,0,0:0:0:0:
64,192,47680,1,4,0:0:0:0:
192,192,47680,1,0,0:0:0:0:
320,192,47680,128,0,48049:0:0:0:0:
448,192,47680,1,0,0:0:0:0:
64,192,48049,1,8,0:0:0:0:
192,192,48049,1,2,0:0:0:0:
448,192,48049,1,0,0:0:0:0:
64,192,48233,1,8,0:0:0:0:
320,192,48233,1,0,0:0:0:0:
448,192,48233,1,0,0:0:0:0:
64,192,48417,1,8,0:0:0:0:
192,192,48417,1,2,0:0:0:0:
320,192,48417,1,0,0:0:0:0:
192,192,48601,1,8,0:0:0:0:
320,192,48601,1,0,0:0:0:0:
448,192,48601,1,0,0:0:0:0:
64,192,48785,1,8,0:0:0:0:
192,192,48785,1,2,0:0:0:0:
448,192,48785,1,0,0:0:0:0:
64,192,48969,1,8,0:0:0:0:
320,192,48969,1,0,0:0:0:0:
448,192,48969,1,0,0:0:0:0:
64,192,49153,1,8,0:0:0:0:
192,192,49153,1,2,0:0:0:0:
320,192,49153,1,0,0:0:0:0:
64,192,49337,1,8,0:0:0:0:
192,192,49337,1,0,0:0:0:0:
320,192,49337,1,0,0:0:0:0:
448,192,49337,1,0,0:0:0:0:
64,192,49521,1,8,0:0:0:0:
192,192,49521,1,2,0:0:0:0:
320,192,49521,1,0,0:0:0:0:
448,192,49521,1,0,0:0:0:0:
64,192,50073,1,2,0:0:0:0:
320,192,50073,1,8,0:0:0:0:
448,192,50073,1,0,0:0:0:0:
64,192,50257,1,8,0:0:0:0:
192,192,50257,1,2,0:0:0:0:
320,192,50257,1,0,0:0:0:0:
320,192,50441,1,8,0:0:0:0:
448,192,50441,1,0,0:0:0:0:
64,192,50533,1,8,0:0:0:0:
192,192,50533,1,0,0:0:0:0:
320,192,50625,1,8,0:0:0:0:
448,192,50625,1,0,0:0:0:0:
64,192,50717,1,8,0:0:0:0:
192,192,50717,1,0,0:0:0:0:
64,192,50809,1,4,0:0:0:0:
192,192,50809,1,2,0:0:0:0:
320,192,50809,1,0,0:0:0:0:
448,192,50809,1,0,0:0:0:0:
192,192,50993,1,2,0:0:0:0:
320,192,50993,1,0,0:0:0:0:
64,192,51177,1,8,0:0:0:0:
320,192,51177,1,0,0:0:0:0:
448,192,51177,1,0,0:0:0:0:
64,192,51361,1,2,0:0:0:0:
192,192,51361,1,0,0:0:0:0:
192,192,51545,1,8,0:0:0:0:
320,192,51545,1,0,0:0:0:0:
448,192,51545,1,0,0:0:0:0:
64,192,51729,1,2,0:0:0:0:
448,192,51729,1,0,0:0:0:0:
64,192,51914,128,8,52006:0:0:0:0:
192,192,51914,1,0,0:0:0:0:
320,192,51914,1,0,0:0:0:0:
320,192,52098,1,2,0:0:0:0:
448,192,52098,1,0,0:0:0:0:
64,192,52190,1,2,0:0:0:0:
192,192,52190,1,0,0:0:0:0:
64,192,52282,1,8,0:0:0:0:
192,192,52282,1,0,0:0:0:0:
448,192,52282,1,0,0:0:0:0:
320,192,52466,1,2,0:0:0:0:
448,192,52466,1,0,0:0:0:0:
64,192,52650,1,8,0:0:0:0:
192,192,52650,1,0,0:0:0:0:
320,192,52650,1,0,0:0:0:0:
192,192,52834,1,2,0:0:0:0:
448,192,52834,1,0,0:0:0:0:
64,192,53018,1,8,0:0:0:0:
320,192,53018,1,0,0:0:0:0:
448,192,53018,1,0,0:0:0:0:
64,192,53202,1,2,0:0:0:0:
320,192,53202,1,0,0:0:0:0:
192,192,53386,1,8,0:0:0:0:
320,192,53386,128,0,53478:0:0:0:0:
448,192,53386,128,0,53478:0:0:0:0:
64,192,53570,1,2,0:0:0:0:
192,192,53570,1,0,0:0:0:0:
320,192,53662,1,2,0:0:0:0:
448,192,53662,1,0,0:0:0:0:
64,192,53754,1,8,0:0:0:0:
320,192,53754,1,0,0:0:0:0:
448,192,53754,1,0,0:0:0:0:
192,192,53938,1,2,0:0:0:0:
320,192,53938,1,0,0:0:0:0:
64,192,54122,1,8,0:0:0:0:
192,192,54122,1,0,0:0:0:0:
448,192,54122,1,0,0:0:0:0:
320,192,54306,1,2,0:0:0:0:
448,192,54306,1,0,0:0:0:0:
64,192,54490,1,8,0:0:0:0:
192,192,54490,1,0,0:0:0:0:
320,192,54490,1,0,0:0:0:0:
192,192,54674,1,2,0:0:0:0:
448,192,54674,1,0,0:0:0:0:
64,192,54858,1,8,0:0:0:0:
320,192,54858,1,0,0:0:0:0:
448,192,54858,1,0,0:0:0:0:
192,192,55042,1,2,0:0:0:0:
320,192,55042,1,0,0:0:0:0:
64,192,55134,1,2,0:0:0:0:
448,192,55134,1,0,0:0:0:0:
64,192,55226,1,8,0:0:0:0:
320,192,55226,1,0,0:0:0:0:
448,192,55226,1,0,0:0:0:0:
64,192,55410,1,2,0:0:0:0:
192,192,55410,1,0,0:0:0:0:
192,192,55595,1,8,0:0:0:0:
320,192,55595,1,0,0:0:0:0:
448,192,55595,1,0,0:0:0:0:
64,192,55779,1,2,0:0:0:0:
448,192,55779,1,0,0:0:0:0:
64,192,55963,128,8,56055:0:0:0:0:
192,192,55963,1,0,0:0:0:0:
320,192,55963,1,0,0:0:0:0:
192,192,56147,1,2,0:0:0:0:
448,192,56147,128,0,56239:0:0:0:0:
64,192,56331,128,8,56423:0:0:0:0:
192,192,56331,1,0,0:0:0:0:
320,192,56331,1,0,0:0:0:0:
448,192,56423,1,0,0:0:0:0:
64,192,56515,1,8,0:0:0:0:
192,192,56515,1,0,0:0:0:0:
320,192,56607,1,8,0:0:0:0:
448,192,56607,1,0,0:0:0:0:
64,192,56699,1,8,0:0:0:0:
192,192,56699,1,0,0:0:0:50:Splash.wav
448,192,56699,1,0,0:0:0:0:
64,192,56883,1,2,0:0:0:0:
192,192,56883,1,0,0:0:0:0:
64,192,57067,1,8,0:0:0:0:
320,192,57067,1,0,0:0:0:0:
448,192,57067,1,0,0:0:0:0:
192,192,57251,1,2,0:0:0:0:
320,192,57251,1,0,0:0:0:0:
64,192,57435,1,8,0:0:0:0:
320,192,57435,1,0,0:0:0:0:
448,192,57435,1,0,0:0:0:0:
192,192,57619,1,2,0:0:0:0:
448,192,57619,1,0,0:0:0:0:
64,192,57803,1,8,0:0:0:0:
192,192,57803,1,0,0:0:0:0:
320,192,57803,1,0,0:0:0:0:
64,192,57987,1,2,0:0:0:0:
448,192,57987,1,0,0:0:0:0:
192,192,58079,1,2,0:0:0:0:
320,192,58079,1,0,0:0:0:0:
64,192,58171,1,8,0:0:0:0:
320,192,58171,1,0,0:0:0:0:
448,192,58171,1,0,0:0:0:0:
320,192,58355,1,2,0:0:0:0:
448,192,58355,1,0,0:0:0:0:
64,192,58539,1,8,0:0:0:0:
192,192,58539,1,0,0:0:0:0:
448,192,58539,1,0,0:0:0:0:
320,192,58723,1,2,0:0:0:0:
448,192,58723,1,0,0:0:0:0:
64,192,58907,1,8,0:0:0:0:
192,192,58907,1,0,0:0:0:0:
320,192,58907,1,0,0:0:0:0:
192,192,59091,1,2,0:0:0:0:
448,192,59091,1,0,0:0:0:0:
64,192,59275,1,8,0:0:0:0:
320,192,59275,1,0,0:0:0:0:
448,192,59275,1,0,0:0:0:0:
64,192,59460,1,2,0:0:0:0:
192,192,59460,1,0,0:0:0:0:
320,192,59552,1,2,0:0:0:0:
448,192,59552,1,0,0:0:0:0:
64,192,59644,1,8,0:0:0:0:
320,192,59644,1,0,0:0:0:0:
448,192,59644,1,0,0:0:0:0:
64,192,59828,1,2,0:0:0:0:
192,192,59828,1,0,0:0:0:0:
192,192,60012,1,8,0:0:0:0:
320,192,60012,1,0,0:0:0:0:
448,192,60012,1,0,0:0:0:0:
192,192,60196,1,2,0:0:0:0:
320,192,60196,1,0,0:0:0:0:
64,192,60380,1,8,0:0:0:0:
320,192,60380,1,0,0:0:0:0:
448,192,60380,1,0,0:0:0:0:
192,192,60564,1,2,0:0:0:0:
448,192,60564,1,0,0:0:0:0:
64,192,60748,1,8,0:0:0:0:
192,192,60748,1,0,0:0:0:0:
320,192,60748,1,0,0:0:0:0:
320,192,60932,1,2,0:0:0:0:
448,192,60932,1,0,0:0:0:0:
64,192,61024,1,2,0:0:0:0:
192,192,61024,1,0,0:0:0:0:
64,192,61116,1,8,0:0:0:0:
192,192,61116,1,0,0:0:0:0:
320,192,61116,1,0,0:0:0:0:
64,192,61300,1,2,0:0:0:0:
192,192,61300,1,0,0:0:0:0:
320,192,61392,1,2,0:0:0:0:
448,192,61392,1,0,0:0:0:0:
192,192,61484,1,8,0:0:0:0:
320,192,61484,1,0,0:0:0:0:
448,192,61484,1,0,0:0:0:0:
64,192,61668,1,8,0:0:0:0:
192,192,61668,1,0,0:0:0:0:
320,192,61760,1,8,0:0:0:0:
448,192,61760,1,0,0:0:0:0:
64,192,61852,1,8,0:0:0:0:
192,192,61852,1,0,0:0:0:0:
320,192,61944,1,8,0:0:0:0:
448,192,61944,1,0,0:0:0:0:
64,192,62036,1,8,0:0:0:0:
192,192,62036,1,0,0:0:0:0:
320,192,62128,1,8,0:0:0:0:
448,192,62128,1,0,0:0:0:0:
64,192,62220,1,2,0:0:0:0:
320,192,62220,1,0,0:0:0:50:Splash.wav
448,192,62220,1,0,0:0:0:0:
64,192,62588,1,4,0:0:0:0:
192,192,62588,1,8,0:0:0:0:
320,192,62588,1,0,0:0:0:0:
448,192,62588,1,0,0:0:0:0:
192,192,62772,1,2,0:0:0:0:
320,192,62772,1,0,0:0:0:0:
64,192,62956,1,8,0:0:0:0:
192,192,62956,1,0,0:0:0:0:
448,192,62956,1,0,0:0:0:0:
320,192,63141,1,2,0:0:0:0:
448,192,63141,1,0,0:0:0:0:
64,192,63325,1,8,0:0:0:0:
192,192,63325,1,0,0:0:0:0:
320,192,63325,1,0,0:0:0:0:
64,192,63509,1,2,0:0:0:0:
448,192,63509,1,0,0:0:0:0:
192,192,63693,1,8,0:0:0:0:
320,192,63693,1,0,0:0:0:0:
448,192,63693,1,0,0:0:0:0:
64,192,63877,1,2,0:0:0:0:
192,192,63877,1,0,0:0:0:0:
320,192,63969,1,2,0:0:0:0:
448,192,63969,1,0,0:0:0:0:
64,192,64061,1,8,0:0:0:0:
320,192,64061,1,0,0:0:0:0:
448,192,64061,128,0,64153:0:0:0:0:
64,192,64245,128,2,64337:0:0:0:0:
192,192,64245,1,0,0:0:0:0:
192,192,64429,1,8,0:0:0:0:
320,192,64429,1,0,0:0:0:0:
448,192,64429,128,0,64521:0:0:0:0:
64,192,64613,1,2,0:0:0:0:
320,192,64613,128,0,64705:0:0:0:0:
64,192,64797,128,8,64889:0:0:0:0:
192,192,64797,1,0,0:0:0:0:
448,192,64797,1,0,0:0:0:0:
192,192,64981,1,2,0:0:0:0:
448,192,64981,128,0,65073:0:0:0:0:
64,192,65165,128,8,65257:0:0:0:0:
192,192,65165,1,0,0:0:0:0:
320,192,65165,1,0,0:0:0:0:
320,192,65349,128,2,65441:0:0:0:0:
448,192,65349,1,0,0:0:0:0:
64,192,65441,1,2,0:0:0:0:
192,192,65441,1,0,0:0:0:0:
64,192,65533,1,8,0:0:0:0:
192,192,65533,1,0,0:0:0:0:
448,192,65533,128,0,65625:0:0:0:0:
192,192,65717,1,2,0:0:0:0:
320,192,65717,1,0,0:0:0:0:
64,192,65901,1,8,0:0:0:0:
320,192,65901,1,0,0:0:0:0:
448,192,65901,1,0,0:0:0:0:
64,192,66085,1,2,0:0:0:0:
192,192,66085,1,0,0:0:0:0:
192,192,66269,1,8,0:0:0:0:
320,192,66269,1,0,0:0:0:0:
448,192,66269,1,0,0:0:0:0:
64,192,66453,1,2,0:0:0:0:
320,192,66453,1,0,0:0:0:0:
64,192,66637,1,8,0:0:0:0:
192,192,66637,1,0,0:0:0:0:
448,192,66637,1,0,0:0:0:0:
192,192,66822,1,2,0:0:0:0:
320,192,66822,1,0,0:0:0:0:
64,192,66914,1,2,0:0:0:0:
448,192,66914,1,0,0:0:0:0:
64,192,67006,1,8,0:0:0:0:
192,192,67006,1,0,0:0:0:0:
448,192,67006,1,0,0:0:0:0:
320,192,67190,1,2,0:0:0:0:
448,192,67190,1,0,0:0:0:0:
64,192,67374,1,8,0:0:0:0:
192,192,67374,1,0,0:0:0:0:
320,192,67374,1,0,0:0:0:0:
64,192,67558,1,2,0:0:0:0:
448,192,67558,1,0,0:0:0:0:
192,192,67742,1,8,0:0:0:0:
320,192,67742,1,0,0:0:0:0:
448,192,67742,128,0,67834:0:0:0:0:
64,192,67926,128,2,68018:0:0:0:0:
192,192,67926,1,0,0:0:0:0:
192,192,68110,1,8,0:0:0:0:
320,192,68110,1,0,0:0:0:0:
448,192,68110,128,0,68202:0:0:0:0:
320,192,68294,1,8,0:0:0:0:
448,192,68294,1,0,0:0:0:0:
64,192,68386,1,8,0:0:0:0:
192,192,68386,1,0,0:0:0:0:
64,192,68478,1,8,0:0:0:0:
320,192,68478,1,0,0:0:0:50:Splash.wav
448,192,68478,1,0,0:0:0:0:
320,192,68662,1,2,0:0:0:0:
448,192,68662,1,0,0:0:0:0:
64,192,68846,1,8,0:0:0:0:
192,192,68846,1,0,0:0:0:0:
448,192,68846,1,0,0:0:0:0:
192,192,69030,1,2,0:0:0:0:
320,192,69030,1,0,0:0:0:0:
64,192,69214,1,8,0:0:0:0:
192,192,69214,1,0,0:0:0:0:
448,192,69214,1,0,0:0:0:0:
64,192,69398,1,2,0:0:0:0:
320,192,69398,1,0,0:0:0:0:
192,192,69582,1,8,0:0:0:0:
320,192,69582,1,0,0:0:0:0:
448,192,69582,1,0,0:0:0:0:
64,192,69766,1,2,0:0:0:0:
448,192,69766,1,0,0:0:0:0:
192,192,69858,1,2,0:0:0:0:
320,192,69858,1,0,0:0:0:0:
64,192,69950,1,8,0:0:0:0:
320,192,69950,1,0,0:0:0:0:
448,192,69950,1,0,0:0:0:0:
64,192,70134,1,2,0:0:0:0:
192,192,70134,1,0,0:0:0:0:
64,192,70318,1,8,0:0:0:0:
320,192,70318,1,0,0:0:0:0:
448,192,70318,1,0,0:0:0:0:
64,192,70502,1,2,0:0:0:0:
192,192,70502,1,0,0:0:0:0:
192,192,70687,1,8,0:0:0:0:
320,192,70687,1,0,0:0:0:0:
448,192,70687,1,0,0:0:0:0:
64,192,70871,1,2,0:0:0:0:
320,192,70871,1,0,0:0:0:0:
64,192,71055,1,8,0:0:0:0:
192,192,71055,1,0,0:0:0:0:
448,192,71055,1,0,0:0:0:0:
320,192,71239,1,2,0:0:0:0:
448,192,71239,1,0,0:0:0:0:
64,192,71331,1,2,0:0:0:0:
192,192,71331,1,0,0:0:0:0:
64,192,71423,1,2,0:0:0:0:
192,192,71423,1,8,0:0:0:0:
448,192,71423,1,0,0:0:0:0:
64,192,71607,1,8,0:0:0:0:
192,192,71607,1,0,0:0:0:0:
320,192,71607,1,0,0:0:0:0:
192,192,71791,1,8,0:0:0:0:
320,192,71791,1,2,0:0:0:0:
448,192,71791,1,0,0:0:0:0:
64,192,71975,1,8,0:0:0:0:
320,192,71975,1,0,0:0:0:0:
448,192,71975,1,0,0:0:0:0:
64,192,72159,1,8,0:0:0:0:
192,192,72159,1,2,0:0:0:0:
320,192,72159,1,0,0:0:0:0:
64,192,72343,1,8,0:0:0:0:
192,192,72343,1,0,0:0:0:0:
448,192,72343,1,0,0:0:0:0:
192,192,72527,1,8,0:0:0:0:
320,192,72527,1,2,0:0:0:0:
448,192,72527,1,0,0:0:0:0:
64,192,72711,1,8,0:0:0:0:
192,192,72711,1,0,0:0:0:0:
448,192,72711,1,0,0:0:0:0:
320,192,72803,1,0,0:0:0:0:
64,192,72895,1,2,0:0:0:0:
192,192,72895,1,8,0:0:0:0:
448,192,72895,1,0,0:0:0:0:
64,192,73079,1,8,0:0:0:0:
320,192,73079,1,2,0:0:0:0:
448,192,73079,1,0,0:0:0:0:
192,192,73263,1,8,0:0:0:0:
320,192,73263,1,2,0:0:0:0:
448,192,73263,1,0,0:0:0:0:
64,192,73447,1,8,0:0:0:0:
192,192,73447,1,2,0:0:0:0:
320,192,73447,1,0,0:0:0:0:
64,192,73631,1,8,0:0:0:0:
320,192,73631,1,2,0:0:0:0:
448,192,73631,1,0,0:0:0:0:
64,192,73815,1,8,0:0:0:0:
192,192,73815,1,0,0:0:0:0:
448,192,73815,1,0,0:0:0:0:
192,192,73999,1,8,0:0:0:0:
320,192,73999,1,0,0:0:0:0:
448,192,73999,1,0,0:0:0:0:
64,192,74183,1,8,0:0:0:0:
192,192,74183,1,0,0:0:0:0:
320,192,74183,1,0,0:0:0:0:
64,192,74368,1,8,0:0:0:0:
192,192,74368,1,2,0:0:0:0:
320,192,74368,1,0,0:0:0:0:
448,192,74368,1,0,0:0:0:0:
320,192,74552,1,2,0:0:0:0:
448,192,74552,1,0,0:0:0:0:
320,192,74736,1,2,0:0:0:0:
448,192,74736,1,0,0:0:0:0:
64,192,74920,1,8,0:0:0:0:
192,192,74920,1,2,0:0:0:0:
320,192,74920,1,0,0:0:0:0:
448,192,74920,1,0,0:0:0:0:
64,192,75104,1,2,0:0:0:0:
192,192,75104,1,0,0:0:0:0:
64,192,75288,1,2,0:0:0:0:
192,192,75288,1,0,0:0:0:0:
64,192,75472,1,2,0:0:0:0:
192,192,75472,1,8,0:0:0:0:
320,192,75472,1,0,0:0:0:0:
448,192,75472,1,0,0:0:0:0:
320,192,75656,1,0,0:0:0:0:
448,192,75656,128,0,75840:0:0:0:0:
64,192,76024,128,2,76300:0:0:0:0:
448,192,76024,1,0,0:0:0:40:Tom1.wav
320,192,76300,1,0,0:0:0:40:Tom2.wav
448,192,76300,128,0,76576:0:0:0:0:
192,192,76576,1,0,0:0:0:40:Tom2.wav
320,192,76576,128,0,76852:0:0:0:0:
64,192,76852,1,0,0:0:0:40:Tom3.wav
192,192,76852,128,0,77128:0:0:0:0:
320,192,77128,1,8,0:0:0:0:
448,192,77128,1,0,0:0:0:0:
64,192,77220,1,8,0:0:0:0:
192,192,77220,1,0,0:0:0:0:
64,192,77312,1,8,0:0:0:0:
192,192,77312,1,0,0:0:0:0:
448,192,77312,1,0,0:0:0:0:
64,192,77680,1,8,0:0:0:0:
192,192,77680,1,0,0:0:0:0:
320,192,77680,1,0,0:0:0:0:
64,192,77864,1,8,0:0:0:0:
192,192,77864,1,0,0:0:0:0:
320,192,77864,1,0,0:0:0:0:
64,192,78049,1,2,0:0:0:0:
448,192,78049,1,0,0:0:0:0:
64,192,78233,1,2,0:0:0:0:
448,192,78233,1,0,0:0:0:0:
192,192,78417,1,8,0:0:0:0:
320,192,78417,1,0,0:0:0:0:
448,192,78417,1,0,0:0:0:0:
64,192,78785,1,2,0:0:0:0:
192,192,78785,1,0,0:0:0:0:
192,192,79153,1,8,0:0:0:0:
320,192,79153,1,0,0:0:0:0:
448,192,79153,1,0,0:0:0:0:
192,192,79337,1,8,0:0:0:0:
320,192,79337,1,0,0:0:0:0:
448,192,79337,1,0,0:0:0:0:
64,192,79521,1,2,0:0:0:0:
448,192,79521,1,0,0:0:0:0:
64,192,79705,1,2,0:0:0:0:
448,192,79705,1,0,0:0:0:0:
320,192,79751,1,0,0:0:0:0:
192,192,79797,1,0,0:0:0:0:
64,192,79843,1,0,0:0:0:0:
320,192,79889,1,8,0:0:0:0:
448,192,79889,1,0,0:0:0:0:
64,192,79981,1,8,0:0:0:0:
192,192,79981,1,0,0:0:0:0:
320,192,80073,1,8,0:0:0:0:
448,192,80073,1,0,0:0:0:0:
64,192,80165,1,8,0:0:0:0:
192,192,80165,1,0,0:0:0:0:
64,192,80257,1,4,0:0:0:0:
192,192,80257,1,2,0:0:0:0:
320,192,80257,1,0,0:0:0:0:
448,192,80257,1,0,0:0:0:0:
64,192,80625,1,8,0:0:0:0:
192,192,80625,1,0,0:0:0:0:
448,192,80625,1,0,0:0:0:0:
320,192,80809,1,2,0:0:0:0:
448,192,80809,1,0,0:0:0:0:
320,192,80993,1,2,0:0:0:0:
448,192,80993,1,0,0:0:0:0:
64,192,81177,1,2,0:0:0:0:
192,192,81177,1,0,0:0:0:0:
64,192,81361,1,8,0:0:0:0:
320,192,81361,1,0,0:0:0:0:
448,192,81361,1,0,0:0:0:0:
192,192,81545,1,2,0:0:0:0:
320,192,81545,1,4,0:0:0:0:
448,192,81545,1,0,0:0:0:0:
64,192,81914,128,0,82098:0:0:0:0:
320,192,82098,128,0,82282:0:0:0:0:
192,192,82282,128,0,82466:0:0:0:0:
448,192,82466,128,0,82650:0:0:0:0:
64,192,82650,128,0,82834:0:0:0:0:
320,192,82834,128,0,83018:0:0:0:0:
64,192,83018,1,2,0:0:0:0:
192,192,83018,1,4,0:0:0:0:
448,192,83018,1,0,0:0:0:0:
64,192,83202,1,8,0:0:0:0:
192,192,83202,1,0,0:0:0:0:
320,192,83294,1,8,0:0:0:0:
448,192,83294,1,0,0:0:0:0:
64,192,83386,1,2,0:0:0:0:
192,192,83386,1,0,0:0:0:40:Tom1.wav
320,192,83570,1,2,0:0:0:0:
448,192,83570,1,0,0:0:0:0:
64,192,83754,1,8,0:0:0:0:
448,192,83754,1,0,0:0:0:0:
192,192,83846,1,8,0:0:0:0:
320,192,83846,1,0,0:0:0:0:
64,192,83938,1,2,0:0:0:0:
448,192,83938,1,0,0:0:0:40:Tom2.wav
320,192,84122,1,8,0:0:0:0:
448,192,84122,1,0,0:0:0:0:
64,192,84214,1,8,0:0:0:0:
192,192,84214,1,0,0:0:0:0:
320,192,84306,1,2,0:0:0:0:
448,192,84306,1,0,0:0:0:40:Tom3.wav
64,192,84490,1,2,0:0:0:0:
192,192,84490,128,0,84858:0:0:0:40:Tom3.wav
64,192,84858,1,0,0:0:0:40:Tom1.wav
448,192,84858,1,0,0:0:0:0:
320,192,84904,1,0,0:0:0:0:
192,192,84950,1,0,0:0:0:40:Tom2.wav
64,192,84996,1,0,0:0:0:0:
448,192,85042,1,0,0:0:0:40:Tom2.wav
192,192,85088,1,0,0:0:0:0:
320,192,85134,1,0,0:0:0:40:Tom3.wav
64,192,85180,1,0,0:0:0:0:
192,192,85226,1,2,0:0:0:0:
320,192,85226,1,4,0:0:0:0:
448,192,85226,128,0,90196:0:0:0:0:
