osu file format v14

[General]
AudioFilename: audio.mp3
AudioLeadIn: 0
PreviewTime: 894
Countdown: 0
SampleSet: Normal
StackLeniency: 0.7
Mode: 1
LetterboxInBreaks: 0
WidescreenStoryboard: 0

[Editor]
Bookmarks: 9393,20193,29793,34593,44193,51393
DistanceSpacing: 0.8
BeatDivisor: 4
GridSize: 16
TimelineZoom: 1

[Metadata]
Title:Excitebike Arena
TitleUnicode:エキサイトバイク
Artist:Fujii Shiho
ArtistUnicode:藤井志帆
Creator:Ascendance
Version:Kantan
Source:マリオカート8
Tags:Ekisaitobaiku Mario Kart mariokart mk8 hikikochan kin kinzo jbhyperion jbh spectator
BeatmapID:1628575
BeatmapSetID:774406

[Difficulty]
HPDrainRate:8
CircleSize:2
OverallDifficulty:3
ApproachRate:5
SliderMultiplier:1.4
SliderTickRate:1

[Events]
//Background and Video events
0,0,"cropped-1920-1080-500882.jpg",0,0
//Break Periods
//Storyboard Layer 0 (Background)
//Storyboard Layer 1 (Fail)
//Storyboard Layer 2 (Pass)
//Storyboard Layer 3 (Foreground)
//Storyboard Sound Samples

[TimingPoints]
969,300,4,1,0,70,1,0
44169,-100,4,1,0,90,0,1
56169,-100,4,1,0,70,0,0

[HitObjects]
256,192,969,5,4,0:0:0:0:
256,192,2169,1,0,0:0:0:0:
256,192,2619,1,8,0:0:0:0:
256,192,3369,1,4,0:0:0:0:
256,192,4569,1,8,0:0:0:0:
256,192,5019,1,8,0:0:0:0:
256,192,5769,1,4,0:0:0:0:
256,192,6369,1,0,0:0:0:0:
256,192,6969,1,0,0:0:0:0:
256,192,7419,1,8,0:0:0:0:
256,192,8169,1,8,0:0:0:0:
256,192,8619,1,8,0:0:0:0:
256,192,9069,1,8,0:0:0:0:
256,192,9369,1,8,0:0:0:0:
256,192,10569,1,4,0:0:0:0:
256,192,11769,1,0,0:0:0:0:
256,192,12219,1,8,0:0:0:0:
256,192,12969,1,0,0:0:0:0:
256,192,14169,1,8,0:0:0:0:
256,192,14619,1,8,0:0:0:0:
256,192,15369,1,0,0:0:0:0:
256,192,16269,1,0,0:0:0:0:
256,192,16569,1,8,0:0:0:0:
256,192,17769,1,0,0:0:0:0:
256,192,18219,1,8,0:0:0:0:
256,192,18819,1,8,0:0:0:0:
256,192,19419,1,4,0:0:0:0:
256,192,20169,1,0,0:0:0:0:
256,192,21369,1,0,0:0:0:0:
256,192,21819,1,8,0:0:0:0:
256,192,22569,1,0,0:0:0:0:
256,192,23769,1,8,0:0:0:0:
256,192,24219,1,8,0:0:0:0:
256,192,24969,1,0,0:0:0:0:
256,192,25419,1,8,0:0:0:0:
256,192,26169,1,0,0:0:0:0:
256,192,27369,1,4,0:0:0:0:
256,192,28569,1,8,0:0:0:0:
256,192,29169,1,8,0:0:0:0:
256,192,29769,1,4,0:0:0:0:
256,192,30969,1,8,0:0:0:0:
256,192,31419,1,8,0:0:0:0:
256,192,32169,1,0,0:0:0:0:
256,192,33369,1,0,0:0:0:0:
256,192,33819,1,8,0:0:0:0:
256,192,34569,1,8,0:0:0:0:
256,192,35469,1,8,0:0:0:0:
256,192,36369,1,0,0:0:0:0:
256,192,36969,1,8,0:0:0:0:
256,192,37869,1,8,0:0:0:0:
256,192,38769,1,0,0:0:0:0:
256,192,39369,1,4,0:0:0:0:
256,192,40569,1,14,0:0:0:0:
256,192,41769,1,8,0:0:0:0:
256,192,42369,1,8,0:0:0:0:
256,192,42969,1,0,0:0:0:0:
256,192,43269,1,8,0:0:0:0:
256,192,43569,1,0,0:0:0:0:
256,192,44169,1,12,0:0:0:0:
256,192,45069,1,8,0:0:0:0:
256,192,45369,1,0,0:0:0:0:
256,192,46269,1,8,0:0:0:0:
256,192,46569,1,0,0:0:0:0:
256,192,47169,1,0,0:0:0:0:
256,192,47619,1,0,0:0:0:0:
256,192,48669,1,8,0:0:0:0:
256,192,48969,1,0,0:0:0:0:
256,192,50169,1,8,0:0:0:0:
256,192,51069,1,0,0:0:0:0:
256,192,51369,1,8,0:0:0:0:
256,192,52569,1,0,0:0:0:0:
256,192,53019,1,0,0:0:0:0:
256,192,53319,1,0,0:0:0:0:
256,192,53769,12,0,56169,0:0:0:0:
